#TITLE:BREAK OVER;
#ARTIST:MASAYOSHI IIMORI;
#GENRE:FESTIVAL SOUND;
#BANNER:BREAK OVER.png;
#BACKGROUND:BREAK OVER-bg.png;
#CDTITLE:./CDTitles/bm IIDX 24 SINOBUZ.png;
#MUSIC:BREAK OVER.ogg;
#SAMPLESTART:11.2;
#SAMPLELENGTH:15;
#BPMS:0=150,160=106;
#BGCHANGES:-3.25=BREAK OVER.mp4=1=0=0=0=StretchNoLoop====,99999=-nosongbg-=1=0=0=0 // don't automatically add -songbackground-;

//--------------- dance-single - XLev450X-bSP ----------------
#NOTES:
     dance-single:
     XLev450X:
     Beginner:
     3:
     0,0,0,0,0:
0000
0000
0000
0000
,
0000
0000
0000
0000
,
0000
0000
0000
0000
,
0000
0000
0000
0000
,
0001
0001
0001
0000
,
1000
1000
1000
0000
,
0010
0100
0010
0000
,
1001
0000
0000
0000
,
0001
0000
0001
0000
,
0001
0000
0000
0000
,
1000
0000
1000
0000
,
1000
0000
0000
0000
,
0100
0000
0010
0000
,
0100
0000
0000
0000
,
0001
0000
0010
0000
,
0001
0000
0000
0000
,
0001
0001
0000
0000
,
1000
1000
0000
0000
,
0100
0100
0000
0000
,
0010
0010
0000
0000
,
0010
0000
0010
0000
,
1000
0000
0000
0000
,
0100
0000
0100
0000
,
0001
0000
0000
0000
,
0001
0000
0001
0000
,
0001
0000
0000
0000
,
0001
0000
0100
0000
,
1000
0000
0000
0000
,
0010
0000
0010
0000
,
0010
0000
0000
0000
,
0010
0000
0100
0000
,
0100
0000
0000
0000
,
1000
0000
0000
0000
,
0001
0000
0000
0000
,
1000
0000
0000
0000
,
0010
0000
0000
0000
,
0100
0100
0010
0000
,
0001
0001
1000
0000
,
0100
0010
0100
0000
,
0001
1000
0001
0000
,
1001
0000
0000
0000
,
0000
0000
0000
0000
,
0000
0000
0000
0000
,
0000
0000
0000
0000
,
0000
0000
0000
0000
,
0000
0000
0000
0000
,
0000
0000
0000
0000
,
0000
0000
0000
0000
,
0001
0000
0001
0000
,
0001
0000
0000
0000
,
1000
0000
1000
0000
,
1000
0000
0000
0000
,
0010
0000
0010
0000
,
0010
0000
0100
0000
,
0100
0000
0100
0000
,
0001
0000
1000
0000
,
0001
0000
0000
0000
,
1000
0000
0000
0000
,
0010
0000
0100
0000
,
0010
0000
0000
0000
,
0001
0000
1000
0000
,
0001
0000
0000
0000
,
0010
0000
0100
0000
,
0010
0000
0000
0000
,
0001
0000
0001
0000
,
1000
0000
0000
0000
,
1000
0000
1000
0000
,
0001
0000
0000
0000
,
2002
0000
0000
3003
0000
0000
0000
0000
;

//--------------- dance-single - XLev450X-BSP ----------------
#NOTES:
     dance-single:
     XLev450X:
     Easy:
     7:
     0,0,0,0,0:
0000
0000
0000
0000
,
0000
0000
0000
0000
,
0000
0000
0000
0000
,
0000
0000
0000
0000
,
0001
1000
0010
0100
,
0001
0010
1000
0001
,
0001
1000
0001
0000
0010
1000
0010
0000
,
2002
0000
0000
0000
0000
0000
0000
3003
,
0001
1000
0010
0100
,
0001
0100
1000
0010
,
1000
0010
1000
0000
0001
0100
0001
0000
,
1000
0001
1000
0001
,
0010
1000
0010
0000
0010
0100
0010
0000
,
0001
0010
0001
0000
0001
0100
0001
0000
,
1000
0000
0001
0000
0100
1000
0100
0000
,
0220
0000
0000
0000
0000
0000
0000
0330
,
0001
1000
0010
0100
,
1000
0010
1000
0000
0001
0100
0001
0000
,
1000
0000
0001
0000
1000
0001
1000
0000
,
0010
1000
0010
0000
0010
0000
0001
0000
,
0100
1000
0001
1000
,
0001
1000
0001
0000
0010
1000
0010
0000
,
0010
0000
0100
0000
0001
0100
0001
1000
,
2002
0000
0000
3003
,
0110
0000
0001
1000
,
0000
0010
0100
0001
,
1000
0000
0001
0000
0100
1000
0001
0000
,
0010
1000
0100
0000
,
0010
0000
0001
0100
,
1000
0001
1000
0000
,
0010
0000
1000
0000
0001
0100
0001
0000
,
1000
0001
1000
0000
,
0010
0000
0100
0000
,
0001
1000
0001
1000
,
0001
0000
0010
1000
,
0100
0001
0010
0000
,
2002
3003
0100
0001
,
0010
0100
1000
0000
,
0001
0000
0001
0000
1000
0001
1000
0000
,
0010
1000
0010
0000
0010
0100
0010
0000
,
2002
0000
0000
0000
,
0000
0000
0000
0000
,
0000
0000
0000
0000
,
0000
0000
0000
0000
,
0000
0000
0000
0000
,
0000
0000
0000
0000
,
0000
0000
0000
0000
,
0000
0000
0000
3003
,
0001
0001
1000
1000
,
0010
0010
0100
0100
,
0001
0000
1000
0000
0010
1000
0010
0100
,
2002
0000
0000
3003
,
0001
0001
0010
1000
,
0010
0100
0001
0000
,
1000
0100
0001
0100
,
1000
0010
0100
0000
,
0010
0000
0001
0000
0010
0001
0010
0000
,
1000
0000
0100
0000
1000
0010
1000
0000
,
0001
1000
0010
0100
,
2002
0000
0000
3003
2002
0000
0000
3003
,
0001
0000
1000
0000
0010
0100
0010
0000
,
0001
0000
0100
0000
1000
0001
1000
0000
,
0010
0000
1000
0000
0100
0001
0001
0000
,
1000
0000
0100
0000
1000
0010
0100
0000
,
0001
1000
0001
0010
,
1000
0100
0010
0000
,
0001
1000
0010
0100
,
0001
0010
0001
0000
0100
1000
0100
0000
,
2002
0000
0000
3003
0000
0000
0000
0000
;

//--------------- dance-single - XLev450X-DSP ----------------
#NOTES:
     dance-single:
     XLev450X:
     Medium:
     11:
     0,0,0,0,0:
0000
0000
0000
0000
,
0000
0000
0000
0000
,
0000
0000
0000
0000
,
0000
0000
0000
0000
,
0001
1000
0010
0100
,
0001
0010
0100
1000
,
0001
1000
0001
0000
0010
1000
0010
0000
,
2002
0000
0000
0000
0000
0000
0000
0000
0000
0000
0000
0000
0000
3003
0000
0000
,
0001
0000
0000
0000
1000
0000
0000
0000
0010
0000
0000
0100
0000
0000
0010
0000
,
0001
0000
0000
0000
1000
0000
0000
0000
0001
0000
0000
0001
0000
0000
1000
0000
,
0010
0000
0000
0000
0100
0000
0000
0000
1000
0000
0000
0010
0000
0000
1000
0000
,
0001
0000
0010
0000
0100
1000
0001
0000
,
0010
0000
1000
0100
0000
0001
0010
0000
,
1000
0000
0001
0100
0000
0010
1000
0000
,
0001
0000
1000
0001
0000
0100
0010
0000
,
2002
0000
0000
0000
0000
0000
0000
0000
0000
0000
0000
0000
0000
3003
0000
0000
,
0001
1000
0010
1000
,
0100
0001
0100
1000
,
0010
1000
0010
0000
0001
0010
0001
0000
,
1000
0001
1000
0000
,
0010
0000
0000
1000
0000
0010
0001
0000
,
0001
0000
0000
1000
0000
0001
0010
0000
,
1000
0001
0010
0100
,
1001
0000
0000
0000
,
0001
0000
0010
1000
,
0100
0010
0001
0000
,
0100
0000
1000
0000
0010
1000
0010
0000
,
0001
1000
0001
0000
,
0100
0010
0010
1000
,
0001
1000
0010
0000
,
1000
0100
0001
0010
,
0100
0000
1000
0000
0001
1000
0001
0000
,
1000
0000
0001
1000
,
0010
0000
0000
0000
0100
0000
0000
0000
0001
0000
0000
0010
0000
0000
0100
0000
,
2000
0000
0000
3000
0001
0000
1000
0000
,
0010
0000
0100
0000
0001
0100
2000
0000
,
0002
0000
0000
3003
0001
0000
1000
0000
,
0010
0000
0100
0000
0001
0010
0001
0000
,
1000
0000
0001
0000
1000
0010
1000
0000
,
0010
0100
0001
1000
0010
0200
0310
0000
,
2002
0000
0000
0000
,
0000
0000
0000
0000
,
0000
0000
0000
0000
,
0000
0000
0000
0000
,
0000
0000
0000
0000
,
0000
0000
0000
0000
,
0000
0000
0000
0000
,
0000
0000
0000
3003
,
0001
0000
0000
1000
0000
0000
0010
0000
0100
0000
0000
0001
0000
0000
1000
0000
,
0010
0000
0000
0100
0000
0000
0001
0000
1000
0000
0000
0010
0000
0000
0100
0000
,
0001
0000
1000
0000
0010
0000
1000
0000
0010
1000
0010
0000
0001
0010
0001
0000
,
1001
0000
0000
0000
,
0001
0000
1000
0000
0010
0100
0001
0000
,
0100
1000
0010
0100
1000
0001
0010
0000
,
1000
0000
0100
0000
0001
0010
0001
0100
,
1000
0001
0010
1000
0220
0000
0000
0330
,
0001
0000
1000
0010
0100
0000
0001
0010
,
0001
0000
1000
0010
1000
0000
0100
0010
,
0100
0000
0001
0000
1000
0001
1000
0000
,
0010
0001
1000
0100
0020
0000
0200
0330
,
1000
0000
0001
1000
0010
0100
0001
0000
,
0100
0000
1000
0010
1000
0001
0010
0000
,
1000
0000
0100
0001
0010
1000
0001
0000
,
1000
0000
0010
0100
0001
0010
1000
0000
,
0001
0000
1000
0010
1000
0000
0010
0100
,
0001
0000
1000
0001
1000
0000
0010
1000
,
0100
0001
0010
0100
1000
0001
0010
0100
,
0001
0010
0001
0000
1000
0100
1000
0000
0010
0100
0010
0000
0001
1000
0001
0000
,
2002
0000
0000
3003
0000
0000
0000
0000
;

//--------------- dance-single - XLev450X-ESP ----------------
#NOTES:
     dance-single:
     XLev450X:
     Hard:
     14:
     0,0,0,0,0:
0000
0000
0000
0000
,
0000
0000
0000
0000
,
0000
0000
0000
0000
,
0000
0000
0000
0000
,
0001
0000
1000
0000
0010
0100
0010
0000
,
0001
0000
0010
0000
1000
0001
1000
0000
,
0010
0000
1000
0000
0010
0000
0100
0000
0001
1000
0001
1000
0001
1000
0001
1000
,
0002
0000
1000
0000
1000
0000
2000
3003
,
0001
0000
0000
0000
1000
0000
0000
0000
0010
0000
0000
0100
0000
0000
0001
0000
,
1000
0000
0001
1000
0001
0000
1000
0000
0010
0000
0000
0100
0000
0000
1000
0000
,
0001
0000
0010
0001
0010
0100
1000
0000
0001
0000
0000
0100
0000
0000
1000
0000
,
0001
0000
1000
0010
1000
0000
0010
0000
0100
0000
0000
0000
2002
3003
0000
0000
,
0001
0000
0000
0000
1000
0000
0001
0000
0000
0000
0100
0000
0010
0000
0001
0100
,
1000
0000
0001
0000
0010
0000
0100
0000
0000
0000
0001
0000
0010
0000
1000
0100
,
0001
0000
1000
0000
0010
0000
0001
0000
0000
0000
1000
0000
0010
0000
0001
1000
,
0002
0000
1000
0000
1000
0000
2000
3003
,
0001
0000
1000
0010
0100
0000
0001
0010
,
0001
0100
1000
0001
1000
0000
0010
1000
,
0010
0000
0001
0000
0100
1000
0100
0000
,
0001
0010
1000
0001
0010
0001
2002
3003
,
0001
0000
1000
0000
0010
0000
0000
0010
0000
0000
0100
0000
0001
0000
0000
0000
,
0001
0000
0100
0000
1000
0000
0000
1000
0000
0000
1000
0000
0010
0000
0000
0000
,
0010
1000
0100
0001
0010
1000
0001
1000
,
2002
0000
0000
3003
,
0220
0000
0330
0000
0001
1000
0001
0000
,
0010
1000
0010
0000
0001
0100
0001
0000
,
1000
0000
0001
1000
0001
0000
0010
0100
,
1000
0001
1000
0010
1000
0010
0100
0010
,
0002
1000
2000
3003
0100
0000
1000
0001
,
0000
1000
0010
0000
0010
1000
0010
0000
,
0001
0000
0010
0000
0010
1000
0010
0000
,
0001
0100
1000
0000
0001
0010
1000
0000
,
2002
3003
0010
0001
,
1000
0000
0010
0000
1000
0000
0100
0000
0001
0000
0000
0100
0000
0000
0001
0000
,
2002
0000
0000
3003
0100
0000
0001
0000
,
1000
0001
1000
0000
0010
1000
0010
1000
,
0002
0000
2000
3003
1000
0010
1000
0001
,
1000
0000
0001
1000
0010
0000
0100
0001
,
0100
0000
1000
0000
0001
1000
0001
1000
,
0010
0100
0001
1000
0010
0100
0002
0003
,
2002
0000
0000
0000
,
0000
0000
0000
0000
,
0000
0000
0000
0000
,
0000
0000
0000
0000
,
0000
0000
0000
0000
,
0000
0000
0000
0000
,
0000
0000
0000
0000
,
0000
0000
0000
3003
,
0001
0000
0000
1000
0000
0000
0010
0000
0100
0000
0000
0001
0000
0000
1000
0000
,
0010
0000
0000
0100
0000
0000
0001
0000
0010
0000
0000
1000
0000
0000
0001
0000
,
1000
0000
0010
0000
0100
0000
1000
0000
0001
1000
0010
0100
0001
1000
0010
0100
,
2002
0000
0000
0000
0000
0000
0000
3003
,
0001
0000
0000
0000
1000
0000
0010
0000
0100
0000
0001
0000
0010
0001
0010
0000
,
1000
0000
0010
0000
0100
0010
0100
0000
0001
0000
1000
0000
0010
1000
0010
0100
,
0001
0000
1000
0000
0001
0000
1000
0000
0010
1000
0010
0000
0001
0010
0001
0000
,
0100
1000
0001
1000
0010
0000
1000
0000
0002
0000
1000
0000
1000
0000
1003
0000
,
1001
0000
0000
0000
0001
1000
0010
0000
0010
0000
0100
0000
1000
0001
1000
0000
,
0010
0000
0100
0000
1000
0010
1000
0000
0010
0000
0001
0000
0100
0001
0100
0000
,
0001
0000
1000
0000
0001
1000
0001
0000
0010
1000
0010
0000
0010
0100
0010
0000
,
0001
1000
0001
1000
0020
1000
1000
0030
,
0001
0000
0100
0000
1000
0000
0000
0000
0010
0000
0000
0000
0100
0000
0000
0000
0001
0000
0010
0000
0001
0000
0000
0000
1000
0000
0000
0001
0000
0000
0010
0000
,
0100
0000
0001
1000
0001
0000
1000
0000
0010
0000
0100
0000
0010
1000
0100
0000
,
0001
0000
0010
0000
0000
0000
1000
0000
0001
0000
0000
0000
0010
0000
0000
0000
1000
0000
0000
0000
0010
0000
0000
0000
0010
0000
0000
1000
0000
0000
0010
0000
,
0001
0000
0010
0001
0010
0000
1000
0001
0000
1000
0010
0000
0220
0000
0000
0330
,
0001
0000
1000
0000
0010
0000
0100
0010
0100
0000
0001
0000
0010
0000
0001
0010
,
0001
0000
1000
0000
0001
0000
1000
0010
1000
0000
0010
0000
0100
0000
1000
0000
,
0001
0000
1000
0000
0010
0000
0100
0000
0001
1000
0001
0000
0010
1000
0010
0000
,
0001
1000
0010
1000
0001
0100
1000
0010
0001
1000
0010
1000
0001
0010
0100
1000
,
0202
0000
0000
0303
0000
0000
0000
0000
;
