#TITLE:ブンバヤ -日本語版-;
#ARTIST:ブラックピンク;
#TITLETRANSLIT:BOOMBAYAH -Japanese version-;
#ARTISTTRANSLIT:BLACKPINK;
#GENRE:J-POP;
#MUSIC:BOOMBAYAH -Japanese version-.ogg;
#BANNER:BOOMBAYAH -Japanese version-.png;
#BACKGROUND:BOOMBAYAH -Japanese version--bg.png;
#SAMPLESTART:74.974;
#SAMPLELENGTH:15;
#OFFSET:-0.094;
#BPMS:0=125;

//--------------- dance-single - XLev450X-bSP ----------------
#NOTES:
     dance-single:
     XLev450X:
     Beginner:
     5:
     0,0,0,0,0:
0000
0000
0000
0000
,
0000
0000
0000
0000
,
0000
0000
0000
0000
,
0000
0000
0000
0000
,
0000
0000
0000
0000
,
0001
1000
0010
0000
,
0100
0010
1000
0000
,
0001
1000
0010
2000
,
0000
0000
0000
0000
0000
3000
0220
0330
,
0001
0001
0001
0000
,
1000
0010
0100
0000
,
0001
0010
1000
0000
,
0100
1000
0001
0000
,
0010
0001
1000
0000
,
0010
0100
1000
0000
,
0001
0100
0010
1000
,
0001
0010
0100
0000
,
0001
1000
0010
0100
,
0001
0100
0010
0000
,
1000
0001
1000
0010
,
0100
0001
0010
0000
,
0100
1000
0010
0100
,
0001
1000
0010
0000
,
1000
0001
0100
0010
,
0100
0100
1000
0010
,
1001
0000
0000
0000
,
0010
0000
0100
0000
,
0001
0000
0000
0000
,
1000
0000
0010
0000
,
0100
0000
0000
0000
,
0001
0000
1000
0000
,
0010
0000
0000
0000
,
0100
0000
0001
0000
,
1000
1000
1000
0000
,
0010
0100
0001
0000
,
1000
0010
0100
0000
,
0001
0100
0010
0000
,
1000
0001
0100
2002
,
0000
3003
1001
0110
,
0001
1000
0010
0000
,
0100
0001
1000
0000
,
0010
0001
1000
0000
,
0100
0001
1000
0000
,
0010
0100
1000
0000
,
0001
0010
0100
0000
,
0010
1000
0001
0000
,
0100
0010
1000
0000
,
0001
1000
0010
0100
,
0001
0010
0100
0000
,
0001
1000
0010
0100
,
0001
1000
0010
0000
,
0100
0001
1000
0010
,
0100
0001
1000
0000
,
1000
0001
0010
0100
,
0001
1000
0000
0000
,
0010
0100
0001
1000
,
0010
0100
0001
0000
,
1000
1000
0001
0100
,
0010
0001
1000
0000
,
0001
0001
1000
1000
,
0001
0010
0100
0000
,
0001
1000
0001
1000
,
0010
0000
0001
0000
0100
0100
0001
0000
;

//--------------- dance-single - XLev450X-BSP ----------------
#NOTES:
     dance-single:
     XLev450X:
     Easy:
     7:
     0,0,0,0,0:
0000
0000
0000
0000
,
0000
0000
0000
0000
,
0000
0000
0000
0000
,
0000
0000
0000
0000
,
0000
0000
0000
0000
,
0001
1000
0010
0100
,
0001
0010
0100
1000
,
0010
0100
0010
2002
,
0000
0000
0000
0000
0000
3003
0220
0330
,
0001
0010
1000
0000
,
1000
0010
0100
0000
,
0001
0010
0100
0001
,
1000
0010
0100
1001
,
0010
0010
0001
1000
,
0010
0100
0001
0000
,
0100
0010
1000
0001
,
0100
0010
1000
0001
,
0100
0010
0001
0000
,
1000
0010
0100
0010
,
1000
1000
1000
0000
0100
0000
0001
0000
,
0010
0001
0100
0000
0010
0000
1001
0000
,
0010
0100
0001
0000
,
1000
0010
0100
0000
,
0001
0001
1000
0010
,
0100
0001
0010
0100
,
0001
0000
1000
0000
,
0010
0000
0100
0001
,
1000
0000
0010
0000
,
0001
0000
0100
0001
,
0010
0000
1000
0000
,
0010
0000
0100
0001
,
1000
0000
0010
0000
,
0100
0000
0001
1000
,
0010
0000
0100
0001
,
1000
0000
0010
1000
,
0001
0000
0100
0010
,
0001
1000
0010
0100
,
1000
0001
0100
0000
0010
0001
0010
0000
,
0000
0000
0000
0000
1000
0001
0010
0000
,
0001
1000
0010
0000
,
0100
0001
1000
0000
,
0010
0010
0100
0000
,
0001
0001
1000
0010
,
1000
0001
0010
1000
,
0001
0100
0010
0000
,
0001
1000
0010
0000
,
0100
0001
1000
0000
,
0010
1000
0001
0100
,
0010
0000
1000
0000
0010
0001
1000
0000
,
0001
0100
0010
1000
,
0001
0000
0100
0000
0010
0010
1000
0000
,
0001
0100
0010
0001
,
1000
0000
0010
0000
0100
0001
1000
0000
,
0010
1000
0001
0100
,
0010
1000
0001
0000
0000
0000
0110
0000
,
0001
0000
1000
0010
0100
0000
0001
0000
,
0010
0001
0010
0000
1000
0010
0100
0000
,
0001
0000
1000
0000
0100
0001
0010
0000
,
1000
0001
0100
0000
0010
0000
1000
0000
,
0001
0001
1000
0000
1000
1000
0001
0000
,
0100
0000
0010
0000
0001
0010
0001
0000
,
1000
0010
1000
0001
,
0100
0010
1000
0000
0100
0100
0001
0000
;

//--------------- dance-single - XLev450X-DSP ----------------
#NOTES:
     dance-single:
     XLev450X:
     Medium:
     11:
     0,0,0,0,0:
0000
0000
0000
0000
,
0000
0000
0000
0000
,
0000
0000
0000
0000
,
0000
0000
0000
0000
,
0000
0000
0000
0000
,
1000
0001
0100
0000
0010
0000
0001
0000
,
1000
0010
0100
0000
0001
0000
1000
0000
,
0010
0100
0001
0000
1000
0010
0200
0000
,
0300
0010
0000
1000
0010
0000
0202
0303
,
1000
0000
0010
0000
0100
0001
1000
0000
,
0010
0000
0001
0000
0010
0001
0010
0000
,
1000
0010
0100
0000
0001
0100
0010
0000
,
1000
0001
0100
0010
1000
0001
0100
0000
,
0010
0000
0010
0000
1000
0001
0100
0000
,
0010
0001
1000
0010
,
0100
0001
1000
0000
0010
0000
0100
0000
,
0001
0010
1000
0010
0000
0000
0001
0000
,
1000
0010
0100
0000
1000
0000
0001
0000
,
0100
0001
1000
0000
0010
0000
0100
0000
,
0010
0001
0010
0000
1000
0100
1000
0000
,
0010
0000
0100
0000
0001
0010
0100
0000
,
0001
1000
0010
0100
,
0010
0001
0010
0000
1000
0010
0100
0000
,
0001
0100
0010
1000
,
0010
0100
0001
0000
1000
0010
0100
0000
,
0001
0000
0000
0100
0010
0000
1000
0000
,
0001
0000
0000
0010
0100
0000
1000
0000
,
0001
0000
0000
0100
0010
0000
1000
0000
,
0001
0000
0100
0000
0010
1000
0001
0000
,
0100
0000
0000
0010
1000
0000
0010
0000
,
0100
0000
0000
0001
0100
0000
0010
0000
,
1000
0010
1000
0000
0100
0000
0001
0000
,
0010
0000
0000
0100
0001
0000
0010
0000
,
0010
0001
0010
0000
1000
0000
0100
0000
,
0010
1000
0100
0010
,
0010
1000
0010
0000
0100
0001
0010
0000
,
0100
0001
1000
0000
0010
0100
0010
0000
,
0001
1000
0010
0100
0001
0010
1001
0000
,
0000
0000
0000
0000
0100
0001
1000
0000
,
0010
0000
0100
0001
1000
0000
0010
0000
,
1000
0001
0100
0010
1000
0001
0100
0010
,
1000
0000
0001
0010
0001
0000
1000
0010
,
0100
0000
0001
1000
0010
0100
0001
0010
,
1000
0000
0000
0001
0000
0000
1000
0000
0000
0010
0000
0000
0100
0000
0000
0000
,
0001
0000
0010
0000
1000
0000
0001
0000
0100
0000
0000
0010
0000
0000
1000
0000
,
0001
0000
0100
0010
0001
0000
1000
0010
,
0100
0000
0001
0010
1000
0001
0100
0000
,
0010
0000
0000
1000
0000
0000
0001
0000
0100
0000
0000
1000
0000
0000
0001
0000
,
0100
0000
0000
1000
0000
0000
0010
0000
0100
0000
0001
1000
0010
0000
0100
0000
,
0001
0000
0000
0010
0000
0000
0100
0000
0001
0000
0000
0010
0000
0000
0100
0000
,
1000
0000
0000
0001
0000
0000
0100
0000
0010
0000
1000
0001
0100
0000
0010
0000
,
1000
0000
0000
0001
0000
0000
0100
0000
0010
0000
0000
1000
0000
0000
0100
0000
,
0001
0000
0000
0010
0000
0000
0100
0000
1000
0000
0010
1000
0010
0000
0100
0000
,
0001
0000
0000
0010
0000
0000
0100
0000
0001
0000
0000
1000
0000
0000
0010
0000
,
0100
1000
0022
0000
0033
0000
1010
0000
,
0010
0000
0100
0001
1000
0000
0010
0100
,
0001
0000
1000
0000
0010
0000
0100
0000
0001
0000
0000
0100
0000
0000
0010
0000
,
0001
0000
1000
0010
0100
0000
0001
1000
,
0010
0000
0100
0000
0001
0000
1000
0000
0010
0000
0000
0100
0000
0000
0001
0000
,
1000
0000
0010
0100
1000
0000
0010
0100
,
0001
0000
1000
0000
0010
0000
0100
0000
0001
0000
0000
1000
0000
0000
0010
0000
,
0100
0000
0000
0001
0010
0000
1000
0000
0100
0000
0000
1000
0010
0000
0001
0000
,
0010
0000
1000
0010
0100
0000
0001
1000
0010
0000
0100
0000
1001
0000
0110
0000
;

//--------------- dance-single - XLev450X-ESP ----------------
#NOTES:
     dance-single:
     XLev450X:
     Hard:
     15:
     0,0,0,0,0:
0000
0000
0000
0000
,
0000
0000
0000
0000
,
0000
0000
0000
0000
,
0000
0000
0000
0000
,
0000
0000
0000
0000
,
1000
0000
0010
0100
0001
0000
1000
0010
0100
0000
1000
0001
0100
1000
0001
0100
,
0010
0000
0100
0001
1000
0000
0010
0100
0001
0000
0010
1000
0100
0010
0001
0010
,
0100
0000
0001
1000
0010
0000
1000
0100
0001
0010
0100
2002
0000
0000
0000
3003
,
0000
2000
3000
0010
0200
0300
0002
0003
,
1000
0000
0000
0000
0000
0000
0010
0000
0000
0000
0000
0000
0100
0000
1000
0000
0001
0000
0000
0000
1000
0000
0010
0000
0100
0000
0000
0000
0001
0100
1000
0000
,
0010
0000
0100
0000
0001
0000
1000
0001
0100
0000
0010
1000
0001
0000
0010
0000
,
1000
0000
0000
0000
0200
0000
0000
0000
0300
0000
0000
0000
0010
0000
1000
0000
0001
0000
0000
0000
0100
0000
0010
0000
0000
0000
0001
0000
1000
0000
0100
0010
,
0001
0000
0000
0000
0000
0000
0100
0000
0000
0010
0000
0000
1000
0000
0000
0000
0000
0000
0001
0000
0000
0000
0000
0000
0100
0000
0000
0001
0000
0000
0000
0000
0000
2000
0000
0000
0000
0000
0000
3000
0000
0000
0000
0000
0000
0001
1000
0000
,
0010
0000
0100
0000
0001
1000
0010
0100
0001
1000
0000
0010
0000
0000
0100
0001
,
1000
0000
0010
0100
0001
0000
1000
0000
0001
0100
0000
1000
0000
0000
0010
0000
,
0002
0000
0003
0000
1000
0000
0010
0000
0100
1000
0001
1000
0010
0000
0010
1000
,
0001
0000
0100
0010
1000
0000
0001
0000
0200
0000
0300
0000
2002
0000
3003
0000
,
0010
0000
0100
0001
1000
0000
0010
0100
,
0001
0000
1000
0010
0100
0000
0001
0000
1000
0000
0010
0000
0100
0000
0000
0000
,
0001
0000
0100
0010
1000
0000
0001
0100
,
0010
0000
1000
0001
0100
0000
0010
0000
1000
0000
0000
0000
0101
0000
0000
0000
,
1010
0000
0000
0000
0010
0000
0000
0000
0010
0000
0000
1000
0000
0000
0001
0000
,
0100
0010
1000
0001
0200
0000
0300
1000
,
0010
0100
0010
0001
1000
0000
0010
0000
1000
0001
0100
0010
1000
0000
0001
0000
,
0100
0000
0000
0010
0001
0000
1000
0000
0010
0000
0000
0001
0100
0000
0010
0000
,
2002
0000
3003
0010
0100
0000
0001
0000
,
0010
0001
0010
0000
1000
0010
0100
0001
,
1000
0000
0000
0000
0010
0000
0000
0000
0100
0000
0000
0001
0000
0000
1000
0000
,
0010
0000
0000
0000
0100
0000
0000
0000
0001
0000
0000
1000
0000
0000
0010
0000
,
0100
0000
0000
0000
0001
0000
1000
0000
0010
0000
0000
0100
0000
0000
0001
0000
,
1000
0000
0000
0000
0010
0000
0100
0000
0001
0000
0000
1000
0000
0000
0010
0000
,
0100
0000
0000
0000
0001
0000
1000
0000
0010
0000
0000
0100
0000
0000
0001
0000
,
1000
0000
0000
0000
0010
0000
0000
0000
0100
0000
0000
0001
0000
0000
1000
0000
,
0010
0000
0100
0000
0010
0001
0010
0000
,
1000
0000
0010
0000
0100
0001
1000
0000
,
0010
1000
0100
0001
1000
0010
0100
0001
,
0010
0100
0010
1000
0001
0100
0001
0010
0100
1000
0100
0010
0100
1000
0001
0100
,
0010
1000
0001
0010
0100
0010
0001
0100
0001
1000
0100
0010
0002
0000
0000
0000
,
0000
0000
0000
0000
0000
0003
0000
0000
0001
0000
1000
0000
0010
0000
0000
0000
,
0100
0000
0001
1000
0010
0000
0100
0001
,
1000
0000
0010
0000
0100
0000
0001
0000
1000
0000
0010
0000
0001
1000
0010
0100
,
0001
0000
1000
0010
0100
0000
1000
0010
,
0100
0000
0001
0000
1000
0000
0010
0000
0100
0000
0001
0000
1000
0010
0100
0001
,
1000
0000
0010
0100
0000
0001
1000
0000
,
0001
0000
0100
0000
0010
0000
0001
0000
1000
0000
0010
0000
0100
0001
1000
0010
,
0001
0000
0100
0001
1000
0000
0010
0100
,
1000
0000
0000
0000
0010
0000
0001
0000
1000
0001
0100
0010
2000
0000
3000
0000
,
0010
0000
0001
0100
1000
0000
0100
1000
0010
0000
0100
0001
1000
0010
0100
1000
,
0001
0000
0100
0000
0010
0000
0001
0000
1000
0001
0010
1000
0200
0000
0300
0000
,
1000
0000
0010
0001
0010
0000
1000
0100
1000
0000
0010
0000
0100
0000
0001
0000
,
1000
0000
0010
1000
0010
0000
0100
0001
0100
0000
0010
0000
2000
0000
3000
0000
,
0001
0000
0010
0001
0100
0000
0010
1000
0010
0000
0100
0000
0001
0000
1000
0000
,
0010
0000
0100
0001
1000
0000
0010
0100
0001
0000
1000
0000
0020
0000
0030
0000
,
1000
0000
0001
0100
0001
0000
1000
0010
1000
0000
0001
0000
0100
0000
0010
0000
,
1000
0001
0100
0010
1000
0000
0001
0000
0010
0000
0100
0000
0002
0000
1003
0000
,
0010
0000
1000
0001
0100
0000
0010
1000
0001
0000
0100
0000
0010
0000
0001
0000
,
0100
0010
0001
0000
1000
0010
0100
0000
0001
0000
1000
0000
0002
0000
0003
0000
,
0010
0000
1000
0010
1000
0000
0100
0001
0100
0000
0010
1000
0010
0000
0100
0000
,
0001
0000
0010
0001
0010
0000
1000
0000
0010
0000
0001
0000
0200
0000
0300
0000
,
0100
0000
0001
1000
0010
0000
0100
0001
1000
0000
0010
0100
0001
0000
1000
0010
,
0100
0000
0001
0000
0010
0000
0001
1000
0010
0000
1000
0000
0220
0000
0330
0000
,
0001
0000
0000
0000
0000
0000
1000
0000
0000
0010
0000
0000
1000
0000
0000
0000
0000
0000
0001
0000
0000
0100
0000
0000
0010
0000
0000
0000
0000
0000
1000
0000
0000
0000
0000
0000
0001
0000
0000
0000
0000
0000
0100
0000
1000
0000
0001
0000
,
0010
1000
0001
0100
0010
1000
0001
0100
0010
1000
0001
1000
0110
0000
1001
0000
;
