#TITLE:BODY;
#ARTIST:Tomoki Hirata feat. JD Braithwaite;
#GENRE:UK GARAGE;
#MUSIC:BODY.ogg;
#BANNER:BODY.png;
#BACKGROUND:BODY-bg.png;
#CDTITLE:./CDTitles/beatmania.png;
#SAMPLESTART:14.964;
#SAMPLELENGTH:15;
#OFFSET:-0.174;
#BPMS:0=133.872;
#DISPLAYBPM:133;
#BGSTAGE:4;

//--------------- dance-single - XLev450X-bSP ----------------
#NOTES:
     dance-single:
     XLev450X:
     Beginner:
     1:
     0,0,0,0,0:
0000
0000
0000
0000
,
0000
0000
0000
0000
,
0000
0000
0000
0000
,
0000
0000
0000
0000
,
0000
0000
0000
0000
,
0000
0000
0000
0000
,
0000
0000
0000
0000
,
0000
0000
0000
0000
,
0000
0001
0000
0000
,
0000
0001
0000
0000
,
0000
1000
0000
0000
,
0000
1000
0000
0000
,
0000
0010
0000
0000
,
0000
0010
0000
0000
,
0000
0100
0000
0000
,
0000
0100
0000
0000
,
0000
0001
0000
0000
,
0000
1000
0000
0000
,
0000
0100
0000
0000
,
0000
0010
0000
0000
,
0000
1000
0000
0000
,
0000
0001
0000
0000
,
0000
1000
0000
0000
,
0000
0001
0000
0000
,
0000
0100
0000
0000
,
0000
0010
0000
0000
,
0000
0100
0000
0000
,
0000
0010
0000
0000
,
0000
1000
0000
0000
,
0000
0001
0000
0000
,
0000
1000
0000
0000
,
0000
0001
0000
0000
,
0000
1001
0000
0000
,
0000
0000
0000
0000
,
0000
0001
0000
0000
,
0000
0000
0000
0000
,
0000
1000
0000
0000
,
0000
0000
0000
0000
,
0000
0010
0000
0000
,
0000
0000
0000
0000
,
0000
1000
0000
0000
,
0000
0001
0000
0000
,
0000
1001
0000
0000
;

//--------------- dance-single - XLev450X-BSP ----------------
#NOTES:
     dance-single:
     XLev450X:
     Easy:
     3:
     0,0,0,0,0:
0000
0000
0000
0000
,
0000
0000
0000
0000
,
0000
0000
0000
0000
,
0000
0000
0000
0000
,
0000
0000
0000
0000
,
0000
0000
0000
0000
,
0000
0000
0000
0000
,
0000
0000
0000
0000
,
0000
0001
0000
1000
,
0100
0001
0000
0010
,
0000
1000
0000
0100
,
0010
0010
0000
1000
,
0000
0001
0000
1000
,
0100
0001
0000
1000
,
0000
0010
0000
0100
,
0010
1000
0000
0000
,
0000
0001
0000
1000
,
0000
0010
0000
0100
,
0000
0001
0000
1000
,
0000
0001
0000
0010
,
0000
1000
0000
0100
,
0000
0001
1000
0001
,
0000
0100
0000
1000
,
0000
0010
0000
1000
,
0100
0010
0000
0001
,
0000
1000
0010
1000
,
0000
0100
0000
0001
,
0000
0010
0100
1000
,
0000
0001
0000
1000
,
0000
0100
0010
1000
,
0000
0001
0000
1000
,
0000
0100
0001
0100
,
0010
0100
0000
1000
,
0000
0001
0000
0000
,
0000
1000
0100
0001
,
0000
0010
1000
0100
,
0000
0010
1000
0001
,
0000
1000
0000
0001
,
0000
0100
0010
1000
,
0000
0001
0000
1000
,
0000
0001
1000
0100
,
0000
0001
1000
0001
,
0100
1001
0000
0000
;

//--------------- dance-single - XLev450X-DSP ----------------
#NOTES:
     dance-single:
     XLev450X:
     Medium:
     6:
     0,0,0,0,0:
0000
0000
0000
0000
,
0000
0000
0000
0000
,
0000
0000
0000
0000
,
0000
0000
0000
0000
,
0000
0000
0000
0000
,
0000
0000
0000
0000
,
0000
0000
0000
0000
,
0000
0000
0000
0000
,
0000
0001
1000
0010
,
0100
0001
1000
0001
,
0000
1000
0010
0100
,
1000
0000
0001
0010
0001
0000
1000
0000
,
0100
0001
1000
0010
,
0000
0100
1000
0010
,
0100
1000
0001
0010
,
0000
0000
1000
0010
1000
0000
0001
0010
,
0001
1000
0001
1000
,
0000
0100
1000
0001
,
0100
1000
0001
0010
,
0000
1000
0100
1000
,
0001
0100
1000
0001
,
0000
0000
0001
0000
1000
0000
0010
1000
,
0010
0100
1000
0001
,
0000
0000
1000
0001
1000
0000
0010
1000
,
0010
0100
1000
0001
,
0000
0010
0100
1000
,
0001
0000
0010
0001
0010
0000
1000
0100
,
1000
0001
1000
0001
,
0000
1000
0100
0001
,
0010
1000
0001
0100
,
1000
0000
0010
1000
0010
0000
0100
0010
,
0100
0000
0001
0000
1000
0000
0001
1000
,
0010
0100
1001
0001
,
1001
0010
1010
0010
,
0110
0001
1000
0001
,
0100
1000
0001
0010
,
0000
1000
0100
0001
,
0010
0000
1000
0010
1000
0000
0100
0010
,
0100
0001
1000
0100
,
1000
1001
0000
0000
,
0000
0001
1000
0001
,
0100
0000
1000
0010
1000
0000
0010
0100
,
0010
1001
0000
0000
;

//--------------- dance-single - XLev450X-ESP ----------------
#NOTES:
     dance-single:
     XLev450X:
     Hard:
     11:
     0,0,0,0,0:
0000
0000
0000
0000
,
0000
0000
0000
0000
,
0000
0000
0000
0000
,
0000
0000
0000
0000
,
0000
0000
0000
0000
,
0000
0000
0000
0000
,
0000
0000
0000
0000
,
0000
0000
0000
0000
,
0000
0000
0001
0000
1000
0000
0010
1000
,
0010
0000
0001
1000
0001
0100
1000
0001
,
0010
0000
1000
0100
1000
0000
0010
0100
,
0010
0000
0001
1000
0001
1000
0000
0001
,
0100
0000
0001
1000
0010
0000
0010
0000
,
0100
0000
0001
0010
0001
0000
1010
0000
,
0101
0000
0001
1000
0001
0000
1000
0100
,
1000
0000
0010
1000
0100
0001
1000
0010
,
1000
0000
0000
0000
0001
0000
0000
0100
0000
0000
0000
0000
1000
0000
0000
0001
,
0000
0000
0100
0000
0001
0000
0000
1000
0000
0010
0000
0100
0000
0000
0001
0000
,
1000
0000
0001
0000
1000
0000
0000
0010
0000
1000
0000
0000
0100
0000
0000
0000
,
0001
0000
0000
0000
1000
0000
0000
0100
0000
0000
1000
0000
0001
0000
0100
0000
,
1000
0000
0010
0000
1000
0000
0000
0010
0000
0000
0000
0000
0001
0000
0000
1000
,
0000
0000
0010
0000
1000
0000
0000
0001
0000
0100
0000
0010
0000
0000
1000
0000
,
0001
0000
1000
0000
0001
0000
0000
0100
0000
0001
0000
0000
0010
0000
0000
0000
,
1000
0000
0000
0000
0001
0000
0000
0010
0000
0000
0001
0000
1000
0000
0010
0000
,
0001
0000
0100
0000
0001
0000
0000
0100
0000
0000
0000
0000
1000
0000
0000
0001
,
0000
0000
0100
0000
0001
0000
0000
1000
0000
0010
0000
0100
0000
0000
0001
0000
,
1000
0000
0001
0000
1000
0000
0000
0010
0000
1000
0000
0000
0100
0000
0000
0000
,
0001
0000
0000
0000
1000
0000
0000
0100
0000
0000
1000
0000
0001
0000
0100
0000
,
1000
0000
0010
0000
1000
0000
0000
0010
0000
0000
0000
0000
0001
0000
0000
1000
,
0000
0000
0010
0000
1000
0000
0000
0001
0000
0100
0000
0010
0000
0000
1000
0000
,
0001
0000
1000
0000
0001
0000
0000
0100
0000
0001
0000
0000
0010
0000
0000
0000
,
1000
0000
0000
0000
0001
0000
0000
0010
0000
0000
0001
0000
1000
0000
0010
0000
,
0001
0100
1000
0000
0001
0000
1000
0000
,
0001
0000
0010
1000
0010
0000
0100
0000
,
1000
0000
0001
0010
0001
0000
1000
0010
,
1000
0000
0000
0000
0100
0000
1000
0000
0001
0000
0010
0000
1000
0000
0000
0001
,
0000
0100
1000
0001
0010
0000
1000
0010
,
1000
0000
0000
0000
0100
0000
0000
0001
0000
0000
1000
0000
0010
0000
0000
1000
,
0000
0100
0001
0010
1000
0000
0001
0100
,
1000
0000
0000
0000
0001
0000
0000
1000
0000
0000
0010
0000
0100
0000
0000
0001
,
0000
0000
1000
0000
0001
0000
0000
0100
0000
0000
0000
0000
1000
0000
0000
0001
,
0000
0000
0100
0000
0001
0000
0000
1000
0000
0010
0000
0100
0000
0000
0001
0000
,
1000
0001
1001
0000
0000
0000
0000
0000
;
