#TITLE:BEMANI PRO LEAGUE Theme;
#ARTIST:BEMANI Sound Team "Sota F.";
#ARTISTTRANSLIT:Sota F.;
#GENRE:BPL EDM;
#MUSIC:BEMANI PRO LEAGUE Theme.ogg;
#BANNER:BEMANI PRO LEAGUE Theme.png;
#BACKGROUND:BEMANI PRO LEAGUE Theme-bg.png;
#CDTITLE:./CDTitles/bm IIDX 28 BISTROVER.png;
#SAMPLESTART:1.772;
#SAMPLELENGTH:15;
#OFFSET:1.801;
#BPMS:0=134;
#BGCHANGES:0=BEMANI PRO LEAGUE Theme.mp4=1.000000=0=0=0=StretchNoLoop====,
99999.000000=-nosongbg-=1.000000=0=0=0=StretchNoLoop====;
#BGSTAGE:17;

//--------------- dance-single - BEMANI Step Team "XLev450X"-bSP ----------------
#NOTES:
     dance-single:
     BEMANI Step Team "XLev450X":
     Beginner:
     3:
     0,0,0,0,0:
0000
0000
0000
0000
,
0000
0000
0000
0000
,
0000
0000
0000
0000
,
0000
0000
0000
0000
,
0000
0000
0000
0000
,
0000
0000
0000
0000
,
0001
0000
0001
0000
,
0001
0000
0000
0000
,
1000
0000
1000
0000
,
1000
0000
0000
0000
,
0010
0000
0100
0000
,
0010
0000
0000
0000
,
1000
0000
0001
0000
,
1000
0000
0000
0000
,
0010
0000
1000
0000
,
0010
0000
0000
0000
,
0100
0000
0001
0000
,
0100
0000
0000
0000
,
1001
0000
0000
0000
,
0010
0010
0000
0000
,
0100
0100
0000
0000
,
1000
1000
0000
0000
,
0001
0001
0000
0000
,
1000
0001
0000
0000
,
0010
1000
0000
0000
,
0100
0001
0000
0000
,
0010
0100
0000
0000
,
0001
0000
1000
0000
,
0001
0000
0010
0000
,
1000
0000
0010
0000
,
1000
0000
0000
0000
,
0100
0000
0001
0000
,
0100
0000
1000
0000
,
0001
0000
1000
0000
,
0001
0000
0000
0000
,
0001
0000
0000
0000
,
1000
0000
0000
0000
,
0001
0000
0000
0000
,
0010
0000
0000
0000
,
0100
0000
0000
0000
,
0010
0000
0000
0000
,
1000
0000
0000
0000
,
0001
0000
0000
0000
,
1001
0000
0000
0000
,
0010
0000
0100
0000
,
0010
0000
0000
0000
,
0001
0000
0010
0000
,
0001
0000
0000
0000
,
0100
0000
1000
0000
,
0100
0000
0000
0000
,
0010
0000
0010
0000
,
0100
0000
0000
0000
,
0001
0000
1000
0000
,
0001
0000
0000
0000
,
0100
0000
1000
0000
,
0100
0000
0000
0000
,
0010
0000
0100
0000
,
0010
0000
0000
0000
,
0001
0000
0010
0000
,
0001
0000
0000
0000
,
1001
0000
0000
0000
,
0010
0000
0010
0000
,
0010
0000
0000
0000
,
0100
0000
0100
0000
,
0100
0000
0000
0000
;

//--------------- dance-single - BEMANI Step Team "XLev450X"-BSP ----------------
#NOTES:
     dance-single:
     BEMANI Step Team "XLev450X":
     Easy:
     7:
     0,0,0,0,0:
0000
0000
0000
0000
,
0000
0000
0000
0000
,
0000
0000
0000
0000
,
0000
0000
0000
0000
,
0000
0000
0000
0000
,
0000
0000
0000
0000
,
0001
1000
0010
0100
,
0001
1000
0001
0000
,
0010
1000
0100
0001
,
2002
0000
0000
3003
,
0010
1000
0010
0100
,
0001
1000
0001
0000
,
0010
1000
0100
0001
,
0100
1000
0010
0000
,
0010
0001
1000
0100
,
0010
0100
0001
0000
,
1000
0010
1000
0100
,
0001
1000
0010
1000
,
2002
0000
0000
3003
,
0010
1000
0010
0001
,
0100
0000
1000
0000
0001
1000
0001
0000
,
0010
1000
0100
0010
,
0002
0000
0000
0000
0000
0000
2000
3003
,
0010
1000
0100
0010
,
0001
0000
0100
0000
0001
0100
0001
0000
,
0010
0100
0001
0100
,
2000
0000
0000
0000
0000
0000
0002
3003
,
0010
1000
0001
1000
,
0100
0001
0010
0100
,
1000
0001
1000
0000
0010
1000
0010
0000
,
0010
0100
0010
0000
0001
0000
1000
0000
,
0100
0001
1000
0100
,
0001
0100
0001
0000
0010
0100
0010
0000
,
1000
0001
1000
0010
,
1000
0010
0100
0000
0001
0000
1000
0000
,
0001
0000
1000
0000
,
0010
0000
0100
0000
,
0001
1000
0001
0000
,
0100
0000
1000
0000
,
0010
0010
0100
0000
,
0001
0001
1000
0000
,
0001
1000
0001
0000
0010
0100
0010
0000
,
0220
0000
0000
0330
,
0202
0000
0000
0303
,
1000
0001
1000
0100
,
0010
0001
0100
0000
,
0010
1000
0001
0000
,
0010
1000
0010
0000
,
0100
0001
1000
0100
,
0001
0010
1000
0000
,
0100
0100
0001
0000
,
0010
0010
1000
0000
,
0001
0000
1000
0100
,
0001
0000
0100
0010
,
1000
0000
0001
1000
,
0001
0000
1000
0010
,
0100
0000
1000
0000
0001
1000
0001
0000
,
0010
1000
0010
0000
0010
0001
0010
0000
,
0100
1000
0001
0100
,
0001
0000
1000
0000
,
2002
0000
0000
3003
,
0001
0000
1000
0010
,
0100
0000
0001
1000
,
0001
0000
0100
0010
,
1000
0100
0010
2002
,
0000
0000
0000
0000
,
0000
0000
0000
0000
,
3003
0000
0000
0000
;

//--------------- dance-single - BEMANI Step Team "XLev450X"-DSP ----------------
#NOTES:
     dance-single:
     BEMANI Step Team "XLev450X":
     Medium:
     11:
     0,0,0,0,0:
0000
0000
0000
0000
,
0000
0000
0000
0000
,
0000
0000
0000
0000
,
0000
0000
0000
0000
,
0000
0000
0000
0000
,
0000
0000
0000
0000
,
0001
0000
1000
0000
0010
1000
0010
0000
,
0001
0010
0001
0000
0010
0100
0010
0000
,
1000
0000
0001
0000
1000
0001
1000
0000
,
2001
0000
0000
0000
0001
0001
3001
0000
,
1001
1000
0010
1000
,
0001
0100
0010
0100
0001
0000
0010
0000
,
0100
1000
0010
0001
,
0100
0000
1000
0000
0010
0100
0010
0000
,
1001
0001
0010
0001
,
0100
0010
1000
0010
0100
0000
0001
0000
,
0010
1000
0100
0001
,
0010
0000
0100
0000
1000
0001
1000
0000
,
0220
0000
0000
0330
,
0001
1000
0010
0100
,
0001
0010
0001
0000
1000
0001
1000
0000
,
0010
1000
0100
0010
,
0102
0000
0100
0000
0100
0000
0200
0303
,
0001
0000
1000
0000
0010
0100
0010
0000
,
0001
0010
0001
0000
1000
0010
1000
0000
,
0001
0000
1000
0000
0100
0010
0100
0000
,
2001
0000
0001
0000
0001
0000
0002
3003
,
1000
0010
0001
0100
,
1000
0010
0001
0100
,
1000
0000
0001
0000
0100
0010
0100
0000
,
0001
1000
0001
0000
0010
0100
0010
0000
,
1001
0001
0010
1000
,
0100
0000
0001
0000
0010
0000
1000
1000
,
0000
0110
1000
0010
,
1001
0000
0000
0000
0000
0000
0000
0000
0100
0000
0000
0010
0000
0000
0100
0000
,
0020
0000
0100
0100
,
1000
0100
0031
0000
,
0200
0000
0010
0010
,
0001
0010
1300
0000
,
1000
0010
1000
0001
,
0010
0100
1000
0001
,
1000
0001
1000
0001
1000
0001
1000
0001
,
0100
0000
0000
0000
0100
0000
0000
0000
0010
0000
0000
0010
0000
0000
0000
0000
,
0002
0000
0000
0000
1000
1000
1003
0000
,
0001
0000
1000
0000
0010
0100
0010
0000
,
0001
0000
1000
0000
0010
1000
0010
0000
,
0001
0000
1000
0000
0100
0100
0001
0000
,
0010
0000
0100
0000
1000
0001
1000
0000
,
0010
1000
0010
0001
,
1000
0001
1000
0000
0010
1000
0010
0000
,
0100
0001
1000
0010
,
0002
0000
2000
0000
0000
0000
0000
3003
,
0001
1000
0100
0010
,
0001
0010
0001
0000
0100
0010
0100
0000
,
1000
0000
0001
0000
1000
0010
1000
0000
,
0001
0000
1000
0000
0010
0100
0010
0001
,
1000
0001
1000
0100
,
0010
0100
0010
0000
0001
0010
0001
0000
,
0100
0000
1000
0000
0001
1000
0001
0000
,
2000
0000
0002
0000
0000
0000
0000
3003
,
2001
0000
0000
0000
0001
0001
0002
3003
,
1001
0000
1000
0000
0001
0010
0001
0000
,
1000
0000
0010
0000
0100
0001
0100
0010
,
1000
0000
0100
0000
0010
0001
0010
0000
,
0100
0000
1000
0000
0001
0010
2000
0000
,
0000
0000
0000
0000
,
0000
0000
0000
0000
,
3000
0000
0000
0000
;

//--------------- dance-single - BEMANI Step Team "XLev450X"-ESP ----------------
#NOTES:
     dance-single:
     BEMANI Step Team "XLev450X":
     Hard:
     14:
     0,0,0,0,0:
0000
0000
0000
0000
,
0000
0000
0000
0000
,
0000
0000
0000
0000
,
0000
0000
0000
0000
,
0000
0000
0000
0000
,
0000
0000
0000
0000
,
0001
0000
0000
0000
1000
0000
0001
0000
0000
0010
0000
0010
0000
0000
1000
0000
,
0001
0000
0100
0000
0010
0000
0000
0100
0000
0100
0000
0001
0000
0000
1000
0000
,
0010
0000
0000
0000
0100
0000
0000
1000
0000
1000
0000
0001
0000
0000
0100
0000
,
0010
0000
0001
0000
1000
0000
0000
0001
0000
0001
0000
0000
2002
0000
3003
0000
,
1000
0010
0100
2000
0000
3010
0001
0000
,
1000
0100
0010
1000
0000
0011
0000
1000
,
0010
0000
0000
0010
0001
0000
0000
0001
0010
0000
0000
0010
1000
0000
0000
1000
,
0100
0000
0000
0000
1100
0000
0000
1000
0010
0000
0100
0000
0101
0000
0000
0000
,
0001
0100
0010
0002
0000
0103
1000
0000
,
0001
0010
0100
0001
0000
1100
0000
0001
,
0100
0000
0000
0100
1000
0000
0000
1000
0100
0000
0000
0100
0001
0000
0000
0001
,
0010
0000
0000
0000
0011
0000
0000
0001
0100
0000
0010
0000
1010
0000
0000
0000
,
0110
0000
0000
0100
0000
0000
0100
0000
0010
1000
0010
0000
1001
0000
0000
0000
,
0001
0000
0000
0010
0100
0000
0100
0000
0010
0000
0000
0010
1000
0000
1000
0000
,
0010
0000
0000
0010
0100
0000
0100
0000
1000
0000
0001
0000
0010
0000
0000
0000
,
0001
0000
0000
0100
0010
0000
0010
0000
0100
0000
0000
0100
1000
0000
1000
0000
,
0100
0001
0010
1000
,
1001
0000
0000
0010
0100
0000
0100
0000
0010
0000
0000
0010
0001
0000
0001
0000
,
0010
0000
0000
0010
0100
0000
0100
0000
0001
0000
1000
0000
0010
0000
0000
0000
,
1000
0000
0000
0100
0010
0000
0010
0000
0100
0000
0000
0100
0001
0000
0001
0000
,
0100
1000
0010
1001
,
0001
1000
0001
1000
0000
0010
1000
0010
,
0001
0000
0010
0001
0010
0000
1000
0000
0001
0000
1000
0001
1000
0000
0001
0000
,
1000
0100
0010
0000
0001
0010
0001
0000
,
1000
0000
0001
1000
0001
0000
1000
0000
0100
0000
0010
0000
0001
0000
0000
0000
,
0010
0000
1000
0010
1000
0000
0010
0000
0001
0000
0010
0001
0010
0000
0001
0000
,
1000
0000
0100
0001
0100
0000
0001
0000
1000
0000
0010
1000
0010
0000
0010
0000
,
1000
0000
0000
0000
0001
1000
0001
0000
0010
0000
1000
0000
0100
0000
0010
0000
,
0001
0010
0001
0000
0100
0000
1000
0000
0001
0000
0000
1000
0000
0000
0001
0000
,
1000
1000
0100
0100
,
0001
0001
0010
0010
,
0001
0001
0100
0100
,
1000
1000
0010
0010
,
1000
0000
1000
0000
1000
0000
1000
0000
0100
0000
0010
0000
0001
0010
0000
0001
,
0100
0010
0100
0000
0100
0010
0100
0000
0010
0000
1000
0001
0000
0001
1000
0000
,
0001
0010
0001
0010
0001
0010
0001
0010
0100
1000
0100
1000
0100
1000
0100
1000
,
0001
1000
0001
1000
0001
0000
1000
0000
0010
0000
0100
0010
0000
0010
1000
0000
,
0001
0000
0000
1000
0000
0000
0010
0000
0100
0000
0001
0000
1000
0000
0000
0000
,
0001
0010
1000
0010
0100
0001
0010
0001
,
0010
0001
0010
0000
0010
1000
0010
0000
0010
0100
0010
0000
0001
0010
0001
0000
,
1000
0001
0100
1000
0001
1000
0010
0000
,
1000
0010
1000
0000
0010
0100
0010
0000
0001
0010
0001
0000
0001
1000
0001
0000
,
0001
1000
0100
0001
1000
0010
1000
0000
,
0010
0100
0010
0000
0001
0000
0010
0000
1000
0010
1000
0000
0010
0000
0100
0000
,
0001
0010
0001
0000
0100
0000
1000
0000
0001
0000
0100
0000
0001
0000
0000
0000
,
1000
0001
1000
0000
0010
1000
0010
0000
0100
0010
0100
0000
0001
0010
0001
0000
,
1001
0000
0000
0000
1000
0000
0100
0010
0000
0010
0000
0010
0000
0001
0010
0001
,
0000
1000
0000
0000
0010
0000
0100
0010
0000
0010
0000
0010
0000
1000
0100
1000
,
0001
0000
0000
0000
1000
0000
0010
0100
0000
0100
0000
0100
0000
0001
0100
0001
,
1000
0100
0001
0000
0110
0000
1001
0000
,
1010
0000
0000
0000
0001
0000
0100
1000
0000
1000
0000
1000
0000
0100
0001
0100
,
0000
0001
0000
0000
1000
0000
0100
0001
0000
0001
0000
0001
0000
0100
1000
0100
,
0010
0000
0000
0000
0001
0000
0010
1000
0000
1000
0000
1000
0000
0010
0001
0010
,
0100
0001
0010
0000
0110
0000
1001
0000
,
0102
0000
0000
0000
0000
0000
0000
0000
0013
0001
0010
0000
1001
0000
0000
0000
,
1000
0000
0000
0000
0100
0000
1000
0010
0000
0001
0000
0100
0000
0000
0000
0000
,
0001
0000
0010
0000
1000
0000
0000
0001
0000
0100
0000
1000
0000
0100
0010
0000
,
0100
0000
0000
0000
0001
0000
0010
1000
0000
0100
0000
0001
0000
0000
0000
0000
,
0100
1000
0100
0000
0010
0010
2002
0000
,
0000
0000
0000
0000
,
0000
0000
0000
0000
,
3003
0000
0000
0000
;
