#TITLE:Attack the music;
#ARTIST:DJ FX;
#GENRE:HARD TECHNO;
#MUSIC:Attack the music.ogg;
#BANNER:Attack the music.png;
#BACKGROUND:Attack the music-bg.png;
#CDTITLE:./CDTitles/beatmania.png;
#SAMPLESTART:48.479;
#SAMPLELENGTH:15;
#OFFSET:-0.058;
#BPMS:0=140.022;
#BGSTAGE:27;
#DISPLAYBPM:140;

//--------------- dance-single - Nifara-bSP ----------------
#NOTES:
     dance-single:
     Nifara:
     Beginner:
     2:
     0,0,0,0,0:
0000
0000
0000
0000
,
0000
0000
0000
0000
,
0000
0000
0000
0000
,
0000
0000
0000
0000
,
0000
1000
1000
0000
,
0000
1000
1000
0000
,
0000
0001
0001
0000
,
0000
0001
0001
0000
,
0000
0100
0100
0000
,
0000
0100
0100
0000
,
0000
0010
0010
0000
,
0000
0010
0010
0000
,
0000
1000
1000
0000
,
0000
1000
1000
0000
,
0000
0001
0001
0000
,
0000
0001
0001
0000
,
0000
0100
0100
0000
,
0000
0100
0100
0000
,
0000
0010
0010
0000
,
0000
0010
0010
0000
,
0000
1000
1000
0000
,
0000
1000
1000
0000
,
0000
0001
0001
0000
,
0000
0001
0001
0000
,
0000
0100
0100
0000
,
0000
0100
0100
0000
,
0000
0010
0010
0000
,
0000
0010
0010
0000
,
0000
1000
1000
0000
,
0000
1000
1000
0000
,
0000
0001
0001
0000
,
0000
0001
0001
0000
,
0000
0100
0100
0000
,
0000
0100
0100
0000
,
0000
0010
0010
0000
,
0000
0010
0010
0000
,
0000
1000
1000
0000
,
0000
1000
1000
0000
,
0000
0001
0001
0000
,
0000
0001
0001
0000
,
0000
0100
0100
0000
,
0000
0100
0100
0000
,
0000
0010
0010
0000
,
0000
0010
0010
0000
,
0000
1001
0000
0000
;

//--------------- dance-single - XLev450X-BSP ----------------
#NOTES:
     dance-single:
     XLev450X:
     Easy:
     5:
     0,0,0,0,0:
0000
0000
0000
0000
,
0000
0000
0000
0000
,
0000
0000
0000
0000
,
0000
0000
0000
0000
,
0000
0010
0000
0010
,
0000
0010
0000
0000
,
0000
0100
0000
0100
,
0000
0100
0000
0000
,
0000
0001
1000
0010
,
0000
0100
1000
0100
,
0000
0010
0100
0001
,
0000
1000
0010
0100
,
0001
1000
0010
0100
,
0000
0001
1000
0010
,
0000
1000
0001
0100
,
0010
1000
0001
0100
,
0010
1100
0000
0010
,
1000
0001
0000
0100
,
0010
1000
0000
0010
,
0100
0001
1000
0010
,
0100
0110
0000
0001
,
1000
1001
0000
0010
,
0100
0011
0000
1000
,
0010
1100
0000
0000
,
0000
0000
0000
1000
0000
0010
0000
0100
,
0000
0000
0000
0010
0000
0100
0000
0001
,
0000
0000
0000
1000
0000
0100
0000
0010
,
0000
0000
0000
0001
0000
0010
0000
0100
,
0000
0010
0100
0001
,
1000
0010
0100
0001
,
0000
1000
0010
0100
,
0001
1000
0010
0100
,
0000
0011
1100
0010
,
0100
0001
0000
1000
,
0010
0100
0000
0001
,
1000
0010
0000
0100
,
0000
0001
1000
0010
,
0000
0100
0001
1000
,
0000
0010
0100
0001
,
0000
1000
0010
0100
,
0000
0000
1100
0000
0000
0011
0000
0000
,
1001
0000
0000
0110
0000
0000
0101
0000
,
0000
1010
0000
0000
0110
0000
0000
0011
,
0000
0000
1100
0000
0000
0000
0000
0110
,
0000
0000
0000
0000
0000
0010
0000
0010
;

//--------------- dance-single - Nifara-DSP ----------------
#NOTES:
     dance-single:
     Nifara:
     Medium:
     9:
     0,0,0,0,0:
0000
0000
0000
0000
,
0000
0000
0000
0000
,
0000
0000
0000
0000
,
0000
0000
0000
0000
,
0000
0000
1000
0000
0010
0000
0001
0100
,
1000
0000
0010
0000
0100
0000
1000
0100
,
0010
0001
0100
0000
0001
0000
0010
0001
,
0010
0000
0001
0000
0100
0000
0001
0100
,
0010
1000
0100
0000
1000
0000
1000
0001
,
0100
0000
0001
0000
0010
0000
0001
1000
,
0100
0010
0001
0000
0100
0000
0010
1000
,
0100
0000
1000
0000
0010
0000
0100
0001
,
0100
0001
0100
0000
0010
0000
1000
0100
,
1000
0000
0001
0000
0100
0000
0010
0100
,
0001
0100
0010
0000
1000
0000
0100
1000
,
0010
0000
1000
0000
0100
0000
1000
0010
,
1000
0100
1000
0000
0100
0000
0010
0100
,
0010
0000
0100
0000
0001
0000
0010
0001
,
0010
0001
1000
0000
0010
0000
1000
0100
,
1000
0000
0001
0000
0100
0000
0010
0100
,
0001
0100
0010
0000
1000
0000
0100
1000
,
0100
0000
0010
0000
1000
0000
0100
0010
,
0100
0001
0100
0000
0010
0000
1000
0100
,
1000
0000
0010
0000
0100
0000
0010
1000
,
0010
0100
0010
0000
0100
1001
0000
0101
,
0000
0101
0000
1001
0000
1100
0000
1100
,
0000
1001
0000
0110
0000
1001
0000
1100
,
0000
0011
0000
0101
0000
1010
0000
1001
,
0000
0101
0010
0001
0010
0000
0001
0100
,
1000
0000
0001
1000
0001
0000
0001
0100
,
0001
0000
1000
0100
1000
0000
0010
0100
,
1000
0000
1000
0010
1000
0000
0100
1000
,
0100
1000
0100
0010
0100
0000
0001
0100
,
0001
0000
0100
0010
0100
0000
0001
0100
,
0001
1000
0010
0001
0010
0000
0001
0100
,
0001
0000
0010
1000
0010
0000
0100
1000
,
0100
1000
0100
0000
1001
0000
0010
0100
,
1000
0000
1010
0000
1000
0010
0100
0010
,
0100
1000
0001
0000
0001
0100
0001
0000
,
1000
0000
0100
1000
0100
0010
1000
0100
,
0001
0100
1000
0000
0001
1000
0000
0010
,
0100
0000
0001
0100
0000
1000
0010
0000
,
0001
0100
0000
0001
1000
0000
0010
1000
,
0000
0001
0100
0000
0001
0000
0001
0010
,
0001
0000
1001
0000
0000
0100
0000
0100
;

//--------------- dance-single - Nifara & XLev450X-ESP ----------------
#NOTES:
     dance-single:
     Nifara & XLev450X:
     Hard:
     14:
     0,0,0,0,0:
0000
0000
0000
0000
,
0000
0000
0000
0000
,
0000
0000
0000
0000
,
0000
0000
0000
0000
,
0000
0000
1001
0000
1000
0100
0010
0000
,
0001
1000
0001
0000
0010
0001
0100
0000
,
0001
0010
0001
0000
1000
0000
0100
0000
,
1000
0000
0000
0000
0100
0000
0000
0000
1000
0000
0000
0000
0010
0100
0000
0001
,
0100
0010
1000
0000
0010
1000
0001
0000
,
0100
1000
0001
0000
1000
0010
0100
0000
,
0001
0000
1000
0000
0010
0000
0000
0000
0010
0000
0001
0000
1000
0000
0000
0001
,
0000
0000
0100
0000
0010
0000
0000
0000
1000
0000
0100
0000
0001
0000
0000
0010
,
0000
0000
0001
0000
1000
0000
0000
0000
0001
0000
0100
0000
0001
0000
0000
0010
,
0000
0000
0100
0000
0010
0000
0000
0000
1000
0000
0010
0000
0001
0000
0000
0100
,
0000
0000
0010
0000
0001
0000
0000
0000
1000
0000
0100
0000
0010
0000
0000
0001
,
0000
0000
0100
0000
0010
0000
0000
0000
1000
0000
0001
0000
1000
0010
0000
0001
,
0100
0000
1000
0010
0001
0000
0100
0000
0001
0000
1000
0000
0100
0000
0010
0000
,
0001
1000
0100
1000
0001
0010
0100
1000
,
0010
0100
0001
0010
0100
0010
0001
1000
,
0100
0000
0010
0000
0100
0000
0010
0000
0100
0000
1000
0000
0010
0000
0000
0010
,
0000
0010
1000
0100
0001
0010
0100
1000
,
0010
0100
0001
0010
0100
0010
0001
0100
,
0010
1000
0010
1000
0100
0010
0001
1000
,
0100
0010
0001
0010
0100
1000
0001
0010
,
0100
1000
0000
0000
0010
1000
0000
0100
,
0000
0000
0000
0010
0000
0000
0000
0000
0000
0000
0000
0000
0001
0000
0000
0000
0000
0000
0000
0000
0000
0000
0000
0000
0000
0000
0000
0000
0000
0000
0001
0000
0000
0000
0000
0000
1000
0000
0000
0000
0100
0000
0000
0000
0010
0000
0000
0000
,
0001
0000
0010
0000
0100
0000
1000
0000
0000
0000
0000
0000
0010
0000
0000
1000
0000
0000
0000
0000
0000
0100
0000
0000
,
0000
0000
0000
0001
0000
0000
0000
0000
0000
0000
0000
0000
0100
0000
0000
0000
0000
0000
0000
0000
0000
0000
0000
0000
0000
0000
0000
0000
0000
0000
0100
0000
0000
0000
0000
0000
1000
0000
0000
0000
0100
0000
0000
0000
0010
0000
0000
0000
,
0001
0000
0000
0000
0010
0000
0000
0000
0100
0000
0000
0000
1000
0000
0000
0100
0000
0000
0000
0000
0000
0000
0000
0000
1000
0000
0000
0000
0000
0000
0100
0000
0000
0000
0000
0000
1000
0000
0000
0010
0000
0000
0000
0000
0000
0000
0000
0000
,
1000
0000
0000
0000
0000
0000
0001
0000
0000
0000
0000
0000
0100
0000
0000
0010
0000
0000
0000
0000
0000
0000
0000
0000
0010
0000
0000
0000
0000
0000
1000
0000
0000
0000
0000
0000
1000
0000
0000
0000
0100
0000
0000
0000
0010
0000
0000
0000
,
0001
0000
0000
0000
0010
0000
0000
0000
0100
0000
0000
0000
1000
0000
0000
0100
0000
0000
0000
0000
0000
0000
0000
0000
1000
0000
0000
0000
0000
0000
0001
0000
0000
0000
0000
0000
0100
0000
0000
0001
0000
0000
0000
0000
0000
0000
0000
0000
,
0100
0000
0000
0000
0000
0000
0010
0000
0000
0000
0000
0000
1000
0000
0000
0100
0000
0000
0000
0000
0000
0000
0000
0000
1000
0000
0000
0000
0000
0000
0100
0000
0000
0000
0000
0000
1000
0000
0000
0000
0100
0000
0000
0000
0010
0000
0000
0000
,
0001
0000
0000
0000
0010
0000
0000
0000
0100
0000
0000
0000
1000
0000
0000
0001
0000
0000
0000
0000
0000
0000
0000
0000
1001
0000
0000
0000
0000
0000
0001
0000
0000
0000
0000
0000
0010
0000
0000
0001
0000
0000
0000
0000
0000
0000
0000
0000
,
0100
0000
0000
0000
0000
0000
0010
0000
0000
0000
0000
0000
1000
0000
0000
0100
0000
0000
0000
0000
0000
0000
0000
0000
0010
0000
0000
0000
0000
0000
0100
0000
0000
0000
0000
0000
1000
0000
0000
0000
0100
0000
0000
0000
0010
0000
0000
0000
,
0001
0000
0000
0000
0010
0000
0000
0000
0100
0000
0000
0000
1000
0000
0000
0010
0000
0000
0000
0000
0000
0000
0000
0000
1000
0000
0000
0000
0000
0000
0100
0000
0000
0000
0000
0000
0010
0000
0000
0100
0000
0000
0000
0000
0000
0000
0000
0000
,
0001
0000
0000
0000
0000
0000
0100
0000
0000
0000
0000
0000
0010
0000
0000
1000
0000
0000
0000
0000
0000
0000
0000
0000
0001
0000
0000
0000
0000
0000
0100
0000
0000
0000
0000
0000
1000
0000
0000
0000
0100
0000
0000
0000
0010
0000
0000
0000
,
0001
0000
0010
0000
0100
0000
0010
0000
0000
0100
0000
0000
0001
0000
0000
1000
0000
0000
0100
0000
0000
1000
0000
0000
,
0001
0000
0000
0100
0000
0000
0001
0000
0000
0100
0000
0000
0010
0000
0000
0100
0000
0000
1000
0000
0100
0000
0010
0000
,
0001
0000
0010
0000
0100
0000
0010
0000
0000
0100
0000
0000
0001
0000
0000
0010
0000
0000
0001
0000
0000
1000
0000
0000
,
0010
0000
0000
1000
0000
0000
0100
0000
0000
0010
0000
0000
0100
0000
0000
0010
0000
0000
1000
0000
0100
0000
0010
0000
,
0001
0000
0000
0000
0010
0000
0000
0000
0100
0000
0000
0000
1000
0000
0000
0100
0000
0000
1000
0000
0000
0000
0000
0000
0100
0000
0000
0000
0000
0000
0001
0000
0000
0010
0000
0000
0001
0000
0000
0000
0000
0000
0100
0000
0000
0000
0000
0000
,
0010
0100
1000
0000
0001
0000
0010
0001
0100
0000
1000
0000
0001
0100
1000
0000
,
0100
0000
0010
0100
0001
0000
0010
0000
0100
0001
1000
0000
0001
0000
0010
1000
,
0100
0000
0010
0000
0001
0100
0010
0000
0100
0000
1000
0000
0100
0000
0000
0101
,
0000
0000
0110
0000
1000
0100
0010
0000
0001
0000
0100
0000
0000
0000
0100
0000
;
