#TITLE:Attack the music (49 MUSIC MIX);
#ARTIST:DJ FX (another mixed by DEPROGRAM MAN);
#GENRE:HARD TECHNO;
#MUSIC:Attack the music (49 MUSIC MIX).ogg;
#BANNER:Attack the music (49 MUSIC MIX).png;
#BACKGROUND:Attack the music (49 MUSIC MIX)-bg.png;
#CDTITLE:./CDTitles/beatmania.png;
#SAMPLESTART:55.068;
#SAMPLELENGTH:15;
#OFFSET:-0.274;
#BPMS:0=140.03;
#BGSTAGE:17;
#DISPLAYBPM:140;

//--------------- dance-single - XLev450X ----------------
#NOTES:
     dance-single:
     XLev450X:
     Challenge:
     14:
     0,0,0,0,0:
0000
0000
0000
0000
,
0000
0000
0000
0000
,
1100
0000
0000
0000
0011
0000
0000
0000
0010
0000
0000
0100
0000
0000
0010
0000
,
1100
0000
0000
0000
0011
0000
0000
0000
0010
0000
0000
1000
0000
0000
0001
0000
,
1010
0000
0000
0000
0000
0000
0100
0000
0010
0000
0000
0010
0000
0000
1000
0000
,
0110
0000
0000
0000
0000
0000
0010
0000
0100
0000
0000
1000
0000
0000
0100
0000
,
0011
0000
0000
0000
0000
0000
0100
0000
0010
0000
0000
0001
0000
0000
1000
0000
,
0100
0000
0000
0000
1000
0000
0000
0000
1000
0010
0000
0100
0001
0000
0100
0000
,
2002
3003
0202
0303
0022
0033
0202
0303
,
2002
3003
0220
0330
2200
3300
0022
0033
,
0010
1000
0100
0010
0001
0010
0001
0100
,
1000
0010
0000
0010
0100
0010
0001
0100
0010
1000
0001
0010
0001
0000
0110
0000
,
1000
0000
0000
0000
0001
0000
0100
0000
0001
0000
0000
0001
0000
0000
0100
0000
,
0010
0000
0000
0000
1000
0000
0100
0000
0010
0000
0000
0010
0000
0000
0010
0000
,
0001
0000
0000
0000
1000
0000
0100
0000
0010
0000
0000
0001
0000
0000
0100
0000
,
0010
0100
0001
1000
0100
0010
0101
1001
,
0100
0000
1000
0000
0010
0000
0100
0000
0010
0100
0001
0100
0001
0000
0100
0000
,
0010
0000
0100
0000
0010
0000
0100
0000
1000
0001
0100
1000
0001
0000
0010
0000
,
0001
0000
0100
0000
0010
0000
0100
0000
0001
0010
0100
1000
0100
0000
1000
0000
,
0001
0000
1000
0000
0010
0000
0100
0000
1000
0100
0001
1000
0010
0000
1000
0000
,
0100
0000
1000
0000
0010
0000
1000
0000
0100
0000
0010
0000
0100
0010
0001
1000
,
0001
0000
0100
0000
0001
0000
0010
0000
0100
0000
1000
0000
0001
0010
0100
1000
,
0100
0000
1000
0000
0100
0000
0010
0000
0100
0000
1000
0000
0010
0100
0001
1000
,
0010
1000
0001
0100
0001
0010
0100
0010
,
0000
0000
0000
1000
0010
0100
0000
0000
,
0110
0000
0000
0000
0000
0000
0000
0000
0000
0010
0000
0000
1000
0000
0100
0000
0010
0000
0001
0000
0010
0000
0100
0000
,
1000
0000
0000
0000
0000
0000
1000
0000
0000
0000
0100
0000
0000
0001
0000
0000
,
1100
0000
0000
0000
0000
0000
0000
0000
0000
0100
0000
0000
1000
0000
0100
0000
0010
0000
0001
0000
0010
0000
0100
0000
,
1000
0000
0001
0000
1000
0000
0100
0000
1000
0010
0000
0100
1000
0100
0001
0000
,
0100
0000
1000
0000
0010
0000
0100
0000
0001
0100
0000
0010
1000
0100
0001
0000
,
1000
0000
0010
0000
1000
0000
0001
0000
0100
0001
0000
0010
0100
1000
0010
0000
,
1000
0000
0010
0000
1000
0000
0001
0000
0100
0001
0000
0010
1000
0100
0010
0000
,
0001
0010
0100
1000
0001
0010
0100
1000
,
0001
0000
0000
0100
0000
0000
0010
0000
0000
0001
0000
0000
1000
0000
0100
0000
0010
0000
0001
0000
0010
0000
0100
0000
,
0010
1000
0001
0010
0100
1000
0001
0100
,
0010
0000
0000
1000
0000
0000
0010
0000
0000
0100
0000
0000
1000
0000
0100
0000
0010
0000
0001
0000
0010
0000
0100
0000
,
0010
0100
0001
0010
0001
1000
0010
0100
,
0001
0000
0000
0100
0000
0000
0010
0000
0000
0100
0000
0000
1000
0000
0100
0000
0010
0000
0001
0000
0010
0000
0100
0000
,
0010
0100
0010
1000
0010
0100
0001
0010
,
2200
0000
0000
3300
0000
0000
2002
0000
0000
3003
0000
0000
1000
0000
0100
0000
0010
0000
0001
0000
0010
0000
0100
0000
,
2020
3030
2200
3300
0220
0330
2020
3030
,
0010
0100
0001
0010
0100
1000
0001
1000
,
0010
0100
0001
0100
0010
0100
0001
0010
,
0100
1000
0001
1000
0001
1000
0010
0100
0010
1000
0010
1000
0001
0010
0001
1000
,
0020
0000
0000
0030
0000
0000
0000
0000
0000
0000
0000
0000
0000
0000
0000
0000
;
