#TITLE:熱き決闘者たち;
#ARTIST:Arranged by BEMANI Sound Team "Akhuta Works";
#TITLETRANSLIT:Atsuki duelist tachi;
#MUSIC:Atsuki duelist tachi.ogg;
#BANNER:Atsuki duelist tachi.png;
#BACKGROUND:Atsuki duelist tachi-bg.png;
#CDTITLE:./CDTitles/NOSTALGIA Op.2.png;
#SAMPLESTART:13.171;
#SAMPLELENGTH:15;
#OFFSET:-0.358;
#BPMS:0=144
,0.250=88
,19=144;

//--------------- dance-single - XLev450X-bSP ----------------
#NOTES:
     dance-single:
     XLev450X:
     Beginner:
     2:
     0,0,0,0,0:
0000
0000
0000
0000
,
0000
0000
0000
0000
,
0000
0000
0000
0000
,
0000
0000
0000
0000
,
0000
0000
0000
0001
,
0001
0001
0000
1000
,
1000
1000
0000
0010
,
0010
0010
0000
1000
,
0001
1000
0000
0100
,
0010
0100
0000
1000
,
0010
1000
0000
0100
,
0001
0100
0000
0001
,
1000
0010
0000
0001
,
0000
0000
0000
1000
,
0000
0000
0000
0010
,
0000
0000
0000
0100
,
0000
0000
0000
1000
,
1000
0000
0000
0001
,
0001
0000
0000
0100
,
0010
0000
0000
0100
,
1000
0000
0000
0001
,
1000
0001
0000
0010
,
1000
0010
0000
0100
,
0001
0010
0000
1000
,
0000
0001
0000
0010
,
1000
0010
0000
0100
,
0001
0100
0000
1000
,
0001
1000
0000
0010
,
0000
0100
0000
0001
,
0000
0000
0000
1000
,
0000
0000
0000
0010
,
0000
0000
0000
0100
,
0000
0000
0000
1000
,
0000
0001
0000
1000
,
0000
0010
0000
0100
,
0000
0001
0000
1000
,
0000
0000
0000
0001
,
0000
1000
0000
0010
,
0000
0100
0000
0001
,
0000
1000
0000
0010
,
0000
0000
0000
0100
,
0000
0001
0000
1000
,
0000
0010
0000
0100
,
0000
0000
0000
0001
,
0000
0000
0000
1000
,
0010
0001
0000
0001
,
0100
1000
0000
0100
,
0010
0100
0000
1000
,
0001
0100
0000
0010
,
2002
0000
0000
0000
,
0000
0000
0000
0000
,
0000
0000
0000
0000
,
0000
0000
0000
3003
;

//--------------- dance-single - XLev450X-BSP ----------------
#NOTES:
     dance-single:
     XLev450X:
     Easy:
     6:
     0,0,0,0,0:
0000
0000
0000
0000
,
0000
0000
0000
0000
,
0000
0000
0000
1000
0000
0000
0000
0001
0000
0000
0000
0020
0000
0000
0000
0000
0000
0000
0000
0000
0000
0000
0000
0030
0000
0000
0000
1100
0000
0000
0000
0000
,
0000
0000
0000
2002
0000
0000
0000
0000
0000
0000
0000
0000
0000
0000
0000
0000
0000
0000
0000
0000
0000
0000
0000
0000
0000
0000
0000
0000
0000
0000
0000
0000
,
0000
3003
0000
1000
,
0001
0010
1000
0010
,
0100
0000
0001
0010
0001
1000
0010
0000
,
0100
0000
1000
0001
0100
0000
0001
0000
,
1000
0000
0010
0100
0100
0000
0001
0000
,
1000
0000
0001
1000
0001
0000
0010
0000
,
1000
0000
0010
1000
0010
0000
0100
0000
,
0001
0000
0010
1000
0010
0000
0100
0000
,
0001
0000
1000
0001
0100
0000
0010
0000
,
1000
0001
0000
0000
1000
0000
0010
0000
,
0100
0010
0000
0000
1000
0000
0010
0000
,
0100
0001
0000
0000
1000
0000
0001
0100
,
0001
1000
0010
0000
1000
0000
0001
0000
,
1000
0010
0000
0000
0100
0000
0001
0000
,
0100
0010
0000
0000
1000
0000
0010
0000
,
1000
0001
0000
0000
1000
0000
0010
1000
,
0010
0100
0001
0000
1000
0000
0001
0000
,
1000
0000
0010
0100
0010
0000
1000
0000
,
0001
0000
0010
0001
0010
0000
1000
0000
,
0010
0100
0010
1000
0010
0000
0101
0000
,
1010
0000
0010
0100
0010
0000
1000
0000
,
1000
0000
0001
0100
0001
0000
1000
0000
,
0010
0000
1000
0100
1000
0000
0010
0000
,
0100
0000
0010
1000
0010
0000
0100
0000
,
0001
0000
1000
0001
0100
0000
0001
0000
,
1000
0010
0000
1000
,
0010
0100
0001
1000
,
0010
0000
1000
0000
0000
0000
0010
1000
,
0010
0000
0100
0001
0100
0000
0001
0000
,
1000
0010
0000
0100
,
0001
1000
0000
0010
,
1000
0000
0010
1000
0000
0000
0010
0000
,
0100
0001
1000
0010
,
1000
0000
0010
1000
0010
0100
0001
0000
,
1000
0000
0001
0100
0001
1000
0010
0000
,
1000
0000
0010
0100
0010
1000
0001
0000
,
1000
0000
0001
0100
0001
1000
0001
0000
,
1000
0000
0010
1000
0010
1000
0010
0000
,
0100
0000
0010
0001
0010
0000
0100
0000
,
1000
0000
0001
0100
0000
0000
1000
0000
,
0010
0000
1000
0001
0100
0010
1000
0000
,
0001
0000
1000
0010
1000
0000
0001
0000
,
0100
0000
0010
0100
0010
0000
1000
0000
,
0001
0000
0010
0001
0010
0000
1000
0000
,
0010
0000
0100
0010
0100
0000
1001
0000
,
0220
0000
0000
0000
,
0000
0000
0000
0000
,
0000
0000
0000
0000
,
0000
0000
0000
0330
;

//--------------- dance-single - XLev450X-DSP ----------------
#NOTES:
     dance-single:
     XLev450X:
     Medium:
     10:
     0,0,0,0,0:
0000
0000
0000
0000
,
0000
0000
0000
0000
,
0000
0000
0000
0000
0000
0000
0000
0000
0000
1000
0000
0000
0000
0000
0000
0000
0000
0000
0000
0000
0000
0001
0000
0000
0000
0000
0000
0100
0000
0000
0000
0000
0000
0010
0000
0000
0000
0000
0000
0000
0001
0000
0000
0000
1000
0000
0000
0000
0001
0000
0000
0000
0010
0000
0000
0000
0001
0000
0000
0000
0010
0000
0000
0000
0100
0000
0000
0000
1000
0000
0000
0000
0000
0000
0000
0000
0000
0000
0000
0000
0000
0202
0000
0000
0000
0000
0000
0000
0000
0000
0000
0000
0000
0303
0000
0000
,
0000
0000
0000
2020
0000
0000
0000
0000
0000
0000
0000
0000
0000
0000
0000
0000
0000
0000
0000
0000
0000
0000
0000
0000
0000
0000
0000
0000
0000
0000
0000
0000
,
0000
0000
3030
0000
0000
0000
1000
0010
,
0100
0001
1000
0010
0100
0000
0001
0010
,
0001
1000
0010
0100
1000
0000
0010
1000
,
0010
0100
0001
1000
0010
0000
0101
0000
,
1010
0000
0010
0100
0100
0000
0001
1000
,
0001
0000
0010
0001
1000
0010
1000
0010
,
1000
0000
0100
1000
0001
0100
0010
1000
,
0001
0000
1000
0010
0100
0001
1000
0000
,
0010
0000
0100
1000
0001
0000
0100
0000
,
0010
1000
0000
0001
0100
0010
1000
0000
,
0001
0010
0000
0100
1000
0000
0010
0000
,
0100
1000
0000
0001
0100
0010
1000
0000
,
0010
0100
0000
0001
0010
1000
0001
0000
,
0100
1000
0000
0010
1000
0001
0100
0000
,
0010
1000
0000
0010
1000
0100
1000
0000
,
0001
0100
0000
0010
1000
0001
0100
0000
,
0010
1000
0000
0010
0100
0010
0001
0000
,
1000
0000
0010
0100
1000
0001
0100
0010
,
1000
0000
0001
0010
1000
0001
0100
0010
,
1000
0000
0001
0100
0010
1000
0001
0000
,
0100
0000
1000
0010
0010
0000
0100
0000
,
0001
0000
1000
0010
1000
0100
0001
0000
,
1000
0000
0010
0100
0001
1000
0010
0000
,
1000
0000
0001
0100
1000
0001
1000
0000
,
0010
0000
1000
0100
0100
0000
0010
0000
,
1000
0000
0001
0000
1000
0000
0010
1000
,
0010
0100
0001
1000
0010
0100
0001
0000
,
1000
0000
0010
0000
1000
0000
0001
0010
,
1000
0001
0100
0000
1000
0000
0010
0000
,
1000
0000
0001
0100
0010
0000
1000
0000
,
0010
0000
0100
0001
1000
0010
0100
0000
,
0001
0000
1000
0000
0010
1000
0001
0000
,
0100
0000
1000
0000
0001
0000
1000
0001
,
0100
0010
1000
0001
0100
0000
0010
1000
,
0001
1000
0010
0100
1000
0000
0010
1000
,
0010
0100
0001
1000
0010
0000
0100
0000
,
0001
0000
1000
0000
0010
0000
1000
0010
,
0100
0001
1000
0000
0010
0000
0100
0001
,
1000
0010
0100
1000
0001
0000
1000
0000
,
0010
0000
0100
1000
0010
0000
1000
0001
,
1000
0010
0100
0001
1000
0000
0001
0000
,
1000
0000
0010
1000
0010
0000
0100
0000
,
0010
0000
0001
0010
0001
0000
1000
0000
,
0001
0000
0100
0001
0100
0000
0010
0000
,
1000
0000
0010
0100
0001
0010
1000
0000
,
2002
0000
0000
0000
,
0000
0000
0000
0000
,
0000
0000
0000
0000
,
0000
0000
0000
3003
;

//--------------- dance-single - XLev450X-ESP ----------------
#NOTES:
     dance-single:
     XLev450X:
     Hard:
     15:
     0,0,0,0,0:
0000
0000
0000
0000
,
0000
0000
0000
0000
,
0000
0000
0000
0000
0000
0000
0000
0000
0000
1000
0000
0000
0000
0000
0000
0000
0000
0000
0000
0000
0000
0001
0000
0000
0000
0000
0000
1000
0000
0000
0000
0000
0000
0100
0000
0000
0000
0000
0000
0000
0010
0000
1000
0000
0001
0000
0000
0000
0100
0000
0000
0000
0001
0000
0000
0000
0100
0000
0000
0000
0001
0000
0000
0000
0010
0000
0000
0000
0100
0000
0000
0000
0000
0000
0000
0000
0000
0000
0000
0000
0000
0110
0000
0000
0000
0000
0000
0000
0000
0000
0000
0000
0000
0000
0000
0000
,
0000
0000
0000
2002
0000
0000
0000
0000
0000
0000
0000
0000
0000
0000
0000
0000
0000
0000
0000
0000
0000
0000
0000
0000
0000
0000
0000
0000
0000
0000
0000
0000
,
0000
0000
3003
0000
0000
0000
0001
1000
,
0010
0000
0100
0000
0001
0000
1000
0001
0010
0100
1000
0001
0010
0000
0100
0000
,
0001
0000
0010
0000
0001
0000
1000
0001
0010
0000
1000
0100
0001
0000
0100
0000
,
1000
0000
0010
0000
0001
0000
0100
1000
0010
0000
0100
0000
0001
1000
0001
0000
,
1000
0100
1000
0000
0110
0000
1001
0000
1001
0000
0000
0000
0010
0000
0001
0000
,
0010
0000
1000
0000
0010
0000
0100
0001
1000
0010
1000
0001
0010
0000
0010
0000
,
1000
0000
0001
0000
0010
0000
1000
0001
1000
0000
0010
0001
1000
0000
0010
0000
,
1000
0000
0010
0000
0001
0000
0010
0001
0010
0000
1000
0000
0010
1000
0010
0000
,
0100
0001
0100
0000
0010
0000
1000
0000
0101
0000
0000
0000
1000
0000
0000
0010
,
0000
0000
1000
0000
0000
0000
0001
0000
1000
0000
0010
0000
0100
0000
0000
0001
,
0000
0000
1000
0000
0000
0000
0010
0000
1000
0000
0010
0100
0010
0000
0000
1000
,
0000
0000
0001
0000
0000
0000
0100
0000
0010
0000
1000
0000
0001
0000
0000
0100
,
0000
0000
0010
0000
0000
0000
1000
0000
0010
0000
0001
0010
0001
0000
0000
1000
,
0000
0000
0010
0000
0000
0000
0100
0000
1000
0000
0010
0100
0010
0000
0000
1000
,
0000
0000
0001
0000
0000
0000
0100
0000
0001
0000
1000
0001
0100
0000
0000
0010
,
0000
0000
1000
0000
0000
0000
0001
0000
1000
0000
0010
0000
1000
0000
0000
0010
,
0000
0000
0000
0100
0000
0000
0001
0000
0000
1000
0000
0000
0100
0001
1000
0010
0001
0100
1000
0000
0000
0001
0000
0000
,
0100
0000
0010
0000
1000
0000
0001
1000
0100
0010
0001
1000
0100
0000
0010
0000
,
1000
0000
0100
0000
1000
0000
0001
1000
0100
0000
0001
0010
1000
0000
0010
0000
,
0001
0000
0100
0000
1000
0000
0010
0001
0100
0000
0010
0000
1000
0001
1000
0000
,
0001
0010
0001
0000
1001
0000
0110
0000
0110
0000
0000
0000
0100
0000
1000
0000
,
0100
0000
0001
0000
0100
0000
0010
1000
0001
0100
0001
1000
0100
0000
0100
0000
,
0001
0000
1000
0000
0100
0000
0001
1000
0001
0000
0100
1000
0001
0000
0100
0000
,
0001
0000
0100
0000
1000
0000
0100
1000
0100
0000
0001
0000
0100
0001
0100
0000
,
0010
1000
0010
0000
0100
0000
0001
0000
1010
0000
0000
0000
0010
0000
1000
0000
,
0010
0001
0010
0001
0010
0000
1000
0000
0001
0000
0100
0000
0010
0000
1000
0000
,
0010
1000
0010
1000
0010
0000
0001
1000
0010
0001
1000
0100
0001
0000
1000
0000
,
0010
0000
0100
0000
0010
1000
0001
1000
0010
0000
0001
0000
0010
0000
0001
0010
,
0001
0000
1000
0010
1000
0000
0010
0000
0001
0000
1000
0000
0010
0001
1000
0001
,
0010
0000
0001
0000
1000
0000
0010
0000
0000
0001
0000
0000
1000
0000
0000
0010
0000
0000
0100
0000
0001
0000
1000
0000
,
0010
1000
0010
1000
0001
0000
1000
0010
1000
0010
0100
0001
0100
0000
0010
0000
,
1000
0000
0000
0000
0000
0000
0001
0000
0000
0000
0000
0000
0010
0000
0000
0000
0001
0000
0000
0000
0010
0000
0000
0000
1000
0000
0000
0000
0000
0000
0010
0000
0000
0000
0000
0000
0001
0000
0000
0000
0000
0000
0000
0000
0000
1000
0000
0000
,
0001
0000
0100
1000
0100
0000
0001
0000
0010
0000
1000
0000
0001
1000
0001
0000
,
0010
0000
1000
0000
0010
0001
0010
0000
1000
0000
0010
0000
1000
0010
1000
0000
,
0010
0000
0100
0000
0001
0010
0001
0000
1000
0000
0001
0000
0010
1000
0010
0000
,
0001
0000
0100
0000
0001
0100
0001
0000
1000
0000
0010
0000
1000
0010
0001
1000
,
0010
0000
0000
0000
0001
0000
0000
0000
1000
0000
0000
0000
0001
0000
0000
0000
0000
0000
0100
0000
0000
0000
0000
0000
0010
0000
0000
0000
0000
0000
1000
0000
0000
0000
0000
0000
0001
0000
0000
1000
0000
0000
0010
0000
0000
0100
0000
0000
,
0001
1000
0010
0000
1000
0000
0010
0000
0100
0000
0010
0000
1000
0001
0100
0010
,
1000
0001
0100
0000
0010
0000
1000
0000
0010
0000
1000
0000
0010
1000
0010
0001
,
0010
0000
1000
0000
0010
0001
0010
0001
0100
0000
0001
0000
0010
1000
0010
0100
,
0001
1000
0010
1000
0001
0100
1000
0010
0100
0001
1000
0010
1000
0000
0001
0000
,
0010
0000
0001
0000
0010
1000
0001
0100
0010
0001
1000
0100
0010
0000
1000
0000
,
0010
0000
0100
0000
0010
0000
1000
0010
0100
0000
0001
0100
0001
0000
0010
0000
,
1000
0000
0001
0000
0010
0000
0001
0010
0001
0000
1000
0010
1000
0000
0010
0000
,
0100
0000
0001
0000
1000
0000
0010
0100
0001
0010
1000
0010
0100
0000
0000
0000
,
2002
0000
0000
0000
,
0000
0000
0000
0000
,
0000
0000
0000
0000
,
0000
0000
0000
3003
;
