#TITLE:Astounded;
#ARTIST:Bran Van 3000 feat. Curtis Mayfield;
#GENRE:ACID JAZZ;
#MUSIC:Astounded.ogg;
#BANNER:Astounded.png;
#BACKGROUND:Astounded-bg.png;
#SAMPLESTART:40.774;
#SAMPLELENGTH:15;
#OFFSET:-0.075;
#BPMS:0=143.077;
#DISPLAYBPM:143;
#BGSTAGE:4;

//--------------- dance-single - XLev450X-bSP ----------------
#NOTES:
     dance-single:
     XLev450X:
     Beginner:
     4:
     0,0,0,0,0:
0000
0000
0000
0000
,
0000
0000
0000
0000
,
0000
0000
0000
0000
,
0001
1000
0001
0000
,
0100
1000
0001
0100
,
1000
0010
1000
0000
,
0100
0001
1000
0010
,
0100
1000
0001
0000
,
1000
0100
0010
1000
,
0001
1000
0001
0000
,
0100
1000
0010
0100
,
0011
0000
0100
1000
,
1100
0000
0010
0100
,
0110
0000
0001
1000
,
1001
0000
0010
0100
,
1001
0000
0000
0000
,
1100
0000
0000
0000
,
0011
0000
0000
0000
,
0110
0000
0000
0000
,
0001
0001
0001
0000
,
1000
1000
1000
0000
,
0010
1000
0010
0000
,
2002
0000
0000
0000
,
3003
0000
0000
0000
,
0000
0000
0000
0000
,
0001
1000
0010
0000
,
1000
0001
0100
0000
,
0010
1000
1000
0000
,
0001
0010
0100
0000
,
1000
0001
0100
0000
,
0010
1000
0100
0000
,
0010
0001
0010
1000
,
0100
0010
0000
0000
,
1000
0001
0010
0000
,
0100
1000
0100
0010
,
0001
0010
0100
0000
,
1000
0001
1000
0000
,
0100
1000
0001
0000
,
0010
1000
0001
0010
,
0100
0001
1000
0000
,
0100
0010
0001
0000
,
1001
0000
0000
0000
,
0110
0000
0000
0000
,
1100
0000
0000
0000
,
0011
0000
0000
0000
,
1000
0000
1000
0000
,
1000
0000
0000
0000
,
0001
0000
1000
0000
,
2002
0000
0000
0000
0000
0000
0000
3003
,
0001
1000
0010
0000
,
1000
0100
1000
0001
,
0100
0010
1000
0000
,
0001
0100
0010
0000
,
1000
0001
0100
0000
,
1000
0001
0010
0000
,
0000
0100
0000
0001
,
0000
1000
0010
0100
,
0001
1000
0010
0000
,
1000
0100
1000
0001
,
0100
0010
1000
0000
,
0001
1000
0010
0000
,
0100
1000
0010
0000
,
1000
0001
1000
0000
,
0010
1000
0001
0100
,
0010
0100
0010
0100
,
1001
0000
0000
0000
;

//--------------- dance-single - XLev450X-BSP ----------------
#NOTES:
     dance-single:
     XLev450X:
     Easy:
     7:
     0,0,0,0,0:
0000
0000
0000
0000
,
0000
0000
0000
0000
,
0000
0000
0000
0000
,
0001
1000
0010
0000
,
1000
0001
0100
1000
,
0010
0000
1000
0000
0001
0100
0000
1000
,
0000
0010
1000
0010
,
0100
1000
0101
0000
,
1000
0010
0100
0001
,
1000
0000
0100
0000
0010
0001
0000
1000
,
0000
0100
0010
0000
0000
0000
0000
0000
,
1000
0000
0100
0000
0001
1000
0100
0000
,
0010
0000
1000
0000
0001
1000
0100
0010
,
0001
1000
0010
1000
,
0001
0010
0100
0000
1000
0001
0100
0000
,
0002
0000
0000
0000
0000
0000
0000
0003
1000
0000
0000
0000
0010
0000
0000
0000
,
0200
0000
0000
0000
0000
0000
0000
0300
0010
0000
0000
0000
0100
0000
0000
0000
,
2000
0000
0000
0000
0000
0000
0000
3000
0100
0000
0000
0000
0010
0000
0000
0000
,
0002
0000
0000
0000
0000
0000
0000
0003
1000
0000
0000
0000
0001
0000
0000
0000
,
1000
0010
1000
0000
0100
0001
0100
0000
,
0010
0000
1000
0000
0010
0100
1000
0000
,
0001
0000
0100
0000
0010
1000
0010
0100
,
2002
0000
0000
0000
,
3003
0000
0000
0000
,
0000
0000
0000
0000
,
0001
0000
1000
0000
0100
1000
0000
0001
,
0000
0100
0000
1000
0010
0100
1000
0000
,
0010
0000
0100
0000
0010
0001
0000
0100
,
0000
1000
0000
0010
1000
0000
0010
0000
,
0100
0000
1000
0000
0010
0100
0001
0000
,
1000
0100
1000
0001
,
0100
1000
0001
0000
1000
0010
1000
0000
,
0001
0100
1000
0010
,
1000
0001
0000
0100
0000
1000
0000
0010
,
0000
0100
0001
0000
1000
0000
0010
0000
,
0100
1000
0001
1000
,
0010
1000
0100
0001
1000
0000
0010
0000
,
0100
1000
0001
0100
,
1000
0001
0011
1100
,
0010
1000
0001
0000
0100
1000
0100
0000
,
0010
0000
1000
0000
0001
0100
0010
0000
,
0101
0000
1010
0000
,
0110
0000
1001
0000
,
1010
0000
0110
0000
,
0011
0000
1001
0000
,
1000
1000
0001
0001
,
0100
1000
0010
0100
,
1000
0001
0100
1000
0010
0100
0001
0010
,
0220
0000
0000
0000
0000
0000
0000
0000
0000
0000
0000
0000
0000
0000
0000
0330
,
0001
0000
1000
0000
0100
1000
0000
0010
,
0000
0100
0000
0000
0001
0000
0100
0000
,
1000
0000
0001
0000
1000
0010
0000
0100
,
0000
1000
0001
0000
0010
0000
0100
0000
,
1000
0010
1000
0000
0100
0001
0100
0000
,
0010
1000
0010
0000
,
0000
2000
3000
0002
0003
0200
0300
2000
,
3000
0000
0000
0002
0000
0000
0003
0000
0000
0020
0000
0030
1000
0000
0000
0001
0000
0000
0100
0000
0000
0000
0000
0000
,
1000
0000
0010
0000
1000
0001
1000
0000
,
0010
1000
0011
0000
,
1000
0000
0100
0000
1000
0001
0000
0100
,
0000
1000
0001
0000
0100
0000
0010
0000
,
1000
0010
1000
0000
0001
0100
0001
0000
,
1000
0001
0100
0000
,
1000
0000
0010
0000
1000
0001
0100
0000
,
1000
0000
0010
0000
1000
0001
0100
0010
,
1001
0000
0000
0000
;

//--------------- dance-single - XLev450X-DSP ----------------
#NOTES:
     dance-single:
     XLev450X:
     Medium:
     10:
     0,0,0,0,0:
0000
0000
0000
0000
,
0000
0000
0000
0000
,
0000
0000
0000
0000
,
0001
0000
1000
0000
0010
0100
0000
1000
,
0001
0010
0001
0000
0100
0000
1000
0000
,
0010
0000
1000
0001
0000
0100
1000
0010
,
0000
0100
1000
0100
0010
0001
0010
0000
,
1000
0000
0010
0000
0100
1000
0010
0100
,
1000
0000
0010
0000
1000
0100
0001
0000
,
1000
0000
0010
0000
1000
0100
1000
0001
,
0000
1000
0010
0000
0101
0000
1001
0000
,
0010
0000
1000
0000
0001
1000
0001
0100
,
0000
1000
0010
0000
1000
0100
0001
0000
,
0010
0000
0100
0000
1000
0010
0000
1000
,
0000
0000
0001
0000
0100
0000
0000
0000
0010
0000
1000
0100
0010
0000
0001
0000
,
1000
0000
0000
0100
,
0001
0010
0000
0100
,
1000
0001
0000
0001
,
0100
1000
0000
0010
,
1000
0010
1000
0000
0100
0001
0100
0000
,
0010
0100
1000
0001
0010
0100
1000
0000
,
0001
0000
1000
0000
0010
0100
0010
1000
,
2002
0000
0000
0000
,
3003
0000
0010
0000
0000
0100
0000
0000
,
1000
0000
0000
0000
0001
0000
0000
0000
1000
0100
0001
0000
1000
0000
0001
0000
,
0010
1000
0010
0100
0000
0011
0000
1100
,
0001
0000
0010
0000
1000
0000
0100
0000
0001
0000
0000
0100
0000
0000
0001
0000
,
1000
0000
0010
0000
1000
0100
0000
0011
,
0000
1100
0001
0000
1000
0000
1000
0000
,
0010
1000
0010
0100
0000
0001
0010
0001
,
0000
0100
1000
0001
0010
0000
1000
0000
,
0010
1000
0010
0100
0000
0001
0010
0001
,
0000
1000
0001
0000
0100
0000
1000
0000
,
0010
1000
0010
0100
0001
1000
0010
0000
,
0100
0000
0000
0000
1000
0000
0000
0000
0001
0000
0000
0100
0000
0000
0001
0000
,
1000
0000
0010
0000
1000
0010
0000
0100
,
0000
0001
0010
0001
1000
0010
0010
0000
,
2000
3000
0001
0100
0000
1000
0010
1000
,
0010
0100
0001
1000
0010
0100
0000
1000
,
0000
0001
1000
0010
0100
1000
0001
0000
,
1000
0001
0010
0001
0010
0000
1000
0000
,
0011
1100
0110
1001
,
1010
1010
1010
1010
,
0011
1100
1001
0110
,
0110
0110
1001
0011
,
0001
0000
1000
0000
0010
1000
0010
0000
,
0100
1000
0001
0010
,
1000
0001
0100
1000
0100
0001
0010
1000
,
0220
0000
0000
0000
0000
0000
0000
0330
,
0001
0000
1000
0000
0010
1000
0010
0100
,
0000
0001
1000
0000
0010
0000
0100
0000
,
1000
0010
1000
0000
0100
0000
1000
0001
,
0000
0100
0010
0000
1000
0000
0001
0000
,
0100
1000
0010
0100
0000
0001
1000
0010
,
0000
0100
1000
0000
0011
0000
1100
0000
,
0000
1001
0000
1001
0000
1001
0000
1001
,
0000
0000
1001
0000
0000
0000
1001
0000
0000
0000
0010
0000
1000
0000
0000
0001
,
0100
1000
0001
0010
0000
0100
0000
1000
,
0001
0000
0100
0000
0010
0000
1000
0000
0001
0000
0000
0100
0000
0000
0010
0000
,
1000
0000
0001
0000
1000
0100
0000
1000
,
0000
0010
0100
0000
1000
0000
0001
0000
,
0100
1000
0001
0100
0000
0010
0000
1000
,
0100
0000
0001
0000
0010
0000
1000
0000
0001
0000
0000
0100
0000
0000
0010
0000
,
0000
0001
1000
0010
0000
0100
1000
0010
,
0000
0100
1000
0001
0010
0100
0010
1000
,
1001
0000
0000
0000
;

//--------------- dance-single - XLev450X-ESP ----------------
#NOTES:
     dance-single:
     XLev450X:
     Hard:
     14:
     0,0,0,0,0:
0000
0000
0000
0000
,
0000
0000
0000
0000
,
0000
0000
0000
0000
,
0001
0000
1000
0000
0010
1000
0100
1000
,
0001
0010
0001
0000
0100
1000
0101
0000
,
0010
0000
1000
0000
0100
1000
0000
0001
,
0000
0000
1000
0000
0010
0000
0000
0000
0100
0000
1000
0010
1000
0000
0001
0000
,
1000
0000
0010
0000
0100
1000
0100
0000
,
0010
0000
1000
0000
0010
0100
1000
0001
,
0010
0000
1000
0000
0001
0010
0000
0100
,
0000
0000
1000
0000
0001
0000
0000
0000
0010
0000
0001
0010
0001
0000
0001
0000
,
1000
0000
0010
0000
0100
1000
0000
0001
,
0000
1000
0000
0100
0000
1000
0010
0100
,
1000
0010
0001
0010
1000
0001
0000
1000
,
0000
0000
0010
0000
1000
0000
0000
0000
0001
0000
1000
0001
0100
0000
0010
0000
,
2000
0100
0100
3100
,
0020
0001
0001
0031
,
0200
1000
1000
1300
,
0002
0010
0010
0013
,
1000
0001
0100
0000
1000
0010
1000
0000
,
0010
0001
0010
0100
1000
0001
0010
0000
,
1000
0000
0001
0000
0010
0100
0010
1000
,
0202
0000
0000
0000
,
0303
0000
1000
0000
0000
0001
0000
0000
,
0100
0000
0000
0000
0010
0000
1000
0000
0001
1000
0010
0100
1000
0001
0100
0010
,
1000
0100
0010
0001
0000
1000
0000
0010
,
1000
0000
0100
0000
1000
0000
0010
0000
0001
0000
0000
0101
0000
0000
1010
0000
,
0010
0000
0001
1000
0000
0101
0000
1010
,
0000
0000
0010
0001
0100
0000
1000
0000
0001
0000
0011
0000
0010
0000
1000
0000
,
0001
0100
1000
0001
0000
0100
0000
1000
,
0001
0000
0100
0000
1000
0000
0001
0000
0101
0000
0000
1010
0000
0000
0010
0000
,
0001
0000
1000
0010
0000
0100
0000
1000
,
0000
0000
0001
0100
1000
0000
0100
0000
0001
0000
1000
0000
0010
0000
0001
0000
,
1000
0001
0100
1000
0000
0001
0000
0100
,
1000
0000
0001
0000
0010
0000
0001
0000
0100
0000
0000
1000
0000
0000
0001
0000
,
0000
0100
0000
0001
1000
0010
0000
1000
,
0000
0000
0001
1000
0010
0000
0000
0000
1000
0000
0010
0000
0001
0000
0000
0000
,
0100
1000
0001
0100
0000
0001
0000
1000
,
0010
0000
1000
0000
0001
0000
0000
0000
0101
0000
0000
1010
0000
0000
0001
0000
,
0010
1000
0001
0010
0000
0100
1000
0000
,
0001
0000
0010
0000
1000
0000
0001
0000
0100
1000
0100
0010
0001
0010
0100
1000
,
0011
1100
0110
1001
,
0110
0011
1100
1001
,
0010
1000
0010
0000
0010
0001
0010
0000
,
1001
1010
0101
1010
,
0001
0000
1000
0000
0010
0100
0001
0000
,
1000
0000
0010
0000
1000
0001
0010
0000
,
1000
0100
0001
1000
0100
0010
1000
0001
,
0100
0000
0010
0000
0001
0000
1000
0000
0100
0000
0010
0000
0001
0000
0100
0000
0010
0000
1000
0001
0100
0000
0010
0000
0100
0000
0010
0000
0100
0000
1000
0001
,
0100
0000
0001
0010
0001
1000
0010
1000
,
0000
0000
0001
0000
0100
0000
1000
0000
0010
0000
0000
0001
0000
0000
1000
0000
,
0001
0100
1000
0000
0010
0000
0100
0000
1000
0000
0001
0000
0100
0000
0010
0000
,
0000
0000
1000
0000
0010
0000
0001
0000
1000
0000
0000
0100
0000
0000
0001
0000
,
0010
1000
0010
0000
1000
0000
0001
0000
0010
0000
1000
0000
0010
0000
0100
0000
,
0000
0001
1000
0000
0001
0100
0010
0000
,
0000
0101
0000
1010
0000
1001
0000
0010
,
1000
0000
0001
0000
0010
0000
0001
0100
0001
0000
1000
0000
0010
1000
0100
0010
,
0001
0100
1000
0001
0000
0010
1000
0001
,
0100
0001
0010
0000
1000
0100
0001
0000
0100
0000
0000
0010
0000
0000
1000
0000
,
0001
0000
0001
0100
1000
0000
0010
0000
1000
0000
0010
0000
0000
0000
0101
0000
,
0000
0000
0010
0000
1000
0000
0001
0000
0010
1000
0001
0000
1000
0001
1000
0100
,
0001
0100
1000
0001
0000
0100
0010
1000
,
0001
0000
1000
0000
0010
0000
0100
0000
0001
0010
0100
1000
0100
0001
0010
0200
,
0300
0010
1000
0010
1000
0001
0100
0010
,
1000
0000
0001
0000
0100
0000
0010
0000
1000
0100
0001
0100
0010
1000
0001
0100
,
1001
0000
0000
0000
;
