#TITLE:Asdfmovie9 Song;
#ARTIST:LilDeuceDeuce;
#MUSIC:Asdfmovie9 Song.ogg;
#BANNER:Asdfmovie9 Song.png;
#BACKGROUND:Asdfmovie9 Song-bg.png;
#SAMPLESTART:92.657;
#SAMPLELENGTH:15;
#OFFSET:-0.504;
#BPMS:0=110
,139=220
,141=110;
#STOPS:139=0.53;
#BGSTAGE:30;

//--------------- dance-single - XLev450X-bSP ----------------
#NOTES:
     dance-single:
     XLev450X:
     Beginner:
     3:
     0,0,0,0,0:
0000
0000
0000
0000
,
0000
0000
0000
0000
,
0000
0000
0000
0000
,
0000
0000
0000
0000
,
0000
0001
1000
0001
,
0000
0010
0010
0010
,
0000
1000
0001
1000
,
0000
0100
0100
0100
,
0000
1001
0000
0000
,
0000
0110
0000
0000
,
0000
0010
0000
0010
,
0000
0010
0000
0000
,
0000
1000
0000
1000
,
0000
1000
0000
0000
,
0000
0001
1000
0001
,
0000
0100
1000
0010
,
0000
0010
0001
0010
,
0000
1000
0100
0010
,
0000
0100
0010
0100
,
0000
0001
0001
0001
,
0000
0010
0100
0010
,
0000
1000
1000
1000
,
0000
0011
0000
0000
,
0000
1100
0000
0000
,
0000
0010
0000
1000
,
0000
0001
0000
0000
,
0000
0001
0000
0001
,
0000
0001
0000
0000
,
0000
0010
1000
0001
,
0000
0100
1000
0001
,
0000
0010
1000
0010
,
0000
0001
0010
0001
,
0000
0100
0100
0100
,
0000
0001
1000
0001
,
0000
0010
0010
0010
,
0000
0100
0100
0100
,
0000
1001
0000
0000
,
0000
1001
0000
0000
,
0000
1000
0001
1000
,
0000
1000
0100
0010
,
0000
0010
0010
0010
,
0000
0100
0100
0100
,
0000
0001
1000
0001
,
0000
1000
0100
1000
,
0000
0010
0100
0010
,
0000
0001
0010
0001
,
0000
1000
0000
0001
,
0000
1000
0000
0010
,
0000
0100
0000
0010
,
0000
0001
0000
1000
,
0000
1001
0000
0000
;

//--------------- dance-single - XLev450X-BSP ----------------
#NOTES:
     dance-single:
     XLev450X:
     Easy:
     7:
     0,0,0,0,0:
0000
0000
0000
0000
,
0000
0000
0000
0000
,
0000
0000
0000
0000
,
0000
0000
0000
0000
,
0000
0000
0001
0000
1000
0000
0010
1000
,
0010
0000
0001
0000
0100
0000
1000
0001
,
1000
0010
0100
1000
,
0001
0000
0100
0001
0100
0000
1000
0010
,
1000
0001
1000
0010
,
0100
0001
1000
0001
,
0000
1000
0010
0100
,
0001
0000
1000
0010
1000
0000
0001
0100
,
0001
0001
0010
0100
,
1000
0000
0000
0000
0000
0000
0000
0000
0001
0000
0000
0000
1000
0000
0000
0000
0001
0000
0000
0000
0000
0000
2002
0000
0000
0000
0000
0000
0000
0000
0000
0000
,
0000
0000
1000
0000
0001
0000
0010
0100
,
0010
0001
0010
0001
,
1000
0000
0100
0000
0001
0000
1000
0010
,
1000
0001
0100
0010
,
0000
0000
0001
0000
1000
0000
0010
0010
,
0100
0000
0001
0000
1000
0000
0001
0001
,
1000
0100
0010
0001
,
1000
0000
0010
0001
0010
0000
0100
0010
,
0100
0001
1000
0010
,
0100
0000
1000
1000
0010
0000
0100
0000
,
0001
0000
1000
0001
1000
0000
0010
1000
,
0010
0001
0100
0001
,
0000
0010
1000
0100
,
0001
0000
0000
0000
0010
0000
0100
0000
0010
0000
0000
0220
0000
0000
0000
0000
,
0000
0000
0001
0000
1000
0000
0010
1000
,
0010
0100
0001
0010
,
0100
0000
0010
0000
0001
0000
1000
0001
,
1000
0010
0100
0001
,
1000
0010
0100
1000
,
0010
0000
1000
0010
1000
0000
0001
0010
,
0001
1000
0010
1001
,
0000
0001
1000
0100
,
1000
0000
0010
0010
0100
0000
0001
0001
,
0010
1000
0001
0100
,
0000
1000
0010
0100
,
0001
0000
0010
0001
0010
0000
0100
1000
,
0100
0001
0010
0100
,
1000
0000
0000
0000
0010
0000
1000
0000
0100
0000
0001
0010
0000
0000
0000
0000
,
0000
0000
0001
0000
1000
0000
0010
0100
,
0010
0001
0010
1000
,
0000
0000
1000
0000
0100
0000
0010
0100
,
0010
0001
0010
0001
,
0000
1000
0001
1000
,
0010
0100
0001
1000
,
0010
1000
0010
0000
0100
0000
0001
0000
,
0010
0000
1000
0000
0001
0000
0010
0001
,
0010
0000
0000
0000
0100
0000
0000
0000
2002
0000
0000
0000
0000
0000
0000
0000
0000
0000
0000
0000
0000
0000
0000
3003
0000
0000
0000
0000
0000
0000
0000
0000
;

//--------------- dance-single - XLev450X-DSP ----------------
#NOTES:
     dance-single:
     XLev450X:
     Medium:
     11:
     0,0,0,0,0:
0000
0000
0000
0000
,
0000
0000
0000
0000
,
0000
0000
0000
0000
,
0000
0000
0000
0000
,
0000
0000
0001
1000
0010
0100
1000
0001
,
0010
0000
0000
0000
1000
0000
0001
0000
0100
0000
0000
0001
0000
0000
1000
0000
,
0010
0100
1000
0001
0010
0000
1000
0100
,
1000
0000
0000
0000
0001
0000
1000
0000
0010
0000
0000
0100
0000
0000
0001
0000
,
1000
0010
0001
0010
0001
0000
1000
0100
,
1000
0000
0000
0000
0001
0000
0000
0000
1000
0000
0000
0010
0100
0000
1000
0000
,
0001
0000
1000
0001
0100
0000
1000
0010
,
0100
0000
0000
0000
0001
0000
0010
0000
0001
0000
0000
1000
0000
0000
0001
0000
,
0100
1000
0001
1000
0010
0100
1000
0001
,
0100
0000
1000
0000
0010
0000
0001
0000
0010
0001
0010
2000
0000
0000
0000
0000
,
3000
0000
0001
1000
0100
1000
0001
0100
,
0010
0000
0000
1000
0000
0000
0001
0000
0100
0000
1000
0000
0001
0000
0100
0000
,
0010
1000
0001
0100
0010
1000
0001
0100
,
1000
0000
0000
0001
0000
0000
0100
0000
0010
0000
1000
0000
0010
0000
0001
0000
,
1000
0001
1000
0000
0001
0000
1000
0000
0100
0000
0000
0000
0010
0000
1000
0000
,
0010
0000
0000
0000
0100
0000
1000
0000
0001
0000
0000
0100
0000
0000
1000
0000
,
0001
0010
0001
1000
0010
0000
1000
0100
,
1000
0000
0000
0000
0010
0000
0100
0000
1000
0000
0000
0001
0000
0000
0100
0000
,
1000
0001
1000
0010
0100
1000
0010
0100
,
1000
0000
0001
0000
0100
0000
0000
0000
1000
0000
0000
0001
0000
0000
0100
0000
,
1000
0001
0010
0001
1000
0000
0010
1000
,
0010
0000
0000
0000
0100
0000
1000
0000
0001
0000
0000
0100
0000
0000
1000
0000
,
0001
1000
0001
0000
1000
0000
0010
0000
,
0100
0000
0000
0000
0001
0000
0010
0000
0001
0010
0001
1000
0000
0000
0000
0000
,
0000
0000
0000
0000
0001
0000
1000
0000
0001
0000
0100
0000
1000
0001
1000
0000
,
0010
0000
0000
0100
0000
0000
1000
0000
0001
0000
0100
0000
1000
0000
0001
0000
,
0100
0000
0000
0010
0000
0000
1000
0000
0010
0000
0100
0000
0010
1000
0010
0000
,
0100
0000
0001
1000
0001
0000
1000
0100
,
1000
0001
0010
1000
0100
0000
0010
0001
,
0010
0000
0000
0000
1000
0000
0001
0000
0100
0000
0000
1000
0000
0000
0001
0000
,
0100
0010
1000
0001
0010
0100
2002
0000
,
0000
0000
3003
0000
0001
0000
1000
0000
0001
0000
0000
0100
0000
0000
1000
0000
,
0001
0010
1000
0010
1000
0000
0001
0010
,
0001
0000
0000
0000
1000
0000
0001
0000
0100
0000
0000
0010
0000
0000
1000
0000
,
0001
0100
0001
1000
0010
0000
1000
0100
,
1000
0000
0000
0000
0001
0000
0010
0000
1000
0000
0000
0001
0000
0000
0100
0000
,
1000
0001
0001
0100
1000
0000
1000
0100
,
0001
0000
0000
0000
0001
0000
1000
0000
0010
0000
0100
2002
0000
0000
0000
0000
,
0000
0000
3003
0000
0001
0000
1000
0000
0010
0000
0100
0000
1000
0010
1000
0000
,
0010
0000
0001
0010
0001
0100
1000
0001
,
0100
0000
1000
0001
0100
1000
0001
0010
,
0100
0010
0000
0000
1000
0000
0001
0000
1000
0000
0001
0000
0100
0000
1000
0000
,
0001
0000
0010
0000
0001
0010
0001
0000
1000
0010
1000
0000
0010
0100
0010
0000
,
0001
0010
0001
0000
1000
0000
0100
0000
1000
0000
0001
0000
0100
0000
1000
0000
,
0001
0000
1000
0000
1000
0010
1000
0000
0010
0100
0010
0000
0001
0010
0001
0000
,
1000
0000
0000
0000
0001
0000
1000
0000
0100
0000
1000
0000
0001
1000
0001
0000
,
0100
0000
0000
0000
0000
0000
0000
0000
0000
0000
0000
0000
0010
0000
0000
0000
0000
0000
0000
0000
0000
0000
0000
0000
2002
0000
0000
0000
0000
0000
0000
0000
0000
0000
0000
0000
0000
0000
0000
0000
0000
0000
0000
0000
0000
0000
0000
0000
0000
0000
0000
0000
0000
0000
0000
0000
0000
0000
0000
0000
0000
0000
0000
0000
0000
0000
0000
0000
0000
0000
0000
0000
3003
0000
0000
0000
0000
0000
0000
0000
0000
0000
0000
0000
0000
0000
0000
0000
0000
0000
0000
0000
0000
0000
0000
0000
;

//--------------- dance-single - XLev450X-ESP ----------------
#NOTES:
     dance-single:
     XLev450X:
     Hard:
     16:
     0,0,0,0,0:
0000
0000
0000
0000
,
0000
0000
0000
0000
,
0000
0000
0000
0000
,
0000
0000
0000
0000
,
0000
0000
0000
0000
0001
0000
1000
0000
0010
0000
1000
0100
0001
0000
0010
0000
,
1000
0000
0000
0000
0001
0000
0000
0000
0010
0000
0000
0000
0001
1000
0010
0000
0001
0000
1000
0000
0010
0000
0200
0000
0300
0000
0000
0000
1000
0000
0100
0010
,
0001
0000
1000
0000
0010
0000
0000
0000
1000
0000
0000
0000
0001
0000
0010
0000
0100
0000
0000
1000
0000
0000
0001
0000
0100
0000
0010
0000
1000
0000
0001
0000
,
0000
0000
0010
0000
0100
0000
0001
0000
1000
0000
0000
0000
0001
0000
0000
0000
1000
0001
0010
0000
1000
0000
0020
0000
0000
0000
1030
0000
0001
0000
0100
0000
,
0010
0001
1000
0000
0001
1000
0001
1000
0010
1000
0010
1000
0001
0010
0001
0010
,
1000
0001
1000
0010
1001
0000
0001
0000
1000
0010
0000
1000
0001
0000
0010
0000
,
1000
0000
0001
0000
0010
0000
1000
0001
1000
0000
0010
0000
1000
0000
0010
1000
,
0010
0000
0000
0000
0001
0000
0000
0000
0010
0000
0000
0000
0001
0000
0010
0000
0001
0000
0010
0001
0100
0000
1000
0000
0000
0000
0010
0000
1000
0000
0000
0000
,
0001
0000
0000
0000
0100
0000
0000
0000
1000
0100
0001
0000
0010
0000
0000
0000
0100
0010
0100
0000
1000
0000
0000
0000
0001
0100
1000
0000
0010
0000
0000
0000
,
1000
0100
0001
0000
0010
0000
0000
0000
0001
0000
1000
0000
0010
0000
1000
0000
0001
0000
1000
0000
0001
0000
0210
0000
0000
0000
0000
0000
0000
0000
0000
0000
,
0000
0000
0000
0000
0300
0000
0000
0000
1001
0000
0000
0000
0010
0000
0001
0000
0010
0000
0100
0000
1000
0000
0000
0000
0001
0010
0100
0000
1000
0000
0000
0000
,
0010
1000
0000
0001
0000
0010
0001
0100
1000
0001
0010
1000
0001
0100
0010
0001
,
1000
0000
0000
0010
0000
0000
0100
0000
0010
0000
1000
0000
0010
0000
0001
0000
0100
0000
1000
0000
0100
0000
0010
0000
0001
1000
0100
0000
0010
0000
0000
0000
,
0001
0000
1000
0000
0000
0000
0010
0000
0000
0000
1000
0100
0001
0000
1000
0000
0010
0000
1000
0000
0001
0000
0010
0000
0001
0000
0010
0000
1000
0000
0100
0000
,
0001
1000
0100
0001
1000
0000
0010
0000
1000
0000
0001
0000
0010
1000
0001
1000
,
0010
0000
0000
0000
0001
0000
0000
0000
0010
0000
0000
0000
0001
0100
1000
0000
0010
0000
1000
0000
0010
0000
0001
0000
0000
0000
1000
0000
0010
0000
0001
0000
,
1000
0000
0100
1000
0001
0000
0100
0000
1000
0000
0010
0000
1000
0000
0001
0000
0000
0000
0010
0000
1000
0000
0000
0000
0100
0000
0001
0000
1000
0000
0100
0000
,
0001
1000
0010
0000
1000
0000
0001
0000
0001
1000
0001
0010
0000
1000
0010
1000
,
0100
0001
0010
0000
0001
0010
0001
0010
1000
0010
1000
0010
0100
0001
1000
0010
,
0100
0001
1000
0001
0010
0000
1000
0000
0001
0010
0000
1000
0000
0010
1000
0010
,
1000
0001
0010
0000
1000
0000
0001
0000
0100
0000
1000
0000
0001
0000
0010
0000
,
1000
0010
0001
0000
1000
0000
0010
0000
1000
0001
1000
0010
0000
1000
0001
0010
,
0100
0010
1000
0000
0001
0010
0001
0010
1000
0010
1000
0000
0001
1000
0010
0001
,
0100
0010
1000
0000
0001
1000
0010
1000
0001
0100
0010
1200
0000
0000
0000
0000
,
0000
0000
0000
0000
0300
0000
0000
0000
1001
0000
0000
0000
0010
0000
0001
0000
0010
0000
0100
0000
1000
0000
0000
0000
0001
0010
0100
0000
1000
0000
0000
0000
,
0010
1000
0000
0001
0000
0010
0001
0100
1000
0001
0010
1000
0001
0100
0010
0001
,
1000
0000
0000
0010
0000
0000
0100
0000
0001
0000
1000
0000
0010
0000
0001
0000
0100
0000
1000
0000
0100
0000
0010
0000
0001
1000
0100
0000
0010
0000
0000
0000
,
0001
0000
1000
0000
0000
0000
0010
0000
0000
0000
1000
0100
0001
0000
1000
0000
0010
0000
1000
0000
0001
0000
0010
0000
0001
0000
0010
0000
1000
0000
0100
0000
,
0001
1000
0100
0010
0001
1000
0010
1000
0001
0000
0010
0000
1000
0100
0001
1000
,
0010
0000
1000
0000
0001
0000
1000
0000
0010
0000
0000
0000
0001
0100
1000
0000
0010
0000
0001
0000
0010
0000
0001
0000
0000
0000
0001
0000
1000
0000
0100
0000
,
0010
0001
1000
0100
0001
0010
0001
0010
0100
1000
0010
0100
2002
0000
0000
0000
,
0000
0000
0000
0000
0000
3003
0000
0000
0001
0000
0000
0000
1000
0000
0100
0000
0010
0000
0001
0000
1000
0000
0100
0000
0000
0000
0000
0000
0010
0000
1000
0100
,
0001
1000
0010
0000
1000
0010
1000
0010
1000
0001
0010
0001
0010
1000
0010
1000
,
0001
0000
0010
0000
0100
0000
0010
0000
2000
0000
0000
0001
0000
0000
3001
0000
0010
0000
0001
0000
0100
0000
1000
0000
0000
0000
0010
0000
1000
0000
0001
0000
,
0100
0010
1000
0000
0001
0010
0001
0010
0000
1000
0010
0000
0100
1000
0100
1000
,
0001
0000
0010
0000
1000
0010
1000
0001
1000
0010
1000
0100
0001
0000
0010
0000
,
1000
0000
0100
0000
0001
0000
0010
0000
1000
0100
0010
0000
0001
0010
0100
0000
1000
0001
1000
0000
0100
0010
0100
0000
0010
0100
0010
0000
0001
1000
0001
0000
,
1000
0010
0001
0000
0100
0001
0010
0000
1000
0100
0010
0001
0010
0100
1000
0100
0010
0001
1000
0100
0001
0010
0200
0000
0000
0000
0000
0000
0000
0000
0000
0000
,
0000
0000
0000
0000
0300
0000
0000
0000
1001
0000
0000
0000
0100
0000
1000
0000
0100
0000
0010
0000
0001
0000
0000
0000
1000
0100
0010
0000
0001
0000
0000
0000
,
0100
0001
0000
1000
0000
0100
1000
0010
0001
1000
0100
0001
1000
0010
0100
0010
,
0001
0000
0000
0100
0000
0000
0010
0000
0100
0000
0001
0000
0100
0000
1000
0000
0010
0000
0001
0000
0010
0000
0000
0000
1000
0001
0010
0000
0100
0000
0000
0000
,
1000
0000
0001
0000
0000
0000
0100
0000
0000
0000
0001
0010
1000
0000
0001
0000
0100
0000
0001
0000
1000
0000
0100
0000
1000
0000
0100
0000
0001
0000
0010
0000
,
1000
0001
0010
1000
0001
0100
1000
0100
0001
1000
0010
0001
1000
0100
0010
0000
,
0001
0000
0010
0000
0000
0000
1000
0000
0000
0000
0010
0100
0010
0000
1000
0000
0001
0000
0100
0000
1000
0000
0100
0000
0001
0000
1000
0000
0010
0000
1000
0000
,
0011
0000
0000
1010
0000
0000
0110
0000
0001
0000
0010
0000
0001
0000
1000
0000
0010
0000
1000
0000
0001
0000
0100
0000
1000
0000
0100
0000
0001
0000
0100
0000
,
0010
0000
1000
0000
0000
0000
0001
0000
1000
0000
0010
0001
1000
0000
0001
0000
1000
0000
0010
0000
0100
0000
0001
0000
1000
0000
0010
0000
1000
0000
0001
0000
,
0100
0000
0000
0000
0000
0000
0010
0000
0000
0000
0000
0000
0100
0000
0000
0010
0000
0000
0100
0000
0000
0010
0000
0000
2002
0000
0000
0000
0000
0000
0000
0000
0000
0000
0000
0000
0000
0000
0000
0000
0000
0000
0000
0000
0000
0000
0000
0000
0000
0000
0000
0000
0000
0000
0000
0000
0000
0000
0000
0000
0000
0000
0000
0000
0000
0000
3003
0000
0000
0000
0000
0000
0000
0000
0000
0100
0000
0000
0010
0000
0000
0000
0000
0000
0000
0000
0000
0000
0000
0000
0000
0000
0000
0000
0000
0000
;
