#TITLE:Arousing;
#ARTIST:DJ TOTTO feat.吉河順央;
#ARTISTTRANSLIT:DJ TOTTO feat.Sunao Yoshikawa;
#BANNER:Arousing.png;
#BACKGROUND:Arousing-bg.png;
#CDTITLE:./CDTitles/jb saucer.png;
#MUSIC:Arousing.ogg;
#SAMPLESTART:74.557;
#SAMPLELENGTH:15;
#BPMS:0=89.5,24=179,124=89.5,152=179;
#STOPS:168=1.006;
#TIMESIGNATURES:0=4=4,168=1=4,169=4=4;
#BGSTAGE:3;

//--------------- dance-single - Fred-104 ----------------
#NOTES:
     dance-single:
     Fred-104:
     Beginner:
     4:
     :
0000
0000
0000
0000
,
0000
0000
0000
0000
,
1000
0000
1000
0000
,
0001
0000
0001
0000
,
0010
0000
0010
0000
,
0100
0100
0100
0100
,
0100
0000
0000
0000
,
0100
0000
0010
0000
,
0010
0000
0001
0000
,
0001
0000
0000
0000
,
1000
0000
1000
0000
,
1000
0000
0000
0000
,
0010
0000
0010
0000
,
0010
0010
0010
0010
,
0020
0000
0000
0030
,
0010
0000
1000
0000
,
0001
0000
1000
0000
,
0100
0000
1000
0000
,
1000
0000
0001
0000
,
1001
0000
0000
0000
,
1000
0000
1000
0000
,
0100
0000
0010
0000
,
0001
0001
0001
0000
,
1000
0000
0001
0000
,
1000
0000
0001
0000
,
1000
0000
0010
0000
,
1000
0000
0001
0000
,
1001
0000
0000
0000
,
1000
0000
0100
0000
,
1000
0000
0001
0000
,
0010
0010
0010
0010
,
0010
0000
0100
1000
,
0001
1000
0001
0000
,
0100
0010
0100
0000
,
0100
0010
0100
0000
,
0001
0001
0000
1000
,
0000
1000
0000
0010
,
0000
1000
0000
1000
,
1000
0000
0100
0000
,
0100
0000
0010
0000
,
0001
0000
0001
0000
,
1000
1000
1000
1000
,
0000
1000
0000
0001
,
0000
1000
1000
1000
,
0000
0010
0000
0100
,
0000
0001
0001
0001
,
0000
0001
0000
1000
,
0000
0001
0001
0001
,
0000
1000
0000
1000
,
0000
0002
0000
0000
,
0003
0001
0000
1000
,
0000
0100
0100
0100
,
0000
0010
0000
0001
,
0000
1000
1000
1000
,
1000
2000
3000
0000
,
0000
1000
0000
0010
,
0000
1000
0000
0001
,
0000
0100
0100
0100
,
0000
1001
0000
1000
,
0000
0001
0000
1000
,
0000
2002
0000
0000
,
0000
0000
0000
3003
,
0000
1000
0000
0001
,
0000
1000
1000
1000
,
0000
0001
0000
1000
,
0000
0100
0100
0100
,
0000
0010
0000
0001
,
0000
1000
1000
1000
,
0000
0010
0000
0010
,
0000
1000
1000
1000
,
1000
1000
0000
0000
,
0010
0000
0000
0100
,
0000
0001
1000
0000
;

//--------------- dance-single - Fred-104 ----------------
#NOTES:
     dance-single:
     Fred-104:
     Easy:
     8:
     :
0000
0000
0000
0000
,
0000
0000
0000
0000
,
2000
0000
3100
0000
0010
0010
0100
0000
,
0002
0000
0103
0000
0010
0010
0100
0000
,
1001
0000
0000
0000
0100
0000
0000
0000
0010
0000
0000
0010
0000
0000
0010
0000
,
0200
0000
0000
0000
0310
0010
0100
0100
,
0001
1000
0100
1000
,
1000
0100
0010
0000
,
0100
0100
0001
0100
,
0010
0100
0220
0330
,
0001
1000
0001
0001
,
1000
0100
0010
0000
,
0100
0100
1000
0001
,
0100
0100
0010
0010
,
2002
0000
0000
3003
,
1000
1000
0100
1000
,
0010
0100
0010
0000
,
0100
0001
0100
0001
,
0010
0001
0001
0000
,
1001
0000
0100
1000
,
0100
0100
0010
0001
,
0100
0100
0010
0100
,
0100
1000
1001
0000
,
0001
0010
0010
0001
,
0100
0010
1000
0000
,
0100
0100
1000
0001
,
1000
0100
0010
0000
,
0110
0000
0001
1000
,
0100
0100
0010
0100
,
0100
1000
0001
0100
,
0010
0100
0110
0000
,
1000
0100
0100
1000
,
0001
0010
0010
0001
,
0100
0010
1000
0100
,
0010
0010
0001
0100
,
0001
0000
0011
0000
0001
1000
0100
0000
,
0100
0000
0110
0000
0100
1000
0001
0000
,
0100
0000
0000
0000
1001
0000
0000
0000
0100
0000
0000
0100
0000
0000
0100
0000
,
0001
0001
1000
0100
,
1000
1000
0010
1000
,
0100
0100
0010
0010
,
0100
0010
0100
0110
,
0000
1000
0100
0100
,
0001
0100
0100
1000
,
0000
0001
0001
0100
,
0100
0010
1000
1001
,
0000
0001
1000
0010
,
1000
0100
0100
0010
,
0010
0110
0000
2002
,
0000
3003
0000
0001
,
0001
1001
1000
0010
,
1000
0100
0100
0010
,
0000
0110
0100
0001
,
0100
0010
0010
1000
,
0100
0100
0110
0010
,
0001
0000
1000
0000
0000
1000
0000
0000
,
0100
0000
0001
0000
0000
0001
0000
0000
,
0100
0010
0100
0220
,
0330
0000
0001
0000
0000
1000
0000
0000
,
0001
0100
0010
0100
,
0001
2002
0000
0000
,
0000
0000
0000
3003
,
0000
1000
0001
1000
,
0010
0100
0010
0220
,
0330
1001
0001
0010
,
0100
1000
0010
0220
,
0330
1000
0100
0100
,
0010
0001
1000
2002
,
3003
0001
0010
1000
,
0100
0010
0010
0100
,
0100
0000
1000
0000
0000
0001
0000
0000
,
0100
0000
0000
0010
0000
0000
1000
0000
,
0001
0000
0100
0010
0100
0020
0000
0000
,
0000
0030
0000
0000
;

//--------------- dance-single - Fred-104 ----------------
#NOTES:
     dance-single:
     Fred-104:
     Medium:
     11:
     :
0000
0000
0000
0000
,
0000
0000
0000
0000
,
1001
0000
0001
1000
0001
0000
0100
0010
0000
0100
0000
0001
1000
0000
0010
1000
,
1010
0000
0100
0001
1000
0000
0100
0100
0000
0010
0000
0001
0000
1000
0000
0100
,
2000
0000
3020
0000
0032
0000
0203
0000
2300
0000
0000
3002
0000
0000
0203
0000
,
0320
0000
0000
0000
0000
0000
0000
0000
0130
0010
0100
0010
0100
0010
0100
0000
,
0001
0000
1000
0100
0000
0100
0010
0100
,
1000
0000
0001
0000
1000
0010
0100
0000
,
0001
0010
0100
0010
0100
0010
0100
0000
,
0010
0100
0010
0010
0000
1001
0000
0010
,
0100
0000
0110
0000
0001
1000
0010
1000
,
0100
0000
0110
0000
0001
0100
0010
0000
,
0100
0100
0001
1000
0001
0001
0100
0010
,
0100
0001
1000
0100
0010
0000
0001
0000
,
1000
0000
0001
0010
0100
0010
0001
0000
,
0001
0000
1000
0010
0100
0000
0010
1000
,
0001
1000
0000
0100
0000
1000
0000
0000
,
0001
0000
1000
0100
1000
0000
0001
0010
,
0100
0010
0000
0011
0000
1010
0000
2001
,
0000
3001
1000
0001
,
0010
0100
0010
0000
0001
0100
0001
0100
,
0000
0010
0100
0000
0010
1000
0001
0010
,
0000
0100
0010
0000
0001
0000
1001
0000
,
0100
0000
1000
0100
0010
0000
0100
1000
,
0001
0100
0000
0001
0000
0001
0000
0000
,
0100
0000
0010
1000
0100
0000
1000
0100
,
0010
0001
0000
0101
0000
1100
0000
1002
,
0000
0000
0103
0000
0010
0000
0100
0001
,
1000
0100
0010
0000
0001
1000
0100
0010
,
0000
0100
0100
0000
1000
0001
0100
0010
,
0000
0010
0100
0000
0010
0100
0110
0000
,
0002
0000
0103
0000
0020
0100
0130
0000
,
0020
0000
1030
0000
0001
1000
0002
0000
,
2003
0000
0100
0000
3200
1000
1300
0000
,
0002
0000
1003
0000
1000
0010
0200
0000
,
0301
0000
0010
0001
1000
0000
0100
0100
0000
0010
0000
0100
0010
0000
0000
0001
,
0100
0000
0010
0000
0100
0001
0100
0001
0000
1000
0000
0100
0000
0010
0000
0001
,
0100
0000
0000
0000
0010
0000
1000
0100
2000
0000
0000
3002
0000
0000
0203
0000
,
0301
0010
0001
0010
0001
0000
1000
0010
,
0100
0010
0000
0010
0000
1000
0000
0100
,
1000
1000
0001
0001
,
1000
0100
1000
0100
0010
0001
0010
0001
,
0000
0000
1001
0000
0001
0100
0010
0000
,
1000
0100
0010
0001
0000
0001
0100
0000
,
0001
0100
0010
0000
0100
0001
1000
0000
,
0100
1000
0100
1000
0000
0001
0000
1000
,
0000
0100
0100
0000
0110
0000
0001
1000
,
0001
0000
1000
0000
0010
0000
0000
0000
0100
0000
0000
0000
0001
0000
0000
0001
,
0000
1000
0020
0000
0000
0100
0200
0000
,
0330
0000
0001
0000
1000
0000
0100
0010
,
0100
0000
1000
0100
0010
0100
0010
0000
,
0001
1000
0000
0100
0000
1000
1000
0000
,
0010
1000
0001
0010
0001
0010
0001
0000
,
0100
0100
0000
0010
0000
0100
0001
1000
,
0001
0000
0100
0000
1001
0000
1000
0010
,
0100
0001
1000
0000
0020
2030
0000
3200
,
0000
0010
0320
0000
0001
0032
0000
0203
,
0000
0000
0010
0000
0310
0000
0000
0000
0110
0000
0000
0000
1000
0000
0000
1000
,
0000
1000
0001
0000
1000
0100
0000
0010
,
0001
0000
2000
0000
0010
3020
0000
0230
,
0000
0002
0000
0000
0000
0000
0000
0000
,
0000
0303
0000
1001
,
0000
0001
0101
1100
,
1001
0010
0100
2002
,
3003
0000
1000
0100
0001
0000
1000
0010
,
0001
0000
1000
0100
0001
2000
0000
3020
,
0000
0031
1000
0000
1010
0000
0011
0000
,
1001
1000
0010
0220
,
0330
0000
0001
0100
1000
0000
0001
0010
,
1000
0000
0001
0010
0100
1000
0001
0000
,
1001
0000
0001
0101
0000
1000
1100
0000
,
0010
0101
0000
0010
1100
0000
0001
0000
,
0110
0000
1001
1000
0100
0020
0000
0000
,
0000
0030
0000
0000
;

//--------------- dance-single - Fred-104 ----------------
#NOTES:
     dance-single:
     Fred-104:
     Hard:
     14:
     :
0000
0000
0000
0000
,
0000
0000
0000
0000
,
0010
0000
0001
0000
1000
0000
0010
0000
1000
0000
0000
0000
0100
0000
0010
0000
0000
0000
0001
0000
0000
0000
0100
0000
0100
0000
0000
0000
0010
0000
1000
0001
,
1000
0001
1000
0100
0010
0000
0100
0100
0000
1000
0000
0001
0000
1000
0000
0010
,
2000
0000
0010
0000
3002
0000
0100
0000
1003
0000
0010
0100
0000
0001
1000
0000
,
1100
0000
0000
0000
0001
0000
0000
0000
1000
0000
0000
0000
0100
0000
0000
0000
0010
0000
0100
0000
0010
0000
0100
0000
0010
0100
0010
0100
0010
0000
0000
0000
,
0001
0000
0010
0001
0000
0100
0010
1000
,
0001
0000
1001
0000
0010
0100
1000
0001
,
1000
1000
0100
0010
0100
0100
1000
0001
,
0100
0010
0100
0000
0001
2002
0003
3100
,
0010
0000
0001
0100
0000
1000
0100
0001
,
1000
0000
1010
0000
0010
1000
0001
0010
,
0001
1000
0010
0010
0001
0100
0100
1000
,
0001
0100
0010
1000
0001
0010
0100
0000
,
1000
0000
0000
0000
0010
0000
1000
0000
0001
1000
0001
1000
0001
0000
0000
0000
,
1000
0001
0100
0010
0100
0000
0001
0100
,
1000
0100
0001
1000
0000
0020
0000
0000
,
0031
0010
1000
0100
0010
0000
0001
0100
,
0010
0100
1000
0100
0000
0010
0000
1000
,
0001
0000
1001
0000
0001
1000
0010
0100
,
0001
0010
0100
0001
0100
0010
0001
1000
,
0000
1000
0010
0100
1000
0100
0010
1000
,
0000
0000
0001
0000
1000
0000
0000
0000
0001
1000
0001
1000
0001
0000
0000
0000
,
1000
0100
0001
0100
0010
0000
0001
1000
,
0100
0110
0000
0101
0000
1100
0000
0100
,
0010
0000
0100
0001
0100
0000
0010
1000
,
0001
0010
0000
0011
0000
1010
0000
0010
,
0001
0000
1001
0000
1000
0010
0100
0001
,
1000
0100
0010
1000
0010
0100
1000
0001
,
0000
0001
0100
0010
0001
0010
0100
0001
,
0000
0000
1000
0000
0001
0000
0000
0000
0100
0010
0100
0010
0100
0000
0000
0000
,
1001
0000
1000
0100
0001
0000
0100
1000
0000
0010
0000
0100
0001
0000
0000
0001
,
1000
0000
0010
0000
0110
0000
0100
0001
0000
1000
0000
0100
0020
0000
0030
0000
,
0110
0000
0001
0100
0010
0000
1000
0001
0000
1000
0000
0010
0100
0000
0000
0001
,
0011
0000
0001
0000
1000
0001
0010
0001
0000
0100
0000
0010
0220
0000
0330
0000
,
1000
0000
0001
0010
1000
0000
0001
0100
0000
1000
0001
0010
1000
0000
0001
1000
,
0001
0000
0101
0000
0100
0010
1000
0100
0000
0001
0000
0100
0000
1000
0000
0010
,
0110
0000
0000
0000
0010
0000
0100
0001
2000
0000
0000
3002
0000
0000
0203
0000
,
0310
0010
1000
0010
0100
0000
0001
0001
,
0100
0001
1000
0001
0000
1001
0000
0100
,
0110
1000
0001
0000
0110
0001
1000
0000
,
0001
0000
0010
0000
0100
0000
1000
0000
0001
1000
0001
1000
0001
1000
0001
1000
,
0000
0000
1000
0100
0001
0100
1000
0000
,
0001
0100
0010
0100
0001
0100
0010
0000
,
1000
0000
0010
0100
0010
0000
0001
0000
0010
0000
0100
0000
0010
0000
0000
0000
,
1000
0010
0001
0010
1000
0001
0100
0010
,
1000
0100
0010
0000
0201
0000
0310
0001
,
0100
0000
0010
0000
0110
0000
0000
0000
1100
0000
0000
0000
0100
0000
0000
0010
,
0000
0100
2001
0000
0000
0100
0002
0000
,
3003
0000
0000
0000
0001
0000
1000
0000
0001
0100
0001
0000
1000
0000
0100
0010
,
0100
1000
0001
0100
0010
1000
0100
0000
,
0001
0100
1000
0010
0100
0001
0011
0000
,
0001
1000
0100
0100
1000
0001
1000
0000
,
0010
0010
1000
0001
1000
0100
0010
0001
,
1000
0000
0110
0000
1001
0000
0001
0100
,
1000
0010
0001
0000
0100
0010
0000
0010
,
0001
1000
0100
0000
0100
1000
0000
0001
,
0010
0000
0100
0000
0010
0000
0001
0000
0100
0010
0100
0000
0001
0000
0000
0001
,
0000
1000
0200
0000
0001
0001
0000
1000
,
1300
0000
2000
0000
3010
0020
0000
0230
,
0000
0302
1003
0001
1000
0000
0010
0100
,
0010
0000
1000
0000
0000
0000
0001
0000
0001
0000
0000
0000
0001
0100
0010
1000
,
0001
0011
1001
1010
,
1001
1100
0101
2002
,
3003
0000
0000
0000
0001
0010
0001
0000
1000
0010
1000
0000
0001
0100
0001
0000
,
1000
0100
1000
0100
1000
0000
0010
0000
0100
0000
0110
0000
0000
0000
0101
0000
,
0000
1001
1100
0000
0101
0000
1100
0000
,
0100
0010
0100
0010
0100
0000
1000
0000
0001
0000
0000
0000
2020
0000
0000
0000
,
3030
0000
0000
0000
0010
0100
0010
0000
1000
0100
1000
0000
0001
0100
0001
0000
,
0100
0010
0100
0000
0001
1000
0001
1000
0001
1000
0001
1000
0001
0000
0000
0000
,
1001
0000
0001
0101
0000
1000
1100
0000
,
0010
0101
0000
0010
1100
0000
0001
0000
,
0110
0000
1001
0010
0100
0020
0000
0000
,
0000
0030
0000
0000
;

//--------------- dance-single - Fred-104 ----------------
#NOTES:
     dance-single:
     Fred-104:
     Challenge:
     16:
     :
0000
0000
0000
0000
,
0000
0000
0000
0000
,
1000
0000
0010
0000
1000
0000
0001
0000
0010
0000
0000
0000
0100
0000
1000
0000
0000
0000
0001
0000
1000
0000
0010
0000
0100
0000
0000
0000
0001
0000
0010
0100
,
0010
0000
0001
0000
1000
0000
0001
0000
0100
0000
0000
0000
0001
0000
1000
0000
0000
0000
0100
0000
0000
0000
0001
0000
0000
0000
0100
0000
1000
0000
0010
0100
,
0010
0000
0100
0001
1000
0000
0001
0010
1000
0000
0001
0100
0000
1000
0001
0000
,
1000
0000
0100
0000
0010
0000
0001
0000
1000
0000
0100
0000
0010
0000
0001
0000
0100
0000
0100
0000
0010
1000
0010
0000
1000
0001
1000
0001
1000
0000
0000
0000
,
1001
0000
0000
0000
0001
0000
0010
0000
0100
0000
1000
0001
1000
0000
0001
0000
,
0100
0000
0010
0100
0001
1000
0100
0000
,
1000
0100
1000
0000
0001
0100
0001
0000
0100
0010
0100
0010
1000
0010
1000
0010
,
0100
0000
0001
1000
0001
0000
0011
0000
0000
0000
1010
0000
0000
0000
0011
0000
,
1001
0000
0000
0000
1000
0000
0001
0000
0100
0000
0010
1000
0001
0010
0100
1000
,
0001
0000
1000
0001
0100
0010
1000
0000
,
0001
0010
0001
0000
1000
0010
1000
0000
0001
0100
0001
0100
0010
0100
0010
0100
,
0001
0000
0010
0000
0100
0000
1000
0000
0001
0100
0010
1000
0010
0000
0000
0000
,
1001
0000
0000
0000
,
1000
0100
0010
0100
0010
0001
0100
0010
,
0001
0010
0100
0001
0010
0100
1000
0000
,
0001
0100
0001
0100
0010
0001
0010
0100
,
0001
1000
0100
0001
0100
0010
0100
1000
,
0001
0000
0000
0000
1001
0000
0000
0000
1000
0000
0001
0100
0001
0000
1000
0000
,
0001
0000
0010
0100
0010
0000
0001
0000
1000
0000
0010
0100
0010
0000
1000
0000
,
0001
0000
0010
0100
1000
0000
0001
0000
0100
0000
0010
1000
0001
0000
0010
0000
,
0100
1000
0100
0000
1000
0001
1000
0000
0001
0100
0010
1000
0001
0000
1000
0000
,
0001
0100
0010
0100
1000
0100
0010
1000
,
0001
0010
0100
0010
1000
0010
0001
0000
,
1000
0001
0100
1000
0100
0010
0100
0001
,
1000
0100
0010
0100
0001
0100
1000
0001
,
0010
0000
0000
0000
1001
0000
0000
0000
0001
0000
0100
0010
0100
0000
0001
0000
,
1000
0000
0100
0010
0100
0000
1000
0000
0001
0000
0100
0010
1000
0000
0001
0000
,
0010
0000
0100
1000
0001
0000
0100
0001
1000
0000
0010
1000
0001
0000
0010
0001
,
1000
0000
0001
0010
0100
0000
1000
0001
0100
0010
0100
0010
0100
0000
0000
0000
,
1001
0000
0001
0010
0100
0000
1000
0001
0000
0100
0001
1000
0100
0000
0010
0001
,
1000
0000
0010
0000
0100
0000
0010
1000
0000
0001
0010
0100
1000
0001
1000
0000
,
1001
0000
0001
1000
0010
0000
1000
0100
0000
0001
0100
0010
0001
0000
1000
0001
,
0010
0000
0100
0010
0001
0100
0010
0001
0010
0100
0001
0010
0100
1000
0001
0000
,
1001
0000
0001
0100
0110
0000
0010
1010
0000
1000
0100
0010
0011
0000
0001
0100
,
0110
0000
0010
1000
1010
1000
0001
0101
0000
0001
1000
0001
1001
1000
0000
0100
,
0110
0000
0010
0000
0011
0000
0001
0100
0110
0000
1000
0002
0000
0103
0010
0000
,
1000
0100
0001
0100
1000
0000
0001
0100
,
1000
0100
0001
1000
0100
0010
0001
1000
,
0001
0010
0001
0000
1000
0010
1000
0000
0001
0100
0001
0000
1000
0100
1000
0000
,
0001
0010
0001
0010
0100
1000
0100
1000
0001
0010
0100
1000
0001
0100
0010
1000
,
0000
MMMM
0000
0000
0000
0000
0000
0000
0000
0000
0000
0000
0000
0000
0000
0000
0000
0000
0000
0000
0000
0000
0000
0000
0000
0000
0000
0000
0000
0000
0000
0000
0000
0000
0000
0000
0000
0000
0000
0000
0000
0000
0000
0000
0000
0000
0000
0000
0001
0000
0000
0000
0000
0000
0000
0000
0000
0000
0000
0000
0000
0000
0000
0000
0000
0000
0000
0000
0000
0000
0000
0000
0100
0000
0000
0000
0000
0000
0000
0000
0000
0000
0000
0000
0010
0000
0000
0000
0000
0000
0000
0000
0000
0000
0000
0000
0100
0000
0000
0000
0000
0000
0000
0000
0000
0000
0000
0000
0000
0000
0000
0000
0000
0000
0000
0000
0000
0000
0000
0000
0001
0000
0000
0000
0000
0000
0000
0000
0000
0000
0000
0000
0000
0000
0000
0000
0000
0000
0000
0000
0000
0000
0000
0000
1000
0000
0000
0000
0000
0000
0000
0000
0000
0000
0000
0000
0000
0000
0000
0000
0000
0000
0000
0000
0000
0000
0000
0000
0000
0000
0000
0000
0000
0000
0000
0000
0000
0000
0000
0000
0000
0000
0000
0000
0000
0000
0000
0000
0000
0000
0000
0000
,
0100
0000
0010
0001
0010
0000
0001
1000
0001
0000
0100
0000
0010
0000
0000
0000
,
1000
0001
0010
0100
1000
0000
0001
1000
0001
0000
0010
0000
0100
0000
0000
0000
,
1000
0000
0001
0100
0001
0000
0010
0100
1000
0001
0100
0000
0010
0000
1000
0000
,
0001
0000
0010
0000
0110
0000
0000
0000
1100
0000
0000
0000
0001
0000
1000
0010
,
0100
0000
0001
0000
1000
0000
0100
0010
0001
0000
1000
0000
0001
0010
0000
0100
,
0010
0000
0000
0000
0000
0000
0000
0000
0001
0000
0000
0000
0000
0000
0000
0000
2000
0000
0000
0000
0000
0000
0000
0000
0000
0000
0000
0000
0000
0000
0000
0000
3200
0300
0000
0000
0000
0000
0000
0000
0200
0300
0000
0000
0000
0000
0000
0000
0001
0000
0000
0000
0000
0000
0000
0000
0010
0000
0000
0000
0000
0000
0000
0000
,
0100
0000
1000
0000
0001
0000
0100
0001
1000
0001
0010
0000
0100
1000
0001
0100
,
0010
0000
1000
0000
0001
0100
0001
0100
0010
0000
1000
0000
1001
0000
0000
0000
,
0001
0000
0010
0000
0100
0000
1000
0001
1000
0000
0010
0100
0001
0000
0000
0000
,
1001
0000
1000
0000
0100
1000
0100
1000
0001
0000
0100
0000
0010
1000
0001
0000
,
0010
0100
1000
0000
0001
0000
0010
0100
1000
0001
0100
0000
0010
0000
0100
0000
,
0001
1000
0001
1000
0001
0000
0000
0000
1001
0000
0000
0000
1000
0000
0001
0100
,
0001
0000
1000
0000
0001
0000
0010
0100
0010
0000
0001
0000
0100
0000
0010
0001
,
0010
0000
0100
0000
0001
0000
0010
0100
1000
0000
0010
0000
0100
0000
1000
0100
,
0010
0000
1000
0000
1100
0000
0010
0000
0101
0000
0010
0000
1100
0000
0000
0101
,
0000
0000
0110
0000
1001
0000
0000
0000
0001
0000
1000
0000
0100
0000
0010
0001
,
0010
0000
0100
0000
1000
0000
0001
0100
0010
0000
1000
0000
0001
0010
0100
0000
,
1000
0001
0100
0000
0010
0000
1000
0000
1001
0000
0000
0000
0001
1000
0010
0100
,
0001
0000
0011
0000
0000
0000
1010
0000
0011
0000
0000
0000
0001
0100
0010
1000
,
0001
0010
0100
0000
1100
0000
1000
0000
1010
0000
1000
0000
1100
0000
1000
0000
,
0001
1000
0100
0010
0001
0000
0100
0010
0100
0000
0001
0000
2002
0000
0000
0000
,
0000
0000
3003
0000
1000
0010
0100
0000
0010
1000
0001
0000
0010
0001
1000
0000
,
0001
0010
0100
1000
0001
0000
0100
0010
0100
0000
0101
0000
0000
0000
1010
0000
,
0000
1001
0011
0001
1001
0001
0101
0001
,
1000
0001
0010
0100
1000
0000
0010
0100
0010
0000
1000
0000
2002
0000
0000
0000
,
0000
0000
3003
0000
1000
0100
1000
0100
0010
0001
0010
0001
1000
0010
1000
0010
,
0100
0001
0100
0001
1000
0100
0010
0001
0100
0010
1000
0100
0010
0000
0000
0000
,
1001
0000
1010
1001
0000
0011
1001
0000
,
1100
1001
0000
0101
1001
0000
0110
0000
,
1001
0000
1100
0100
0010
0022
0000
0000
,
0000
0033
0000
0000
;

//--------------- dance-double - Fred-104 ----------------
#NOTES:
     dance-double:
     Fred-104:
     Easy:
     8:
     :
00000000
00000000
00000000
00000000
,
00000000
00000000
00000000
00000000
,
00020000
00000000
00032000
00000000
00013000
00000010
00010000
00000000
,
00002000
00000000
00003200
00000000
00000310
00001000
00000001
00000000
,
00000020
00000000
00000000
00000000
00002030
00000000
00000000
00000000
00013000
00000000
00000000
01000000
00000000
00000000
10000000
00000000
,
20020000
00000000
00000000
30030000
00010000
10000000
00010000
10000000
,
00010000
10000000
00000000
10000000
,
01000000
01000000
00100000
00000000
,
00100000
00001000
00001000
00010000
,
00001000
00010000
00011000
00000000
,
00010000
00001000
00000000
00000100
,
00000010
00001000
00000001
00000000
,
00000100
00000100
00000010
00000100
,
00000001
00000010
00000100
00001000
,
00002002
00000000
00000000
00003003
,
00000001
00000010
00000001
00001000
,
00000100
00001000
00000001
00000000
,
00001000
00000100
00000010
00000001
,
00001000
00000010
00010000
00000000
,
00011000
00000000
00010000
00000010
,
00001000
00000010
00010000
00001000
,
00100000
00010000
10000000
00100000
,
01000000
00010000
20020000
30030000
,
10000000
00010000
10000000
00100000
,
01000000
00010000
01000000
00000000
,
00001000
00010000
00001000
00000100
,
00000001
00001000
00000001
00000000
,
00001001
00000000
00000001
00000100
,
00000001
00000010
00000100
00001000
,
00000100
00010000
00001000
00010000
,
01000000
10000000
20020000
30030000
,
10000000
00100000
10000000
00000000
,
00010000
01000000
00010000
00000000
,
00001000
00010000
00001000
00000000
,
00010000
00000010
00001000
00000000
,
00011000
00000000
00001000
00000000
00100000
00100000
00010000
00000000
,
10000000
00000000
01100000
00000000
01000000
01000000
00100000
00000000
,
00001000
00000000
00010000
00000000
00002000
00000000
00000000
00003000
,
00010000
00001000
00000100
00000000
,
00000001
00000010
00000100
00000000
,
00010000
00000000
00001000
00000000
,
00010000
00001000
00010000
00001000
,
00000000
10000000
01000000
00100000
,
00100000
00001000
00010000
00010000
,
00000100
00010000
00010000
00000010
,
00001000
00000001
00001000
00001001
,
00000000
00000001
00001001
00001000
,
00000001
00000100
00000010
00000100
,
00001000
00020000
00000000
00002000
,
00000000
00033000
00000000
00001000
,
00010000
00100000
01000000
00010000
,
10000000
01000000
00100000
00001000
,
00000000
00010000
00001000
00010000
,
00000010
00001000
00000001
00000100
,
00000010
00000100
00000000
00000001
,
00000000
00001000
00000010
00000100
,
00000001
00001000
00000010
00010000
,
00001000
00022000
00000000
00033000
,
00000000
00001000
00000000
00100000
,
00000000
00010000
10000000
01000000
,
10000000
20020000
00000000
00000000
,
00000000
00000000
00000000
30030000
,
00000000
10010000
10000000
00010000
,
01000000
00001000
00010000
00022000
,
00033000
00010000
00001000
00000100
,
00000010
00010000
00001000
00022000
,
00033000
00011000
00001000
00000100
,
00000001
00000010
00000100
00002002
,
00003003
00000001
00000010
00001000
,
00010000
01000000
00100000
00010000
,
10010000
00000000
00100000
00000000
00000000
00001000
00000000
00000000
,
00010000
00000000
00000000
00000010
00000000
00000000
00010000
00000000
,
00011000
00000000
00000010
00000100
00000010
00000200
00000000
00000000
,
00000000
00000300
00000000
00000000
;

//--------------- dance-double - Fred-104 ----------------
#NOTES:
     dance-double:
     Fred-104:
     Medium:
     11:
     :
00000000
00000000
00000000
00000000
,
00000000
00000000
00000000
00000000
,
00001001
00000000
00000001
00000100
00000010
00000000
00001000
00000100
00000000
00000100
00000000
00010000
00001000
00000000
00100000
00010000
,
10000000
00000000
01000000
00100000
01000000
00000000
10000000
00100000
00000000
01000000
00000000
00100000
00000000
00010000
00000000
00001000
,
00020000
00000000
00000000
00000000
00032000
00000000
00000000
00000000
00003200
00000000
00000000
00000302
00000000
00000000
00002003
00000000
,
00003200
00000000
00000000
00000000
00000000
00000000
00000000
00000000
00010300
00001000
00010000
00001000
00010000
00001000
00010000
00000000
,
00001000
00000000
00011000
00000000
00000000
00001000
00010000
00100000
,
01000000
00000000
00010000
00000000
10000000
01000000
00100000
00000000
,
00100000
00001000
00010000
00000010
00001000
00000010
00000100
00000000
,
00000001
00000100
00000010
00001000
00000000
00000001
00000000
00000001
,
00000010
00000000
00001001
00000000
00000000
00001000
00000010
00001000
,
00000001
00000000
00000100
00000000
00000001
00000010
00001000
00000000
,
00010000
00001000
00010000
00100000
01000000
00010000
10000000
00100000
,
10000000
00010000
00100000
01000000
10000000
00000000
10010000
00000000
,
01200000
01000000
01000000
01300000
,
10010000
00000000
10000000
01000000
00010000
00000000
00001000
00010000
,
00001000
00000100
00000000
00000010
00000000
00001001
00000000
00000000
,
00001000
00000000
00000001
00001000
00000010
00000000
00000100
00000010
,
00001000
00010000
00000000
01000000
00000000
01100000
00000000
20020000
,
00000000
30030000
10000000
00000000
00010000
00000000
01000000
00100000
,
10000000
00100000
10000000
00100000
01000000
00010000
01000000
00001000
,
00000000
00001000
00010000
00000000
00000100
00001000
00000100
00000010
,
00000000
00000001
00001000
00000000
00000001
00001000
00000001
00000000
,
00000101
00000000
00000100
00000010
00001000
00000000
00000100
00010000
,
00001000
01000000
00000000
00100000
00000000
01100000
00000000
00000000
,
10000000
00000000
10000000
01000000
00010000
00000000
00010000
00001000
,
00000100
00000001
00000000
00000010
00000000
00000110
00000000
00002002
,
00000000
00003003
00000001
00000000
00001000
00000000
00000001
00000010
,
00000001
00000100
00000001
00000100
00000001
00001000
00000001
00001000
,
00000000
00000100
00010000
00000000
00001000
00100000
00010000
00100000
,
00000000
01000000
00100000
00000000
10000000
00010000
10000000
00000000
,
00020000
00000000
01000000
00000000
00001000
00000000
01030000
00001000
,
00020000
00000000
00001000
00000000
00100000
00000000
00031000
00010000
,
00000200
00000000
00001000
00000000
00000010
00000000
00001300
00000100
,
00020000
00000000
00001000
00000000
00000010
00000000
00031000
00010000
,
00011000
00000000
00010000
00001000
00100000
00000000
00010000
10000000
00000000
01000000
00000000
00100000
00100000
00000000
00000000
01000000
,
10000000
00000000
00100000
00000000
10000000
00100000
00010000
00001000
00000000
00010000
00000000
00000010
00000000
00000100
00000000
00000000
,
00001001
00000000
00000000
00000000
00000010
00000000
00000001
00000010
00000200
00000000
00000000
00020300
00000000
00000000
02030000
00000000
,
03100000
00000000
00010000
10000000
00010000
00000000
10000000
00100000
,
00010000
00001000
00010000
00001000
00000000
00000100
00000000
00000010
,
00001000
00000001
00000010
00001000
,
00010000
00001000
00010000
00001000
00100000
00010000
10000000
00100000
,
00000000
00000000
00011000
00000000
00010000
00000000
00000100
00000010
,
00000001
00001000
00000000
00000010
00000000
00000100
00000100
00000000
,
00000001
00000000
00001001
00000000
00000001
00000000
00000100
00000010
,
00000100
00001000
00000000
00010000
00000000
00100000
01000000
00000000
,
10010000
00000000
01100000
00000000
10010000
00000000
01000000
00100000
,
10000000
00000000
00010000
00000000
00100000
00000000
00000000
00000000
10000000
00000000
00000000
00000000
00100000
00000000
00000000
00010000
,
00000000
00001000
00020000
00000000
00000000
00001000
00002000
00000000
,
00033000
00010000
00001000
00010000
,
00011000
00000000
00010000
00001000
00100000
00001000
00010000
00000000
,
10000000
01000000
00000000
00100000
00000000
00001000
00010000
00000000
,
00000000
00000000
00001000
00010000
00100000
01000000
00001000
00000000
,
00010000
00001000
00000000
00000010
00000000
00001000
00010000
00000000
,
00001000
00000000
00011000
00000000
00011000
00000000
00010000
00001000
,
00000100
00000010
00001000
00000000
00000002
00000023
00000000
00000230
,
00000000
00002300
00003020
00000000
00020030
00032000
00000000
00203000
,
00000000
00000000
00010000
00000000
00310000
00000000
00000000
00000000
10010000
00000000
00000000
00000000
01000000
00000000
00000000
01000000
,
00000000
01000000
00100000
00000000
10000000
01000000
00000000
00100000
,
00001000
00000000
00010000
00000000
00000010
00002000
00000000
00003002
,
00000000
00000200
00000000
00000000
00000000
00000000
00000000
00000000
,
00000000
00000303
00000000
00011000
,
00000000
01100000
00100000
00110000
,
00010000
10000000
01000000
02200000
,
03300000
00000000
10000000
00010000
01000000
00000000
00001000
00010000
,
00000010
00000000
00010000
00001000
00000100
00000001
00000000
00001001
,
00000000
00000001
00000100
00000000
00000110
00000000
00010000
00000000
,
00011000
00010000
00000010
00020020
,
00030030
00000000
00001000
00010000
00100000
00000000
01000000
00010000
,
10000000
00000000
00010000
10000000
01000000
00100000
00001000
00000000
,
00011000
00000000
00010000
00000100
00000000
00001000
00000010
00000000
,
00010000
00100000
00000000
00010000
00001000
00000000
00000010
00000000
,
00001001
00000000
00000100
00001000
00010000
02000000
00000000
00000000
,
00000000
03000000
00000000
00000000
;

//--------------- dance-double - Fred-104 ----------------
#NOTES:
     dance-double:
     Fred-104:
     Hard:
     14:
     :
00000000
00000000
00000000
00000000
,
00000000
00000000
00000000
00000000
,
10000000
00000000
00010000
00000000
00100000
00000000
01000000
00000000
00100000
00000000
00000000
00000000
00010000
00000000
00100000
00000000
00000000
00000000
00001000
00000000
00000000
00000000
00010000
00000000
00001000
00000000
00000000
00000000
00000010
00000000
00000100
00001000
,
00000100
00000010
00000001
00001000
00000001
00000000
00000010
00000001
00000000
00000100
00000000
00001000
00000000
00010000
00000000
01000000
,
00200000
00000000
00000000
00000000
00320000
00000000
00000000
00000000
20030000
00000000
00000000
30200000
00000000
00000000
00320000
00000000
,
00032000
00000000
00000000
00000000
00000000
00000000
00000000
00000000
00000000
00000000
00000000
00000000
00000000
00000000
00000000
00000000
00003010
00000000
00000100
00000000
00000010
00000000
00000100
00000000
00000010
00000100
00000010
00000100
00000010
00000000
00000000
00000000
,
00000001
00001000
00000001
00000100
00000000
00000010
00000100
00000010
,
00001000
00000000
00000100
00000000
00010000
00001000
00100000
00000000
,
00010000
01000000
00100000
00010000
00001000
00010000
00100000
01000000
,
00010000
00100000
01000000
10000000
00000000
10100000
00000000
10010000
,
10010000
00000000
00010000
00100000
00000000
00010000
01000000
01000000
,
00100000
10000000
01000000
00000000
00010000
00001000
00000100
00000000
,
00000001
00001000
00000100
00000010
00000001
00000100
00000010
00000100
,
00001000
00010000
00100000
10000000
01000000
00100000
00010000
00000000
,
01100000
00000000
00000000
00000000
10000000
00000000
00010000
00000000
10000000
00100000
10000000
00100000
10000000
00000000
00000000
00000000
,
00010000
00100000
01000000
01000000
10000000
00000000
00100000
01000000
,
01000000
00001000
00010000
00001000
00000000
00000010
00000000
00000000
,
00000001
00000100
00000100
00000010
00001000
00000000
00000001
00000010
,
00001000
00010000
00001000
00010000
00000000
00110000
00000000
00100000
,
01000000
00000000
10010000
00000000
00010000
10000000
01000000
00010000
,
00001000
00010000
00001000
00000100
00000001
00001000
00000100
00000010
,
00000000
00000010
00000001
00000010
00000100
00001000
00000001
00000100
,
00000000
00000000
00001000
00000000
00010000
00000000
00000000
00000000
00010000
00001000
00010000
00001000
00010000
00000000
00000000
00000000
,
00011000
00000000
00001000
00010000
01000000
00000000
00100000
00010000
,
10000000
01000000
00010000
01000000
00000000
10000000
00000000
00000000
,
10010000
00000000
00010000
10000000
00100000
00000000
00010000
00001000
,
00000100
00000010
00001000
00000001
00000000
00000010
00000000
00001000
,
00010000
00000000
00001000
00000000
00000010
00000100
00001000
00000001
,
00000100
00000001
00001000
00000100
00000010
00000100
00010000
00001000
,
00000000
01000000
00100000
10000000
01000000
00100000
01000000
10000000
,
00000000
00000000
10000000
00000000
00010000
00000000
00000000
00000000
01000000
00100000
01000000
00100000
01000000
00000000
00000000
00000000
,
01100000
00000000
10000000
01000000
00010000
00000000
00001000
00010000
00000000
00000100
00000000
00000010
00000100
00000000
00000000
00010000
,
00001000
00000000
00001100
00000000
00000001
00000100
00000010
00001000
00000000
00000100
00000000
00010000
00001000
00000000
00000000
00000000
,
00011000
00000000
00001000
00000000
00010000
00000000
00100000
01000000
00000000
00010000
00000000
10000000
01000000
00000000
00000000
00100000
,
01000000
00000000
00010000
00001000
00000010
00000100
00000010
00000001
00000000
00001000
00000000
00000001
00000100
00000000
00000110
00000000
,
00001001
00000000
00000001
00000100
00000010
00000000
00001000
00000100
00000000
00010000
00000000
00001000
00010000
00000000
00001000
00100000
,
01000000
00000000
00100000
00010000
00100000
01000000
10000000
01000000
00000000
00010000
00000000
00001000
00000000
00000100
00000000
00000001
,
00001000
00000000
00001001
00000000
00000001
00000000
00000010
00001000
00020000
00000000
00000000
00230000
00000000
00000000
20300000
00000000
,
30010000
10000000
00010000
10000000
01000000
00000000
00100000
00010000
,
01000000
00001000
00000000
00000100
00000000
00000010
00000000
00000000
,
00001000
00000000
00000001
00000010
00000100
00000000
00010000
00001000
,
00100000
00000000
00010000
00000000
10000000
00000000
01000000
00000000
00100000
01000000
00100000
01000000
00100000
01000000
00100000
01000000
,
00000000
00000000
10000000
00100000
00010000
00001000
00010000
00000000
,
00000010
00000100
00000000
00000001
00001000
00000100
00000010
00000000
,
00000001
00000000
00000100
00000001
00000100
00000000
00000010
00000000
00000100
00000000
00000001
00000000
00001000
00000000
00000000
00000000
,
00000001
00000100
00000000
00001000
00010000
01000000
00000000
10000000
,
00010000
01000000
01100000
00000000
10010000
00000000
10000000
01000000
,
00100000
00000000
00001000
00000000
00010000
00000000
00000000
00000000
00011000
00000000
00000000
00000000
00010000
00000000
00000000
00001000
,
00000000
00000010
00000002
00000000
00000000
00001000
00002000
00000000
,
00003003
00000000
00000000
00000000
00000001
00000000
00000010
00000000
00000100
00000010
00000100
00000000
00010000
00000000
00001000
00010000
,
00001000
00010000
00001000
00100000
00001000
00010000
00200000
00000000
,
01300000
00010000
20000000
01000000
31000000
00100000
00010000
00000000
,
01000000
00001000
00020000
00001000
00031000
00010000
00000010
00000000
,
00010000
00001000
00000100
00000001
00001000
00000100
00000010
00000001
,
00001001
00000000
00000110
00000000
00001001
00000000
00000001
00000010
,
00001000
00010000
00001000
00000000
00010000
00001000
00010000
00100000
,
01000000
00010000
10000000
00000000
01000000
00100000
00000000
01100000
,
00000000
00000000
00100000
00000000
00001000
00000000
00000000
00000000
00011000
00000000
00000000
00000000
00010000
00000000
00000000
00000010
,
00000000
00001000
00000001
00000000
00001000
00000100
00000000
00000001
,
00000100
00000000
00000010
00000000
00000001
00000200
00000000
00002300
,
00000000
00023000
00000000
01030000
00100000
00000000
00010000
10000000
,
00100000
00000000
01000000
00000000
00000000
00000000
00010000
00000000
10000000
00000000
00000000
00000000
00010000
10000000
00010000
10000000
,
00010000
11000000
01010000
00011000
,
00001100
00000101
00000110
00002002
,
00003003
00000000
00000000
00000000
00000010
00001000
00000010
00000000
00010000
00001000
00010000
00000000
00001000
00100000
00001000
00000000
,
01000000
00100000
01000000
00000000
00010000
00000000
10000000
00000000
01000000
00000000
00010000
00000000
00000000
00000000
00001000
00000000
,
00000000
00000010
00000011
00000000
00001010
00000000
00011000
00000000
,
00110000
10100000
01100000
20020000
,
30030000
00000000
00000000
00000000
00010000
00100000
00010000
00000000
10000000
00100000
10000000
00000000
00010000
01000000
00010000
00000000
,
00100000
00001000
00100000
00000000
00001000
00010000
00001000
00010000
00001000
00010000
00001000
00010000
00001000
00000000
00000000
00000000
,
00001100
00000000
00000100
00000110
00000000
00010000
00011000
00000000
,
00100000
00110000
00000000
00001000
00001010
00000000
00010000
00000000
,
01100000
00000000
00010000
00001000
00000100
00000002
00000000
00000000
,
00000000
00000003
00000000
00000000
;

//--------------- dance-double - Fred-104 ----------------
#NOTES:
     dance-double:
     Fred-104:
     Challenge:
     16:
     :
00000000
00000000
00000000
00000000
,
00000000
00000000
00000000
00000000
,
00010000
00000000
00001000
00000000
00000010
00000000
00000100
00000000
00001000
00000000
00000000
00000000
00000001
00000000
00000100
00000000
00000000
00000000
00000010
00000000
00000100
00000000
00001000
00000000
00010000
00000000
00000000
00000000
00100000
00000000
01000000
00010000
,
01000000
00000000
00100000
00000000
10000000
00000000
00010000
00000000
00100000
00000000
00000000
00000000
01000000
00000000
10000000
00000000
00000000
00000000
00100000
00000000
00000000
00000000
00010000
00000000
00000000
00000000
00001000
00000000
00010000
00000000
00000010
00010000
,
00000010
00000000
00001000
00000001
00000010
00000000
00000001
00001000
00000100
00000000
00000010
00000001
00000000
00000100
00001000
00000000
,
00010000
00000000
00100000
00000000
01000000
00000000
00010000
00000000
00100000
00000000
01000000
00000000
10000000
00000000
00010000
00000000
01000000
00000000
01000000
00000000
00100000
10000000
00100000
00000000
10000000
00010000
10000000
00010000
10000000
00000000
00000000
00000000
,
10010000
00000000
00000000
00000000
10000000
00000000
01000000
00000000
00100000
00000000
00001000
00010000
00001000
00000000
01000000
00000000
,
00001000
00010000
00000100
00001000
00000001
00000100
00000110
00000000
,
00000001
00000100
00000001
00000000
00001000
00000100
00001000
00000000
00000010
00010000
00000010
00000000
00010000
00001000
00010000
00001000
,
00010000
00001000
00100000
00110000
00000000
10100000
00000000
00110000
,
10010000
00000000
00000000
00000000
10000000
00000000
01000000
00000000
00100000
00000000
00001000
00010000
00001000
00000000
00010000
00000000
,
00100000
01000000
00001000
00010000
00001000
00000010
00000100
00000000
,
00000010
00000001
00001000
00000000
00000010
00000100
00000001
00000000
00001000
00000100
00001000
00000100
00010000
00001000
00010000
00001000
,
00100000
00000000
00001000
00000000
00010000
00000000
00001000
00000000
00000010
00000100
00001000
00000100
00010000
00000000
00000000
00000000
,
00001001
00000000
00000000
00000000
,
00000001
00000100
00001000
00010000
01000000
00100000
00010000
10000000
,
00100000
00010000
00001000
00000010
00000100
00010000
00001000
00000000
,
00010000
00001000
00000100
00000010
00001000
00000001
00000100
00001000
,
00010000
01000000
00100000
00010000
10000000
01000000
00010000
00001000
,
00010000
00000000
00000000
00000000
00011000
00000000
00000000
00000000
00010000
00000000
00000010
00001000
00000010
00000000
00000100
00000000
,
00000001
00000000
00000010
00000100
00000010
00000000
00000001
00000000
00001000
00000000
00000100
00010000
00000100
00000000
00001000
00000000
,
00000010
00000000
00010000
00001000
00010000
00000000
00100000
00000000
01000000
00000000
00010000
10000000
00010000
00000000
00100000
00000000
,
01000000
00000000
00100000
00001000
00010000
00000000
00001000
00000000
00000100
00000010
00001000
00000001
00001000
00000000
00000001
00000000
,
00000100
00000010
00000100
00001000
00010000
00100000
10000000
00010000
,
00100000
01000000
00010000
00001000
00000010
00000100
00001000
00000000
,
00000001
00000100
00000010
00000100
00001000
00010000
00100000
01000000
,
00010000
10000000
01000000
00010000
00001000
00010000
00100000
00010000
,
00001000
00000000
00000000
00000000
00011000
00000000
00000000
00000000
00010000
00000000
00001000
00000100
00000010
00000000
00001000
00000000
,
00000001
00000000
00000100
00000010
00001000
00000000
00000001
00000000
00000100
00000000
00000010
00000100
00001000
00000000
00010000
00000000
,
00100000
00000000
01000000
00010000
10000000
00000000
01000000
00100000
00010000
00000000
00100000
00001000
00010000
00000000
00000010
00001000
,
00000001
00000000
00000010
00000100
00001000
00000000
00000100
00010000
00001000
00010000
00001000
00010000
00001000
00000000
00000000
00000000
,
00011000
00000000
00010000
00001000
00000100
00000000
00000001
00001000
00000000
00000100
00000010
00000001
00000010
00000000
00000100
00010000
,
00001000
00000000
01000000
00000000
00001000
00000000
00010000
00100000
00000000
01000000
00001000
00010000
00100000
00000000
10000000
00000000
,
00010000
00000000
10000000
01000000
00100000
00000000
00001000
00010000
00000000
00100000
01000000
00001000
00010000
00000000
00001000
00000100
,
00000010
00000000
00001000
00000100
00000010
00000001
00000010
00001000
00000000
00010000
01000000
10000000
01000000
00100000
00010000
00000000
,
10010000
00000000
10000000
00100000
01100000
00000000
01000000
01001000
00000000
00001000
00010000
00000010
00001010
00000000
00001000
00000100
,
00000110
00000000
00000010
00000001
00001001
00001000
00000100
00010000
00000000
00010010
00000000
00010000
00011000
00001000
00000000
00100000
,
00110000
00000000
00010000
10000000
00100000
00010000
00001000
00000100
00000010
00001000
00000001
00000010
00001000
00010000
00001000
00000000
,
00010000
00001000
00000100
00000001
00001000
00000000
00000100
00000010
,
00001000
00010000
01000000
00100000
00010000
10000000
00100000
00000000
,
10000000
01000000
10000000
00000000
00010000
01000000
00010000
00000000
00100000
00001000
00100000
00000000
00001000
00010000
00001000
00000000
,
00010000
00000010
00010000
00000010
00001000
00000001
00001000
00000001
00000010
00000100
00001000
00000100
00010000
00001000
00010000
00001000
,
00000000
MMMMMMMM
00000000
00000000
00000000
00000000
00000000
00000000
00000000
00000000
00000000
00000000
00000000
00000000
00000000
00000000
00000000
00000000
00000000
00000000
00000000
00000000
00000000
00000000
00000000
00000000
00000000
00000000
00000000
00000000
00000000
00000000
00000000
00000000
00000000
00000000
00000000
00000000
00000000
00000000
00000000
00000000
00000000
00000000
00000000
00000000
00000000
00000000
00010000
00000000
00000000
00000000
00000000
00000000
00000000
00000000
00000000
00000000
00000000
00000000
00000000
00000000
00000000
00000000
00000000
00000000
00000000
00000000
00000000
00000000
00000000
00000000
00000010
00000000
00000000
00000000
00000000
00000000
00000000
00000000
00000000
00000000
00000000
00000000
00001000
00000000
00000000
00000000
00000000
00000000
00000000
00000000
00000000
00000000
00000000
00000000
00000010
00000000
00000000
00000000
00000000
00000000
00000000
00000000
00000000
00000000
00000000
00000000
00000000
00000000
00000000
00000000
00000000
00000000
00000000
00000000
00000000
00000000
00000000
00000000
00010000
00000000
00000000
00000000
00000000
00000000
00000000
00000000
00000000
00000000
00000000
00000000
00000000
00000000
00000000
00000000
00000000
00000000
00000000
00000000
00000000
00000000
00000000
00000000
00001000
00000000
00000000
00000000
00000000
00000000
00000000
00000000
00000000
00000000
00000000
00000000
00000000
00000000
00000000
00000000
00000000
00000000
00000000
00000000
00000000
00000000
00000000
00000000
00000000
00000000
00000000
00000000
00000000
00000000
00000000
00000000
00000000
00000000
00000000
00000000
00000000
00000000
00000000
00000000
00000000
00000000
00000000
00000000
00000000
00000000
00000000
00000000
,
00100000
00000000
00010000
00000000
10000000
00000000
00010000
00100000
00010000
00000000
01000000
00000000
01100000
00000000
00000000
00000000
,
00100000
10000000
00100000
10000000
00010000
00000000
10000000
01000000
10000000
00000000
01000000
00000000
00100000
00000000
00000000
00000000
,
00001000
00000000
00010000
00001000
00010000
00000000
00000010
00001000
00000010
00001000
00000001
00000000
00000010
00000000
00000100
00000000
,
00010000
00001000
00011000
00000000
00010010
00000000
00010000
00001000
,
00000100
00000000
00000010
00000000
00001000
00000000
00000001
00000000
00000010
00000000
00000100
00000000
00010000
00001000
00000000
00010000
,
00100000
01000000
00010000
00000000
00100000
01000000
00010000
00001000
,
00010000
01000000
10000000
00000000
00010000
00000000
10000000
00010000
01000000
00010000
10000000
00000000
01000000
00100000
00010000
00100000
,
00001000
00000000
00010000
00000000
00000010
00001000
00000010
00000100
00000001
00000000
00000010
00000000
00000110
00000000
00000000
00000000
,
00001000
00000000
00000001
00000000
00001000
00000000
00000010
00010000
00001000
00000000
00100000
00010000
10000000
00000000
00010000
00000000
,
01000000
00000000
00100000
00000000
01000000
00010000
10000000
00010000
00100000
00000000
01000000
00000000
10000000
00010000
01000000
00000000
,
00100000
00000000
10000000
00000000
00010000
00000000
10000000
01000000
00100000
00001000
00010000
00000000
00000100
00000000
00001000
00000000
,
00000100
00000010
00000100
00000010
00000001
00000000
00000000
00000000
00001001
00000000
00000000
00000000
00000001
00000000
00000100
00001000
,
00000100
00000000
00000010
00000000
00001000
00000000
00000001
00000010
00000100
00000000
00010000
00000000
00001000
00000000
00000100
00000000
,
00000010
00000000
00010000
00000000
00001000
00000000
00010000
00100000
01000000
00000000
00010000
00000000
10000000
00000000
01000000
00100000
,
00010000
00000000
10000000
00000000
11000000
00000000
MMMM0000
00000000
00011000
00000000
0000MMMM
00000000
00010010
00000000
00000000
00001010
,
00000000
00000000
00000011
00000000
00000110
00000000
00000000
00000000
00000001
00000000
00001000
00000001
00000010
00000000
00000100
00000000
,
00010000
00001000
00000100
00000010
00001000
00000100
00000010
00000001
,
00000100
00001000
00010000
00100000
01000000
00001000
00010000
01000000
,
00100000
00000000
00010000
00000000
00100000
00000000
10000000
00000000
00100000
00000000
01000000
00000000
10000000
00100000
01000000
00010000
,
10000000
01000000
00100000
00000000
00110000
00000000
00100000
00000000
00101000
00000000
00001000
00000000
00011000
00000000
00010000
00000000
,
00000010
00001000
00000010
00001000
00000001
00000000
00000010
00000100
00000010
00000000
00000001
00000000
00002002
00000000
00000000
00000000
,
MMMM0000
00000000
00003003
00000000
00000001
00000100
00000001
00000000
00001000
00000100
00001000
00000000
00000001
00000010
00000001
00000000
,
00001000
00000100
00001000
00000100
00010000
00000000
00001000
00010000
00001000
00000000
00011000
00000000
00000000
00000000
00010010
00000000
,
00000000
00011000
00010100
00010000
00011000
00001000
01001000
01000000
,
00010000
00100000
01000000
10000000
00010000
00000000
01000000
00100000
10000000
00000000
01000000
00000000
02200000
00000000
00000000
00000000
,
0000MMMM
00000000
03300000
00000000
10000000
00100000
10000000
00100000
01000000
00010000
01000000
00010000
00100000
00001000
00100000
00001000
,
00010000
00000100
00010000
00000100
00001000
00000001
00000010
00000100
00001000
00000010
00000100
00000001
00000010
00000000
00000000
00000000
,
00001001
00000000
00000011
00001010
00000000
00011000
00110000
00000000
,
10100000
11000000
00000000
01010000
00011000
00000000
00001100
00000000
,
00000101
00000000
00000001
00001000
00010000
20000000
00000000
00000000
,
00000000
3000MMMM
00000000
00000000
;
