#TITLE:Alive A life;
#ARTIST:Rica Matsumoto;
#MUSIC:Alive A life.ogg;
#BANNER:Alive A life.png;
#BACKGROUND:Alive A life-bg.png;
#SAMPLESTART:30.927;
#SAMPLELENGTH:15;
#OFFSET:-0.066;
#BPMS:0=139.982;
#DISPLAYBPM:139;
#BGSTAGE:16;

//--------------- dance-single - XLev450X-bSP ----------------
#NOTES:
     dance-single:
     XLev450X:
     Beginner:
     2:
     0,0,0,0,0:
0000
0000
0000
0000
,
0000
0000
0000
0000
,
0001
0000
0001
0000
,
0001
0000
0000
0000
,
1000
0000
1000
0000
,
1000
0000
0000
0000
,
0001
0000
1000
0000
,
0001
0000
0000
0000
,
1000
0000
0001
0000
,
1000
0000
0000
0000
,
0010
0000
0100
0000
,
0010
0000
0000
0000
,
0010
0000
0100
0000
,
0010
0000
0000
0000
,
1000
0000
0100
0000
,
1000
0000
0000
0000
,
0001
0000
0010
0000
,
0001
0000
0000
0000
,
1001
0000
0000
0000
,
0000
0000
0000
0000
,
1001
0000
0000
0000
,
0000
0000
0000
0000
,
0010
0010
0010
0000
,
0001
0001
0001
0000
,
1000
1000
1000
0000
,
0100
0100
0100
0000
,
0110
0000
0000
0000
,
0000
0000
0000
0000
,
0110
0000
0000
0000
,
0000
0000
0000
0000
,
1000
1000
1000
0000
,
0100
0100
0100
0000
,
0010
0010
0010
0000
,
0001
0001
0001
0000
,
1001
0000
0000
0000
,
0000
0000
0000
0000
,
0001
0000
1000
0000
,
0001
0000
1000
0000
,
1001
0000
0000
0000
;

//--------------- dance-single - XLev450X-BSP ----------------
#NOTES:
     dance-single:
     XLev450X:
     Easy:
     5:
     0,0,0,0,0:
0000
0000
0000
0000
,
0000
0000
0000
0000
,
0001
0000
1000
0000
,
0001
0000
0010
0000
,
0100
0000
0010
0000
,
0100
0000
0000
0000
,
0001
0000
1000
0000
,
0001
0000
0100
0000
,
1000
0100
1000
0000
,
0001
0010
0001
0000
,
1000
0000
0001
0000
,
0100
0000
0010
0000
,
1000
0010
1000
0000
,
0001
0100
0001
0000
,
1000
0001
1000
0010
,
1000
0000
0100
0001
,
0100
0001
0100
0000
,
1000
0001
1000
0000
,
0001
1000
0100
0010
,
1000
0100
0001
0010
,
1000
0100
1000
0001
,
0100
0010
1000
0000
,
0010
0001
1000
0100
,
0001
0010
0100
0000
,
1000
0100
1000
0001
,
0010
0100
1000
0000
,
0001
1000
0100
0001
,
1000
0000
0010
0000
0001
0010
0001
0000
,
1000
0100
1000
0001
,
1000
0010
1000
0000
0001
0000
1000
0000
,
0001
0000
0100
1000
,
0100
0000
0001
0010
,
1000
0100
1000
0001
,
1000
0001
1000
0000
0010
0100
0010
0000
,
0002
1000
0000
1000
,
0000
1000
0000
1003
,
0001
0000
1000
0000
0001
0010
0001
0000
,
1000
0000
0010
0000
1000
0010
1000
0000
,
2002
0000
0000
0000
,
0000
0000
0000
0000
,
0000
0000
0000
0000
,
3003
0000
0000
0000
;

//--------------- dance-single - XLev450X-DSP ----------------
#NOTES:
     dance-single:
     XLev450X:
     Medium:
     8:
     0,0,0,0,0:
0000
0000
0000
0000
,
0000
0000
0000
0000
,
0001
0000
1000
0000
0010
1000
0010
0000
,
0100
0000
0001
0000
0001
0010
0001
0000
,
1000
0000
0100
0000
1000
0010
1000
0000
,
0001
0000
0100
0000
1000
0001
1000
0000
,
0001
1000
0010
1000
,
0100
1000
0001
0100
,
0001
0010
0001
0000
1000
0100
1000
0000
,
0001
1000
0010
0100
,
0001
0000
1000
0000
0001
1000
0001
0000
,
0010
0000
1000
0000
0010
1000
0010
0000
,
0100
0001
1000
0001
,
0001
0010
0001
0000
1000
0001
1000
0000
,
0001
1000
0100
0001
,
1000
0010
0100
0000
,
0001
0010
1000
0100
,
1000
0001
1000
1001
0000
0000
0000
0000
,
0001
1000
0100
0010
,
1000
0000
0100
0000
1000
0010
1000
0000
,
0100
0001
1000
0100
,
1000
0000
0001
0000
1000
0001
1000
0000
,
0010
0000
0100
0000
0001
0010
0001
0000
,
1000
0000
0100
0000
1000
0010
1000
0000
,
0100
0001
0100
0010
,
1000
0010
1000
0000
0001
0100
0001
0000
,
1000
0100
1000
0001
,
0100
0000
0010
0000
0100
0010
0100
0000
,
1000
0001
0100
1000
,
0010
0000
1000
0000
0001
0010
0001
0000
,
1000
0000
0100
0000
0010
1000
0010
0000
,
0100
0000
1000
0000
0001
1000
0001
0000
,
0100
1000
0001
0010
,
0001
0010
0001
0000
1000
0010
1000
0000
,
0002
1000
1000
1000
,
1000
0000
1000
0000
1000
1000
1000
1003
,
0010
1000
0100
0001
,
0001
0000
1000
0000
0001
1000
0001
1000
,
2002
0000
0000
0000
,
0000
0000
0000
0000
,
0000
0000
0000
0000
,
3003
0000
0000
0000
0000
0000
0000
0000
0000
0000
0000
0000
0000
0000
0000
0000
0000
0000
0000
0000
0000
0000
0000
0000
0000
0000
0000
0000
0000
0000
0000
0000
0000
0000
0000
0000
0000
0000
0000
0000
0000
0000
0000
0000
0000
0000
0000
0000
0000
0000
0000
0000
0000
0000
0000
0000
0000
0000
0000
0000
0000
0000
0000
0000
0000
0000
0000
0000
0000
0000
0000
0000
0000
0000
0000
0000
0000
0000
0000
0000
0000
0000
0000
0000
0000
0000
0000
0000
0000
0000
0000
0000
0000
0000
0000
0000
;

//--------------- dance-single - XLev450X-ESP ----------------
#NOTES:
     dance-single:
     XLev450X:
     Hard:
     13:
     0,0,0,0,0:
0000
0000
0000
0000
,
0000
0000
0000
0000
,
1001
0000
0010
0001
0010
0000
1000
0100
0000
0000
1000
0010
1000
0000
0001
0010
,
0000
0000
0001
0010
0001
0000
1000
0010
0000
0000
0001
1000
0001
0000
0000
0000
,
0110
0000
1000
0010
1000
0000
0001
0100
0000
0000
0100
0001
0100
0000
0001
1000
,
0000
0000
0010
1000
0010
0001
0010
0100
1000
0100
0010
0001
0010
0100
1000
0100
,
0001
0000
1000
0000
0010
0000
0001
0100
0000
0000
0100
0000
1000
0000
0100
0010
,
0002
0000
2003
0000
3010
0000
0010
0100
2000
0000
3100
0010
0001
0000
1000
0000
,
0010
0000
0000
0001
0010
0000
0000
0100
1000
0000
0000
0100
0001
0000
0001
1000
,
0001
0000
0010
1000
0000
0100
0000
0010
0000
0000
0001
0000
2000
0000
3000
0000
,
0001
0000
1000
0000
0010
0000
1000
0010
0000
0000
0001
0000
0010
0000
2000
0000
,
0000
3002
0000
0203
0000
1300
0010
1000
,
0002
0000
0000
0000
0100
0000
0100
0000
0103
0000
1000
0000
0001
0000
0001
0010
,
0001
0000
1000
0000
0010
0100
0000
0020
0100
0000
0100
0000
0100
0000
0130
0000
,
0001
1000
0010
0100
0000
1000
0100
1000
,
0000
0001
0010
0100
1000
0001
0010
0100
,
1000
0000
0001
0000
0010
0100
1000
0000
,
0001
0000
0010
0000
1000
0000
0001
1000
0001
0000
0000
0000
1000
0000
1000
0000
,
0001
1000
0100
1000
0000
0010
0001
0010
,
0000
1000
0100
1000
0001
0000
0101
0000
,
0010
1000
0100
1000
0000
0010
0100
1000
,
0000
0001
0010
1000
0100
1000
0001
0010
,
1000
0000
0101
0000
1000
0010
1000
0100
,
1000
0000
1010
0000
0010
0100
1000
0000
,
0001
0000
0100
0000
1000
0010
1000
0000
,
0001
1000
0100
1000
0001
0010
1000
0000
,
0001
0000
0100
0000
0010
1000
0010
0000
,
0001
0000
1000
0000
0001
1000
0010
1000
,
0100
0000
0001
0000
1000
0100
0010
0000
,
1000
0000
0001
0000
0010
0001
0010
1000
,
0100
0000
0001
0000
1000
0100
1000
0000
,
0001
0000
0010
0000
0100
0010
0100
0000
,
1000
0000
0001
0000
0100
1000
0001
0000
,
1000
0010
0100
1000
0001
0010
0100
1000
,
0210
0010
0010
0010
,
0010
0000
0010
0000
0010
0000
0010
0300
,
0001
0000
0010
0001
0010
0000
1000
0001
0000
0000
1000
0010
1000
0000
0001
1000
,
0000
0000
0001
0010
0001
0000
1000
0010
0000
0000
1000
0001
1000
0000
0010
0000
,
2002
0000
0000
0000
,
0000
0000
0000
0000
,
0000
0000
0000
0000
,
3003
0000
0000
0000
;
