#TITLE:Addicted To You;
#ARTIST:Avicii;
#GENRE:ELECTRONIC;
#MUSIC:Addicted To You.ogg;
#BANNER:Addicted To You.png;
#BACKGROUND:Addicted To You-bg.png;
#SAMPLESTART:51.381;
#SAMPLELENGTH:15;
#OFFSET:-0.288;
#BPMS:0=128;
#BGSTAGE:1;

//--------------- dance-single - XLev450X-bSP ----------------
#NOTES:
     dance-single:
     XLev450X:
     Beginner:
     3:
     0,0,0,0,0:
0000
0000
0000
0000
,
0000
0000
0000
0000
,
0001
0000
0000
0000
,
0010
0000
0000
0000
,
1000
0000
0000
0000
,
0100
0000
0000
0000
,
0010
0000
0000
0000
,
0001
0000
0000
0000
,
1000
0000
0000
0000
,
0001
0000
0000
0000
,
0000
0000
0000
0000
,
0010
0000
0010
0000
,
0010
0000
0000
0000
,
1000
0000
1000
0000
,
1000
0000
0000
0000
,
0001
0000
0001
0000
,
0001
0000
0000
0000
,
0100
0000
0100
0000
,
0100
0000
0000
0000
,
1001
0000
0000
0000
,
0000
0000
0000
0000
,
0001
0000
0001
0000
,
0010
0000
0010
0000
,
0100
0000
0100
0000
,
1000
0000
1000
0000
,
0001
0000
1000
0000
,
0001
0000
1000
0000
,
1001
0000
0000
0000
,
0001
0001
0010
1000
,
0100
0010
0001
0000
,
0010
0010
0100
0000
,
1000
1000
0100
0010
,
0001
0010
0100
0000
,
0010
1000
0010
0000
,
0001
0010
0001
0000
,
0100
1000
0100
0000
,
0010
0100
0010
0000
,
0000
0000
0000
0000
,
1001
0000
0000
0000
;

//--------------- dance-single - XLev450X-BSP ----------------
#NOTES:
     dance-single:
     XLev450X:
     Easy:
     5:
     0,0,0,0,0:
0000
0000
0000
0000
,
0000
0000
0000
0000
,
0001
0000
1000
0000
,
0001
0100
0010
0000
,
1000
0000
0010
1000
,
0010
0000
0000
0000
,
0001
0000
1000
0001
,
0100
0000
0010
1000
,
0001
0000
1000
0001
,
1000
0000
2002
0000
,
0000
3003
0000
0000
,
0010
0000
0100
0000
,
0001
0100
1000
0000
,
0010
0000
1000
0000
,
0100
0001
0100
0000
,
1000
0000
0001
0000
,
1000
0010
0010
0000
,
1000
0000
0100
0000
,
0001
0000
1000
0000
,
0001
0001
1000
0000
,
0100
0100
0010
0000
,
0001
0010
0100
1000
,
0001
1000
0010
0000
,
0010
0010
0100
0000
,
0001
0010
0100
0000
,
1000
0001
1000
0000
,
0010
1000
0010
0000
0001
0000
0100
0000
,
2002
0000
0000
3003
,
0001
1000
0001
0010
,
1000
0100
0001
0000
,
0010
0100
1000
0001
,
1000
0000
0100
0000
0010
0100
0010
0000
,
0001
1000
0100
1000
,
0001
0010
0100
0000
,
0001
0100
0001
0000
0010
1000
0010
0000
,
0010
0100
0010
0000
0001
0000
1000
0000
,
0001
1000
0001
0000
0010
1000
0010
0000
,
0001
0000
1000
0001
,
2002
0000
0000
0000
,
3003
0000
0000
0000
;

//--------------- dance-single - XLev450X-DSP ----------------
#NOTES:
     dance-single:
     XLev450X:
     Medium:
     7:
     0,0,0,0,0:
0000
0000
0000
0000
,
0000
0000
0000
0000
,
0001
0000
0010
0000
,
1000
0100
0010
0000
,
0001
0000
1000
0001
,
0100
0000
0000
0000
,
0010
0000
0001
1000
,
0010
0000
1000
0100
,
0010
0000
0001
0100
,
2002
3003
2002
0000
,
0000
3003
0000
0000
,
0000
0001
1000
0010
,
0000
0100
0001
0100
,
1000
0001
0000
0010
,
1000
0100
0010
0001
,
0100
0000
0001
1000
,
0001
0001
1000
0100
,
0010
0000
0001
0100
,
1000
0000
0001
1000
,
0010
0000
0100
0000
,
0001
0010
0001
1000
,
0001
0000
1000
0001
,
0010
0000
1000
0100
,
0010
0100
0010
0000
0001
0010
0001
0000
,
0100
1000
0100
0000
0001
0000
1000
0000
,
0001
1000
0001
0000
0010
0000
1000
0000
,
0100
0001
0010
0000
0100
0000
1000
0000
,
2002
0000
0000
3003
,
0001
0000
1000
0000
0100
0000
0010
0001
,
0010
0000
0010
0000
1000
0010
0100
0010
,
0001
0000
0010
0000
1000
0001
1000
0000
,
0001
1000
0010
0000
0010
0100
0010
0000
,
0001
0000
0010
0000
1000
0100
1000
0000
,
0010
0000
0001
0000
1000
0100
0001
0010
,
0100
0000
1000
0000
0010
1000
0010
0000
,
0010
0001
0010
0000
0100
0010
0100
0000
,
1000
0000
0001
0000
0010
1000
0100
0010
,
0001
0000
0000
0000
0001
1000
0002
0000
,
1000
1000
1000
1000
,
1003
0000
0000
0000
;

//--------------- dance-single - XLev450X-ESP ----------------
#NOTES:
     dance-single:
     XLev450X:
     Hard:
     9:
     0,0,0,0,0:
0000
0000
0000
0000
,
0000
0000
0000
0000
,
0001
1000
0001
0010
,
0100
1000
0001
0100
,
1000
0010
0100
0001
,
0010
0000
0100
0000
1000
0001
1000
0000
,
0010
1000
0100
0010
,
0001
0010
0001
0000
0100
1000
0100
0000
,
0001
1000
0010
0100
,
0002
1000
1000
1000
,
1000
1000
1000
1003
,
0010
0000
0100
0000
0001
0100
0001
0000
,
0010
1000
0010
0000
0100
0010
0100
0000
,
0001
0010
1000
0001
,
0100
1000
0001
0000
,
1000
0010
0100
0001
,
0100
0001
0100
0000
0010
1000
0010
0000
,
0100
1000
0001
0010
,
1000
0100
0010
0000
,
0001
1000
0010
0000
,
1000
0100
0001
0000
,
0001
1000
0100
1000
,
0001
0100
1000
0010
,
0100
0000
1000
0000
0010
0100
0010
0000
,
0001
0000
1000
0000
0001
1000
0001
0000
,
0010
1000
0010
0000
0100
0001
0100
0000
,
1002
1000
1000
1003
,
0002
2000
0000
0000
0000
0000
0000
0000
0000
0000
0000
0000
3003
0000
0000
0000
,
0001
1000
0010
1000
0010
0100
0010
0000
,
0001
0010
0001
0000
0100
1000
0100
0000
,
0001
1000
0010
0100
0010
0001
0100
0000
,
0001
0000
0100
0000
1000
0001
1000
0010
,
1000
0000
0001
0000
0100
0010
0100
0000
,
0001
0010
0001
0000
1000
0001
1000
0000
,
0010
1000
0010
0100
0000
0001
0100
0001
,
0000
0010
1000
0010
0000
0100
1000
0100
,
0000
0001
0010
0100
0000
0001
1000
0010
,
0100
0000
0000
0000
,
1002
1000
1000
1000
,
1003
0000
0000
0000
;

//--------------- dance-single - XLev450X-CSP ----------------
#NOTES:
     dance-single:
     XLev450X:
     Challenge:
     12:
     0,0,0,0,0:
0000
0000
0000
0000
,
0000
0000
0000
0000
,
0000
0000
0001
1000
0000
0010
0000
0100
,
0000
0000
0000
0000
0001
0000
0000
0000
0000
0000
0000
1000
0000
0000
0000
0001
0000
0000
0000
0000
0000
0100
0000
0000
0000
0000
0000
0000
0000
0000
0000
0000
,
0001
0000
0000
0000
1000
0000
0000
0010
0000
0000
0000
0100
0000
0000
0001
0000
,
0000
0000
0000
0000
0000
1000
0000
0000
0000
0000
0000
0000
0000
0000
0000
0000
0001
0000
0000
0000
0000
0000
0000
0000
0100
0000
0000
0000
0000
0000
0000
0000
,
0010
0000
0000
0000
1000
0000
0000
0001
0000
0000
0000
0100
0000
0000
0010
0000
,
0000
1000
0000
0000
0000
0000
0000
0000
0001
0000
0000
0000
0000
0000
0100
0000
0000
0000
0000
0000
0000
0010
0000
0000
0000
0000
0000
0000
0000
1000
0000
0000
,
0000
0000
0000
0000
0000
0000
0000
0000
0000
0000
0000
0000
0000
0001
0000
0000
0000
1000
0000
0000
0000
0000
0010
0000
0000
0000
0000
0000
0000
0200
0000
0000
,
0000
0000
0000
0000
0000
0000
0000
0000
0000
0000
0000
0000
0000
0002
0000
0000
0000
0000
0000
0000
0000
0000
0000
0000
0000
0000
0000
0000
0000
0000
0000
0000
,
0000
0303
0000
0000
,
0001
0000
0000
0000
0000
0000
0000
0000
0000
1000
0000
0000
0000
0000
0010
0000
0000
0000
0000
0000
0000
0100
0000
0000
0000
0000
0000
0000
0000
0001
0000
0000
,
0000
0000
0000
0000
0000
1000
0000
0000
0000
0000
0000
0000
0010
0000
0000
0000
0100
0000
0000
0000
0000
0001
0000
0000
0000
0000
0000
0000
0000
0000
0000
0000
,
0000
1000
0000
0000
0000
0000
0000
0000
0001
0000
0000
0000
0000
0100
0000
0000
0000
0000
0000
0000
0010
0000
0000
0000
0000
0000
0000
0000
1000
0000
0000
0000
,
0001
0100
0010
1000
,
0001
0000
0000
0000
0000
0000
0000
0000
0100
0000
0000
0000
1000
0000
0000
0000
0001
0000
0000
0000
1000
0000
0000
0000
0000
0010
0000
0000
0000
0000
0100
0000
,
0000
0000
0000
0000
0000
0001
0000
0000
0000
0000
0000
0000
0000
1000
0000
0000
0000
0000
0000
0000
0000
0010
0000
0000
0100
0000
0000
0000
0000
0000
0000
0000
,
0002
0000
0000
0000
0000
0000
0000
0000
0003
0000
0000
0000
1000
0000
0000
0000
0010
0000
0000
0000
0000
0100
0000
0000
0000
0000
0000
0000
0000
0001
0000
0000
,
0000
2000
0000
0000
0000
0000
0000
0000
0000
0000
0000
0000
0000
0002
0000
0000
0000
0000
0000
0000
0000
0000
0000
0000
0000
0000
0000
0000
0000
0000
0000
0000
,
3003
0000
0001
0000
1000
0010
0000
0100
,
0001
0000
0000
0000
0000
0000
0000
0000
1000
0000
0000
0000
0020
0000
0000
0000
0000
0000
0000
0000
0000
0000
0000
0030
0000
0000
0000
0000
0001
0000
0000
0000
,
2000
0000
0000
0002
0000
0000
3003
0000
0001
0000
0000
1000
0000
0000
0100
0000
,
0002
1000
1000
1000
,
1003
0000
0000
0000
0000
0000
0000
0100
0000
0000
0000
0000
0001
0000
0000
0000
0000
0000
0000
0000
0000
0000
0000
1000
0000
0000
0000
0000
0010
0000
0000
0000
,
0000
0000
0100
0000
0000
0000
0000
0000
0001
0000
0000
0000
0000
1000
0000
0000
0000
0000
0010
0000
0000
0000
0000
0000
0000
0000
0000
0000
0100
0000
0000
0000
,
0002
0000
0000
0000
0003
0000
0000
0000
1000
0000
0000
0010
0000
0000
0100
0000
,
0000
2002
0000
0000
0000
0000
0000
0000
0000
0000
0000
0000
0000
0000
0000
0000
0000
0000
0000
0000
0000
0000
0000
0000
0000
0000
0000
0000
0000
0000
0000
0000
,
3003
0000
0001
1000
0010
0100
0010
0001
,
1000
0000
0010
0000
0100
0001
1000
0010
,
0000
0000
0100
0000
0001
0000
1000
0001
1000
0000
0010
0000
0100
0000
1000
0000
,
0000
0000
0001
0000
0010
0000
0100
0001
0100
0000
0010
0000
1000
0000
0001
0000
,
1000
0000
0110
0000
0100
0001
1000
0010
,
0001
0000
1000
0000
0100
0010
1000
0001
,
0000
0000
0100
0000
1000
0000
0000
0000
0010
0000
1000
0000
0001
0000
0010
0001
,
0010
0000
1000
0000
0010
0000
0100
0000
0000
0000
1000
0000
0001
0000
1000
0001
,
1000
0010
0100
0000
1000
0001
0100
0010
,
0100
0000
1000
0001
0000
1000
0001
1000
,
0020
0000
0000
0000
0030
0000
1000
0001
1000
0000
0001
0000
1000
0000
0002
0000
,
1000
1000
1000
1000
,
1003
0000
0000
0000
;
