#TITLE:Ace Out PLUS;
#ARTIST:BEMANI Sound Team;
#MUSIC:Ace Out PLUS.ogg;
#BANNER:Ace Out PLUS.png;
#BACKGROUND:Ace Out PLUS-bg.png;
#CDTITLE:./CDTitles/DDR A20 PLUS.png;
#SAMPLESTART:54.638;
#SAMPLELENGTH:15;
#OFFSET:-0.025;
#BPMS:0=144.928;
#DISPLAYBPM:144;
#BGSTAGE:31;

//--------------- dance-single - XLev450X-bSP ----------------
#NOTES:
     dance-single:
     XLev450X:
     Beginner:
     1:
     0,0,0,0,0:
0000
0000
0000
0000
,
0000
0000
0000
0000
,
0000
0000
0000
0000
,
0000
0000
0000
0000
,
0000
0000
0000
0000
,
1000
0000
0000
0000
,
0010
0000
0000
0000
,
0100
0000
0000
0000
,
0001
0000
0000
0000
,
1000
0000
1000
0000
,
1000
0000
0000
0000
,
0010
0000
0010
0000
,
0010
0000
0000
0000
,
0100
0000
0100
0000
,
0100
0000
0000
0000
,
0001
0000
0001
0000
,
0001
0000
0000
0000
,
0010
0000
0100
0000
,
0010
0000
0000
0000
,
0001
0000
1000
0000
,
0001
0000
0000
0000
,
0010
0000
1000
0000
,
0010
0000
0000
0000
,
0100
0000
0001
0000
,
0100
0000
0000
0000
,
0010
0000
1000
0000
,
0001
0000
0100
0000
,
0010
0000
0100
0000
,
1000
0000
0000
0000
,
0001
0000
1000
0000
,
0010
0000
0000
0000
,
0100
0000
0001
0000
,
1000
0000
0000
0000
,
0001
0000
0000
0000
,
1000
0000
0000
0000
,
0100
0000
0000
0000
,
0010
0000
0000
0000
,
0001
0000
1000
0000
,
0001
0000
0000
0000
,
0010
0000
0100
0000
,
0010
0000
0000
0000
,
0010
0010
0010
0000
,
1000
1000
1000
0000
,
0001
0001
0001
0000
,
0100
0100
0100
0000
,
0010
1000
0010
0000
,
0100
0001
0100
0000
,
1000
0001
1000
0000
,
0220
0000
0000
0000
,
0330
0000
0000
0000
;

//--------------- dance-single - XLev450X-BSP ----------------
#NOTES:
     dance-single:
     XLev450X:
     Easy:
     4:
     0,0,0,0,0:
0000
0000
0000
0000
,
0000
0000
0000
0000
,
0000
0000
0000
0000
,
0000
0000
0000
0000
,
0000
0000
0000
0000
,
1000
0000
0001
0000
,
1000
0000
0010
0000
,
0100
0000
0000
0000
,
0001
0000
1000
0000
,
0101
0000
1010
0000
,
0110
0000
0110
0000
,
0001
0000
1000
0000
,
0001
0100
0010
0000
,
1000
0001
1000
0010
,
0100
0001
1000
0010
,
0100
0001
1000
0010
,
1001
0000
0000
0000
,
0100
0100
0010
1000
,
0001
0000
0000
0000
,
1000
0010
1000
0000
,
0000
0010
0000
1000
0000
0001
0000
0100
,
0010
1000
0001
0000
,
0100
0010
1000
0000
,
0001
0100
0010
1000
,
0202
0000
0000
0303
,
1000
0001
1000
0000
,
0010
1000
0010
0100
,
0001
1000
0010
0100
,
0000
0001
0000
1000
,
0010
0100
1000
0000
,
0001
1000
0001
0000
,
0100
0010
1000
0001
,
0200
0000
0000
0300
,
0010
0000
1000
0001
,
0000
1000
0010
0100
,
0001
0000
1000
0010
,
0100
0000
0001
0000
,
1000
0000
0010
1000
,
0000
0001
0100
0010
,
1000
0000
0001
0100
,
2002
0000
0000
3003
,
1000
1000
1000
0010
,
0100
0001
1000
0010
,
0100
0000
0001
0000
,
1000
0001
0100
0000
,
0010
1000
0010
0000
,
0100
0001
0100
0000
,
0010
1000
0001
0100
,
2002
0000
0000
3003
,
0110
0000
0000
0000
;

//--------------- dance-single - XLev450X-DSP ----------------
#NOTES:
     dance-single:
     XLev450X:
     Medium:
     8:
     0,0,0,0,0:
0000
0000
0000
0000
,
0000
0000
0000
0000
,
0000
0000
0000
0000
,
0000
0000
0000
0000
,
0000
0000
0000
0000
,
0001
1000
0001
0100
,
0010
0000
0001
0000
1000
0001
0010
0000
,
0010
0000
1000
0000
0010
0100
0001
0000
,
0010
0000
1000
0000
0010
1000
0010
0000
,
0101
0000
1010
0000
0000
0010
0100
0000
,
0001
0000
1000
0000
0010
0001
0010
0000
,
1010
0000
0101
0000
0000
1000
0010
0000
,
0100
0000
0010
0000
1000
0010
1000
0000
,
0100
0000
0010
0000
0001
0010
0001
0000
,
1000
0000
0010
0000
0100
0010
0100
0000
,
1000
0010
1000
0000
0100
0001
0100
0000
,
2002
0000
0000
3003
,
0001
0000
1000
0010
0000
0100
0000
0001
,
1000
0000
0010
0000
0100
0001
0100
0000
,
1000
0000
0010
1000
0000
0010
0100
0001
,
0000
0101
0000
1010
0000
0010
0100
0001
,
1000
0000
1010
0000
0001
0100
0010
1000
,
0000
0000
0001
0000
0000
0100
0000
0000
0010
0000
0000
0000
0001
0000
0000
0000
,
1000
0010
1000
0000
0100
0000
0001
0000
,
0200
0000
0000
0300
,
1000
0000
0010
0000
0100
0001
0100
0000
,
0010
0000
1000
0000
0001
0100
0010
1000
,
0001
0000
0100
0000
0010
1000
0001
0100
,
0000
0101
0000
1010
0000
0110
0001
1000
,
0010
0000
0100
0000
0001
1000
0010
0100
,
0000
0000
0001
0000
0000
1000
0000
0000
0001
0000
0000
0000
1000
0000
0000
0000
,
0010
0100
0001
0000
0001
1000
0010
0100
,
2002
0000
0000
3003
,
0001
0000
1000
0000
0010
0100
0001
0000
,
1000
0000
0010
0100
,
0001
0000
1000
0000
0010
0100
0000
0000
,
0000
0001
0000
1000
0010
0000
0000
0100
,
0001
0000
0000
0000
1000
0000
0000
0010
,
0000
0000
0100
0000
0000
0001
0000
0000
1000
0000
0000
0000
0010
0000
0000
0000
,
0001
0000
0100
0000
0001
1000
0010
0000
,
0202
0000
0000
0303
,
1000
0001
0100
0010
,
1000
0000
0001
0000
0100
0001
0100
0000
,
1000
0000
0010
0000
1000
0010
1000
0010
,
0100
0001
0020
0130
,
0001
1000
0001
0100
,
0010
0001
0010
0000
1000
0010
1000
0000
,
0001
0000
0100
0000
0010
1000
0001
0100
,
2002
0000
0000
3003
,
0110
0000
0000
0000
;

//--------------- dance-single - XLev450X-ESP ----------------
#NOTES:
     dance-single:
     XLev450X:
     Hard:
     14:
     0,0,0,0,0:
0000
0000
0000
0000
,
0000
0000
0000
0000
,
0000
0000
0000
0000
,
0000
0000
0000
0000
,
0000
0000
0000
0000
,
1000
0000
0001
0010
0001
0000
0010
0000
1000
0000
0001
0100
0001
0000
0000
0000
,
1000
0000
0010
1000
0010
0000
0100
0000
0001
0000
1000
0000
0010
0000
0000
0000
,
0100
0000
0001
0000
1000
0100
0001
1000
0010
0000
0000
0100
0000
0000
0010
0000
,
1000
0000
0001
0000
0100
0001
0000
1000
0010
0000
0100
0001
0000
1000
0100
0000
,
0010
0000
0100
0001
0100
0000
0010
0000
1000
0000
0001
0010
0001
0000
1000
0000
,
0010
0000
0100
0010
0100
0000
0001
0000
1000
0000
0001
0100
0001
0000
1000
0000
,
0010
0000
1000
0000
0001
0100
0001
1000
,
0000
0010
0100
0001
0000
1000
0010
0100
,
0001
0010
0001
0000
1000
0000
0010
0000
1000
0010
1000
0000
0001
0000
0100
0000
,
0010
0100
0010
0000
1000
0000
0001
0000
0010
0100
0010
0000
0001
0000
1000
0000
,
0001
0100
0010
1000
0001
0100
0010
1000
0001
0100
0010
1000
0001
0100
0010
1000
,
0002
0000
0000
0000
0000
0000
0000
0000
0000
0000
0000
0000
0000
0003
0000
0000
,
1000
0000
0001
0000
0100
0000
0010
0000
0000
0000
0001
0000
0000
0000
1000
0001
,
1000
0000
0001
0000
0010
0000
1000
0000
0010
0000
0100
0001
0100
0000
1000
0000
,
0010
0000
0100
0000
0001
0000
1000
0010
0000
0000
0100
0000
1000
0001
1000
0000
,
0000
0000
0101
0000
0000
0000
1010
0000
0000
0000
0110
0000
1000
0001
1000
0001
,
0100
0000
0001
0000
1000
0000
0010
0000
0001
1000
0001
0000
0100
0000
0001
0000
,
0000
0000
0100
0000
0000
0010
0000
0000
1000
0000
0001
0100
0001
0000
0010
0000
,
1000
0000
0001
0010
0001
0000
1000
0000
0001
0000
1000
0010
1000
0000
0001
0000
,
0200
0000
0000
0000
0000
0000
0000
0000
0000
0000
0000
0000
0000
0300
0000
0000
,
0001
0000
1000
0000
0010
0000
0100
0000
0000
0000
1000
0000
0000
0000
0001
1000
,
0001
0000
1000
0000
0100
0000
0001
0000
0100
0000
0010
1000
0010
0000
0001
0000
,
0100
0000
0010
0000
1000
0000
0001
0100
0000
0000
0010
0000
0001
1000
0001
0000
,
0000
0000
1010
0000
0000
0000
0101
0000
0000
0000
0110
0000
0001
1000
0001
1000
,
0010
0000
1000
0000
0001
0000
0100
0000
1000
0001
1000
0000
0010
0000
1000
0000
,
0000
0000
0010
0000
0000
0100
0000
0000
0001
0000
1000
0010
1000
0000
0100
0000
,
0001
0000
1000
0100
1000
0000
0001
0000
1000
0000
0001
0100
0001
0000
1000
0000
,
0020
0000
0000
0000
0000
0000
0000
0000
0000
0000
0000
0000
0000
0030
0000
0000
,
1000
0000
0001
0000
0100
0001
0100
0000
,
0001
0000
0000
0100
0000
0000
0010
0000
1000
0000
0000
0001
0000
0000
1000
0000
,
0010
0000
0001
0000
0001
1000
0010
0000
,
0000
0000
0100
0000
0000
0000
0001
0000
1000
0000
0000
0000
0100
0000
0001
0010
,
0002
0000
0000
0000
0103
0000
0000
0000
2002
0000
0000
3003
0000
0000
0010
0000
,
0000
0000
0100
0000
0000
0001
0000
0000
0010
0000
0000
0000
0100
0000
0000
0000
,
0001
0100
1000
0000
0001
1000
0010
0100
,
2002
0000
0000
0000
0000
0000
0000
0000
0000
0000
0000
0000
0000
3003
0000
0000
,
1000
0000
0001
0000
0010
0001
0000
0010
0001
0000
1000
0010
0000
0100
0001
0000
,
1000
0000
0010
0000
0100
0001
0000
0100
0001
0000
1000
0010
0000
0001
1000
0000
,
0100
0000
0001
0000
1000
0010
0000
0001
1000
0000
0100
0001
0000
0100
0001
0000
,
1000
0000
0010
0000
0100
0010
0000
1000
0010
0000
0100
0001
0000
1000
0010
0000
,
0100
0000
0001
0000
1000
0010
0000
0000
0100
0000
0001
0000
1000
0100
0000
0000
,
0001
0000
0100
0000
0001
0100
0000
0000
1000
0000
0010
0000
0100
1000
0000
0000
,
0001
0010
0001
0000
1000
0000
0010
0000
0100
0010
0100
0000
0010
0000
0100
0000
,
2002
0000
0000
0000
0000
0000
0000
3003
,
0110
0000
0000
0000
;

//--------------- dance-single - XLev450X-CSP ----------------
#NOTES:
     dance-single:
     XLev450X:
     Challenge:
     15:
     0,0,0,0,0:
0000
0000
0000
0000
,
0000
0000
0000
0000
,
0000
0000
0000
0000
,
0000
0000
0000
0000
,
0000
0000
0000
0000
,
1001
0000
0000
0000
0110
0000
0001
0000
1000
0100
0001
0000
0100
0000
1000
0000
,
0001
0010
1000
0000
1000
0010
0001
0000
1000
0000
0010
0000
0200
0000
0000
0000
,
0310
0000
0000
0000
0110
0000
1000
0000
0001
0010
1000
0000
0010
0000
0001
0000
,
1000
0100
0001
0000
0001
0100
1000
0000
0001
0000
0100
0000
0020
0000
0030
0000
,
1000
0100
1000
0100
1000
0010
1000
0010
0100
0001
1000
0010
0100
0001
1000
0010
,
0100
0001
0100
0001
0010
0001
0010
0001
0010
0100
1000
0001
1000
0100
0010
0001
,
0100
0010
0100
0010
1000
0001
1000
0001
1000
0010
0100
0001
1000
0001
0100
0010
,
1000
0010
0000
1000
0010
0000
0100
0001
0000
0100
0001
0000
0010
0001
1000
0000
,
0001
0010
0100
0010
0001
1000
0001
0100
0010
1000
0001
0100
0001
1000
0010
0100
,
0010
1000
0001
1000
0100
0010
0001
1000
0100
1000
0001
0010
0001
1000
0010
0100
,
0001
0010
0001
0010
0100
1000
0100
1000
0001
0000
1000
0000
0010
0100
0010
0100
,
0020
0000
0000
0000
0000
0000
0000
0030
,
0010
0000
0001
0000
0100
0000
0001
1000
0000
0001
1000
0000
0001
0000
0100
0000
,
0010
0000
1000
0000
0100
0000
0010
0001
0000
0010
0001
0000
1000
0000
0001
0000
,
0100
0000
0010
0000
0100
0000
0010
1000
0000
0010
1000
0000
0010
0000
0100
0000
,
0001
0000
0010
0000
0100
0000
1000
0001
0000
1000
0001
0000
0010
0000
0100
0000
,
1000
0000
0100
0000
0010
0000
0001
0100
0000
0001
0100
0000
0010
0000
0100
0000
,
0001
0000
0010
0000
0100
0000
1000
0001
0000
1000
0001
0000
0100
0000
0010
0000
,
1000
0000
0010
0000
0100
0000
0010
1000
0000
0010
1000
0000
0001
0000
0100
0000
,
0001
0000
0011
0000
0000
0101
0000
0000
0100
0001
0100
0001
1000
0010
1000
0010
,
1000
0000
0100
0000
0010
0000
0100
0000
1000
0010
0100
0000
0001
0010
0100
0000
,
0010
0001
0100
0010
0100
0001
1000
0000
,
0001
0001
0010
0100
1000
0001
0100
0000
,
0110
0000
0000
1000
0000
0001
0000
0100
0000
0000
0010
0000
1001
0000
0000
0000
,
0001
0000
0100
0000
0010
0000
0100
0000
0001
0010
0100
0000
1000
0010
0100
0000
,
0010
1000
0100
0010
0100
1000
0001
0000
,
1000
0001
0000
1000
0000
0010
0000
0100
0000
0000
0000
0000
1001
0000
0000
0000
,
0110
0000
0000
0001
0000
1000
0000
0000
0100
0000
0010
0000
1001
0000
0000
0000
,
1001
0000
0000
0000
0010
0001
0010
0100
0010
0000
0011
0000
0000
0000
1100
0000
,
0000
0000
0001
1000
0001
1000
0001
0000
1001
0000
0000
0000
0110
0000
0000
0000
,
1001
0000
0000
0000
0100
0010
0100
0001
0100
0000
0001
1000
0000
0001
1000
0000
,
0000
0000
1000
0000
0100
0000
0010
0000
0002
0000
0000
0000
2003
0000
0000
3000
,
0001
0100
0010
0000
1000
0000
0001
0000
1000
0100
0010
0000
0001
0000
0100
0000
,
0010
1000
0001
0000
0100
0000
0010
0000
1000
0100
0010
0000
0001
0000
0100
0000
,
0001
1000
0100
0000
1000
0000
0010
0000
0100
0001
0010
0000
0100
0000
1000
0000
,
0001
0100
0010
0000
1000
0000
0001
0000
0010
0000
0100
0000
0010
0000
0000
0000
,
0001
0100
0010
0000
1000
0000
0001
0000
1000
0100
0010
0000
0001
0000
1000
0000
,
0001
0100
0010
1000
0001
0010
0100
0010
0001
1000
0100
0000
0010
0000
0100
0000
,
0010
0001
0100
0000
0001
0000
1000
0000
0010
1000
0100
0000
0010
0000
0100
0000
,
1000
0001
1000
0100
0010
0001
0100
0010
1000
0100
0010
0000
0001
0000
1000
0000
,
0001
1000
0001
1000
0100
0000
0010
0000
0001
0000
0100
0000
0010
0000
1000
0000
,
0001
0100
0010
0000
1000
0000
0100
0000
0010
0000
0001
0000
1000
0000
0001
0000
,
1000
0001
0100
0000
0010
0000
1000
0000
0001
0000
0010
0000
0100
0000
1000
0000
,
0001
1000
0010
0000
0100
0000
0001
0000
0100
0000
0010
0000
1000
0000
0010
0000
,
1001
0000
0000
0000
;
