#TITLE:ASIAN VIRTUAL REALITIES (MELTING TOGETHER IN DAZZLING DARKNESS);
#ARTIST:かめりあ;
#ARTISTTRANSLIT:Camellia;
#GENRE:BIG BEAT;
#MUSIC:ASIAN VIRTUAL REALITIES (MELTING TOGETHER IN DAZZLING DARKNESS).ogg;
#BANNER:ASIAN VIRTUAL REALITIES (MELTING TOGETHER IN DAZZLING DARKNESS).png;
#BACKGROUND:ASIAN VIRTUAL REALITIES (MELTING TOGETHER IN DAZZLING DARKNESS)-bg.png;
#CDTITLE:./CDTitles/bm IIDX 28 BISTROVER.png;
#SAMPLESTART:17.6;
#SAMPLELENGTH:15;
#OFFSET:-0.4;
#BPMS:0=150;
#BGSTAGE:14;

//--------------- dance-single - XLev450X-bSP ----------------
#NOTES:
     dance-single:
     XLev450X:
     Beginner:
     4:
     0,0,0,0,0:
0000
0000
0000
0000
,
0000
0000
0000
0000
,
0000
0000
0000
0001
,
0001
0001
0000
1000
,
1000
1000
0000
0010
,
0100
0010
0100
0001
,
1000
0010
0000
0100
,
0001
1000
0000
0010
,
0100
0001
0000
1000
,
0001
0100
0010
1001
,
0000
0000
0000
0010
,
1000
0100
0001
0010
,
1000
0100
0001
0010
,
0100
1000
0001
0010
,
0100
0001
1000
0010
,
0000
0100
0001
1000
,
0000
0010
0100
0001
,
1000
0010
0100
0001
,
0000
1000
0000
0010
,
0000
0000
0000
0100
,
0000
0000
0000
0001
,
0000
0000
0000
1000
,
0000
0010
0000
0100
,
0001
1000
0010
1000
,
0001
0100
0010
1000
,
0000
0001
0000
0010
,
0100
0001
1000
0010
,
0000
0100
0001
1000
,
0000
0010
0100
0001
,
0000
1000
0010
0100
,
0001
1000
0010
1001
,
0000
0000
0000
0000
,
0000
0000
0000
0000
,
0000
0000
0000
0000
,
0000
0000
0000
0000
,
0000
0000
0000
0000
,
0000
0000
0000
0010
,
1000
0001
0100
0010
,
0000
0000
0000
1000
,
0000
0000
0000
0001
,
0000
0100
0000
0010
,
0000
0000
0000
1000
,
0000
0001
0000
0010
,
0000
0000
0000
0100
,
0000
0001
0000
1000
,
0000
0010
0000
0100
,
0001
1000
0000
0010
,
0100
0001
1000
0010
,
0100
0001
0000
0010
,
1000
0001
0100
0010
,
1000
0001
0000
0010
,
0100
0001
1000
0010
,
0100
0001
1000
0010
,
0000
0100
0000
0001
,
0000
1000
0010
0100
,
0001
1000
0010
0100
,
0001
1000
0000
0010
,
0100
1000
0000
0001
,
0100
0010
1000
0001
,
0010
0100
0000
0010
,
0001
0100
1000
0001
,
0100
0010
0000
1000
,
0010
0100
0001
1000
,
0000
0010
0000
0100
,
0001
1000
0010
0100
,
0001
1000
0010
0100
,
0001
1000
0010
0100
,
0001
1000
0010
0100
,
0001
1000
0010
0100
,
0001
1000
0010
0100
,
0001
0010
1000
0110
;

//--------------- dance-single - XLev450X-BSP ----------------
#NOTES:
     dance-single:
     XLev450X:
     Easy:
     7:
     0,0,0,0,0:
0000
0000
0000
0000
,
0000
0000
0000
0000
,
0000
0000
0000
0001
,
1000
0010
0000
0100
,
0001
1000
0010
0100
,
0010
0001
0000
1000
,
0001
0100
0010
1000
,
0010
0001
0000
0010
,
0100
0001
1000
0010
,
0100
0010
0001
1001
,
0000
0000
0000
0010
,
0100
0001
1000
0010
,
0100
1000
0010
0001
,
0100
1000
0010
0100
,
0001
1000
0010
0100
,
0000
1000
0001
0100
,
0000
0010
0100
0001
,
0000
1000
0010
0100
,
1000
0001
0100
0010
,
0000
0000
0000
1000
,
0001
0100
0010
1000
,
0000
0000
0100
0001
,
0100
0010
1000
0010
,
0100
0001
1000
0010
,
0100
0001
1000
0010
,
0000
0100
0001
0010
,
0000
0100
1000
0001
,
0100
0010
1000
0001
,
0010
0100
0000
1000
,
0001
0010
0100
0010
,
1000
0000
0010
0100
0001
1000
0220
0000
,
0000
0000
0000
0000
,
0000
0000
0000
0000
,
0000
0000
0000
0000
,
0000
0000
0000
0000
,
0000
0000
0000
0000
,
0000
0000
0000
0000
0330
0000
0010
1000
,
0001
0100
0010
1000
0001
0100
0010
0000
,
2000
3000
0020
0030
,
0200
0300
0001
1000
,
0020
0030
0002
0003
,
0200
0000
0300
0000
1000
0000
0010
0100
,
0002
0003
2000
3000
,
0020
0000
0030
0000
1000
0000
0100
0001
,
2000
3000
0010
0200
,
0300
0002
0003
1000
,
0001
0200
0300
0010
,
1000
0100
0001
0010
,
1000
0200
0300
0010
,
1000
0001
0100
0010
,
1000
0002
0003
0100
,
0010
1000
0001
0100
,
0010
2000
3000
0002
,
0003
2000
3000
0020
,
0030
0200
0300
0001
,
1000
0000
0010
0100
0001
0000
0010
0000
,
1000
0001
0000
0100
,
0001
1000
0000
0010
,
1000
0001
0000
0100
,
0001
1000
0000
0010
,
0100
0000
0001
1000
0010
0000
0100
0000
,
0001
0000
1000
0010
0100
0000
0001
0000
,
0010
1000
0001
0100
,
0000
0010
0000
1000
,
0010
0000
0100
0001
1000
0000
0010
0000
,
0100
1000
0001
0000
0010
0000
0100
0000
,
0010
0001
0100
0000
1000
0000
0010
0100
,
1000
0000
0001
0000
0010
0000
0100
0001
,
0010
0000
1000
0000
0010
0100
0001
0000
,
0010
1000
0001
0010
,
0100
0000
0001
0000
1000
0010
0000
0000
;

//--------------- dance-single - XLev450X-DSP ----------------
#NOTES:
     dance-single:
     XLev450X:
     Medium:
     10:
     0,0,0,0,0:
0000
0000
0000
0000
,
0000
0000
0000
0000
,
0000
0000
0000
0000
0000
0000
0001
1000
,
0010
0000
0100
0001
0010
0000
0100
1000
,
0001
0100
0010
0001
0100
0000
0010
0001
,
1000
0000
0010
0100
1000
0000
0001
0000
,
0100
0000
0010
0001
0100
0000
0001
1000
,
0010
0000
0100
1000
0100
0000
0001
0010
,
0100
0001
1000
0010
0100
0000
0001
0010
,
1000
0000
0100
0001
0010
0100
1001
0000
,
0000
0000
0000
0000
0000
0000
0001
1000
,
0010
0000
0100
1000
0001
0000
0010
0001
,
0100
1000
0010
0000
0100
0000
0001
0010
,
0100
0000
1000
0001
0010
0000
0100
1000
,
0001
0010
0100
0001
0010
0000
0100
1000
,
0100
0000
0001
0010
0001
0000
0100
1000
,
0010
0000
0100
0001
0010
0000
0100
1000
,
0001
0000
0010
0100
0001
0000
0010
0000
,
1000
0000
0001
0000
0010
0000
0100
0001
,
0000
0000
0000
0000
0000
1000
0010
0100
,
0001
0000
0000
0000
0000
0010
0100
0001
,
0000
0000
0000
0001
,
1000
0000
0010
0000
0100
0000
0001
0010
,
0100
0000
1000
0100
0010
0000
0001
0010
,
0100
0000
1000
0010
0100
0000
0001
0010
,
1000
0000
0001
0010
0100
0000
0001
0000
,
0000
1000
0000
0000
0010
0000
0100
0001
,
0010
0000
0100
0001
0010
0000
1000
0000
,
0001
0000
0010
0100
0001
0000
0010
0000
,
1000
0000
0010
0001
0100
0000
0001
0000
,
1000
0010
0100
2002
,
0000
0000
0000
0000
,
0000
0000
0000
0000
,
0000
0000
0000
0000
,
0000
0000
0000
0000
,
0000
0000
0000
0000
,
0000
0000
0000
0000
3003
0000
0100
0010
,
1000
0001
0100
0010
1000
0001
0010
0000
,
0000
0001
0000
1000
,
0000
0010
0100
0001
,
1000
0010
0000
0100
,
0000
0000
0001
1000
0010
0000
0100
0000
,
0001
0000
1000
0000
,
0010
0000
0000
0000
0100
0000
0001
1000
,
0010
0000
0000
0000
0100
0000
0000
0000
0001
0000
0000
0000
0010
0000
0000
1000
,
0000
0000
0100
0000
0000
0001
0000
0000
1000
0000
0000
0000
0010
0000
0000
0000
,
0010
0000
1000
0001
0100
0000
0010
0000
,
0001
0000
0100
0001
0010
1000
0100
0000
,
0001
0010
0000
0100
,
1000
0000
0001
0000
0010
0000
0100
0001
,
0010
0000
0100
1000
0100
0000
0010
0001
,
0010
0000
0000
0000
0100
0000
0010
0000
1000
0000
0000
0000
0001
0000
0000
0100
,
0000
0000
1000
0000
0001
0000
0000
0100
0000
0000
1000
0000
0001
0000
0000
0100
,
0000
0000
0001
0000
0010
0000
0000
1000
0000
0000
0100
0000
0001
0000
0000
0010
,
0000
0000
1000
0000
0010
0000
0000
0001
0000
0000
1000
0000
0001
0000
0100
0000
,
0010
1000
0001
0100
0010
0000
0010
0000
,
0001
0000
1000
0010
0100
0000
1000
0001
,
0100
0010
1000
0001
0100
0000
0010
0000
,
0001
0000
0100
1000
0100
0000
0010
0001
,
0010
0100
1000
0011
,
0100
0001
1000
0000
0010
0000
0100
0000
,
0001
0000
1000
0010
0100
0000
0001
0000
,
1000
0000
0010
0100
1000
0000
0001
0000
,
0010
0000
0100
0000
0001
0000
0000
0001
,
1000
0010
0100
0000
0001
0100
0000
0000
,
0010
1000
0000
0100
0010
0001
1000
0010
,
0100
0001
0000
0010
0100
1000
0000
0010
,
0100
0000
0001
0010
0100
1000
0000
0010
,
0100
0000
0001
0010
0000
0100
1000
0010
,
0100
0001
0000
1000
0000
0010
0000
0100
,
0001
1000
0010
0100
0001
0020
0000
0000
,
0000
0030
0000
0000
;

//--------------- dance-single - XLev450X-ESP ----------------
#NOTES:
     dance-single:
     XLev450X:
     Hard:
     17:
     0,0,0,0,0:
0000
0000
0000
0000
,
0000
0000
0000
0000
,
0000
0000
0000
0000
0000
0000
0001
1000
,
0010
0000
0000
0100
0000
0000
0001
0010
1000
0000
0000
0000
0010
0000
0001
0000
,
0100
0000
0000
1000
0000
0000
0010
0001
0100
0001
1000
0000
0010
0000
0001
0000
,
1000
0000
0000
0010
0000
0000
0100
0010
0001
0000
0000
0000
1000
0000
0001
0000
,
1000
0100
0010
0000
0000
0001
0000
0000
0010
0000
0000
0000
0100
0000
0001
0000
,
1000
0000
0000
0010
0000
0000
0100
1000
0001
0000
0000
0000
1000
0000
0010
0000
,
0100
0000
0000
0001
0000
0000
1000
0100
0010
0000
0000
0000
0100
0000
1000
0000
,
0001
0000
0010
0000
1000
0001
0010
0000
1000
0100
0001
0000
0100
0010
1000
0001
,
1000
0010
0001
0100
0010
1000
0001
1000
0200
0000
0300
0000
0001
0000
1000
0000
,
0010
0000
0100
0001
0000
0010
1000
0000
0100
0000
0000
0001
0000
0000
1000
0000
,
0100
0000
0001
0000
1000
0000
0010
0100
0001
0000
1000
0000
0010
0000
0100
0000
,
0001
0000
1000
0010
0000
0100
1000
0000
0001
0000
0100
0000
0010
0000
1000
0000
,
0001
0000
0100
0010
0000
0001
0000
1000
0010
0000
0100
0000
0001
0000
1000
0000
,
0010
0000
0100
0001
0000
1000
0000
0010
0100
0000
0001
0000
1000
0000
0010
0000
,
0100
0000
0001
1000
0000
1000
0010
0000
0100
0001
1000
0000
0010
0000
0100
0000
,
0001
0000
1000
0010
0000
0100
0001
0000
1000
0000
0010
0000
0100
0010
0001
1000
,
0010
0000
1000
0000
0001
0010
1000
0100
0001
0010
1000
0100
0010
0000
0002
0000
,
0000
0000
0000
0000
0000
0000
0000
0000
0000
0003
0000
0000
0001
0000
1000
0000
,
0010
0000
0000
0000
0100
0000
0000
0000
0000
0001
0000
0000
1000
0000
0002
0000
,
0000
0000
0000
0000
0000
0000
0000
0000
0003
0000
0000
0000
0001
0000
0000
1000
,
0000
0000
0100
0000
0001
0010
1000
0100
0001
1000
0010
0100
0001
0000
1000
0000
,
0010
0100
0000
0001
1000
0000
0010
0100
,
1000
0000
0010
0100
0001
0000
0010
0100
,
0001
0000
1000
0100
0000
0000
0010
0000
0100
0000
0000
0000
0010
0000
1000
0000
,
0001
0000
0100
1000
0010
0001
1000
0000
0001
0000
0000
0000
0100
0000
0010
0000
,
1000
0000
0001
0100
0000
0000
0010
0000
0100
0000
0000
0000
0001
0000
1000
0000
,
0010
0000
0100
0010
0000
0000
0001
0000
1000
0000
0000
0000
0010
0000
0100
0000
,
0001
0000
1000
0100
0000
0000
0010
0000
0100
0000
0000
0000
0001
0000
0000
0000
,
1000
0000
0000
0000
0010
0000
0100
0000
0001
0000
1000
0000
0100
1000
0010
0000
,
0000
1000
0100
0000
0001
0000
0100
0001
0000
0010
0000
0000
1000
0001
0000
0100
,
0000
0001
0000
1000
0010
0000
0100
0001
1000
0000
0010
1000
0010
1000
0000
0001
,
0000
0100
1000
0100
0001
0010
0100
0010
1000
0100
0010
0000
1000
0000
0000
0001
,
0000
0000
1000
0000
0000
0100
0001
0000
1000
0100
0000
0000
0000
0001
0010
0000
,
0000
0000
0100
1000
0000
0000
0000
0100
0010
0000
0000
0000
0001
0010
0000
0100
,
1000
0010
1000
0100
0001
0000
0100
1000
0010
0000
0000
0010
0100
1000
0001
1000
,
0100
1000
0100
0010
0100
0010
0001
0100
0010
0100
0001
0010
0002
0000
0003
0000
,
2000
3000
0010
0100
,
0002
0000
0003
0000
0010
0100
0001
0000
,
2000
3000
0010
0100
,
1000
0001
0100
0010
,
2000
3000
0010
0100
,
0002
0000
0003
0000
0010
1000
0100
0000
,
0001
0100
0010
1000
0001
0100
1000
0001
0010
1000
0010
0000
0100
0000
0000
1000
,
0000
0000
0100
0000
0000
1000
0000
0000
0010
0000
0100
0000
0010
0000
1000
0000
,
0010
0000
0010
0000
0010
0001
1000
0000
,
0010
0000
1000
0010
0100
0001
1000
0000
,
0010
0000
0100
0001
1000
0000
0010
0000
,
0100
0000
0001
1000
0010
0100
0001
0000
,
1000
0000
0010
0100
1000
0000
0001
0000
,
0100
0010
1000
0001
0100
0000
0010
0000
,
1000
0100
0000
0000
0010
0000
0000
0000
0001
0010
0000
0000
0100
0000
0000
0000
,
1000
0001
0000
0000
0010
0000
0000
0000
0100
1000
0000
0000
0010
0000
1000
0000
,
0100
0000
0010
0000
0001
0010
0100
1000
0100
0010
0001
0010
0100
0010
1000
0001
,
1000
0010
0001
0100
0010
1000
0001
1000
0100
0000
0000
0000
0001
0000
1000
0000
,
0010
0000
0100
0001
0000
0010
1000
0000
0100
0000
0000
0001
0000
0000
1000
0000
,
0100
0000
0001
0000
1000
0000
0010
0100
0001
0000
1000
0000
0010
0000
0100
0000
,
0001
0000
1000
0010
0000
0100
1000
0000
0001
0000
0100
0000
0010
0000
1000
0000
,
0001
0000
0100
0010
0000
0001
0000
0000
0010
0000
0100
0000
0001
0100
1000
0100
,
0010
0000
0100
0001
0000
1000
0000
0010
0100
0000
0001
0000
1000
0000
0010
0000
,
0100
0000
0001
1000
0000
1000
0010
0000
0100
0001
1000
0000
0010
1000
0100
0010
,
0001
0100
1000
0010
1000
0100
0001
0000
1000
0000
0010
0000
0100
0010
0001
1000
,
0010
0000
1000
0100
0001
0010
1000
0100
0002
0000
0003
0000
1000
0010
0001
1000
,
0010
1000
0010
0100
0010
0100
0001
0010
0100
0010
0100
1000
0001
0100
0001
0010
,
0001
0010
0100
0010
0100
1000
0010
1000
0001
0010
0100
1000
0010
0100
0010
0100
,
0001
1000
0010
1000
0100
1000
0001
0010
0100
0010
0100
0010
0001
0100
0010
1000
,
0001
0100
0010
1000
0010
1000
0010
0100
0001
0100
0001
1000
0100
0010
0100
1000
,
0010
0100
0001
1000
0001
1000
0001
0010
0100
0010
0100
1000
0010
0100
0001
0100
,
0001
1000
0100
0010
0100
0010
0000
0000
0010
0100
0001
1000
0010
1000
0000
0000
,
0001
0010
0100
0010
0001
0000
1100
0000
0110
0000
2002
0000
0000
0000
0000
0000
,
0000
3003
0000
0000
;
