#VERSION:0.83;
#TITLE:ANTHEM LANDING;
#ARTIST:DJムラサメ;
#ARTISTTRANSLIT:DJ MURASAME;
#GENRE:LATIN TEK;
#MUSIC:ANTHEM LANDING.ogg;
#BANNER:ANTHEM LANDING.png;
#BACKGROUND:ANTHEM LANDING-bg.png;
#CDTITLE:./CDTitles/bm IIDX 18 Resort Anthem.png;
#SAMPLESTART:88.179;
#SAMPLELENGTH:15;
#OFFSET:1.614;
#BPMS:0=151;
#BGCHANGES:4=ANTHEM LANDING.mp4=1.000=0=0=0=StretchNoLoop====,
99999.000=-nosongbg-=1.000=0=0=0=StretchNoLoop====;
#BGSTAGE:31;

//--------------- dance-single - XLev450X vs. Erebus ----------------
#NOTEDATA:;
#STEPSTYPE:dance-single;
#DESCRIPTION:XLev450X vs. Erebus;
#DIFFICULTY:Beginner;
#METER:3;
#RADARVALUES:0,0,0,0,0;
#OFFSET:0.786;
#BPMS:0=151;
#STOPS:72=1.589;
#CREDIT:XLev450X vs. Erebus;
#MUSIC:ANTHEM LANDING (N).ogg;
#NOTES:
0000
0000
0000
0000
,
0000
0000
0000
0000
,
0000
0000
0000
0000
,
0000
0000
0000
0000
,
0000
0000
0000
0000
,
0000
0000
0000
0000
,
0000
0000
0000
0000
,
0000
0000
0000
0000
,
0000
0000
0000
0000
,
0001
0000
1000
0000
,
0001
0000
0000
0000
,
0010
0000
0010
0000
,
0010
0000
0000
0000
,
1000
0000
1000
0000
,
1000
0000
0000
0000
,
0010
0000
1000
0000
,
0001
0000
0000
0000
,
2002
0000
0000
0000
0000
0000
0000
0000
0000
0000
0000
0000
0000
0000
0000
0000
0000
0000
0000
0000
0000
0000
0000
0000
0000
0000
0000
0000
0000
0000
0000
3003
,
0000
0000
0001
1000
,
0001
0000
0010
1000
,
0010
0000
1000
0100
,
1000
0000
0001
0100
,
0001
0000
0001
0000
,
1000
0000
0001
0000
,
0000
0000
0010
0000
,
0100
0000
0010
0000
,
0000
0000
2020
0000
,
0000
3030
0001
1000
,
0001
0000
0010
0010
,
0010
0000
1000
0000
,
0100
0000
0001
0000
,
0000
0000
0001
1000
,
0001
0000
0010
1000
,
0010
0000
0100
0000
,
1000
0000
0001
0000
,
0000
0000
1000
0000
,
0001
0000
1000
0000
,
0000
0000
0010
0000
,
1000
0000
0010
0000
,
0000
0000
0100
0000
,
0010
0000
0100
0000
,
0000
0000
0001
0000
,
0010
0000
0001
0000
,
0000
0000
1000
0000
,
0001
0000
1000
0000
,
0000
0000
1000
0000
,
1000
0000
1000
0000
,
0000
0000
0001
0000
,
0000
0000
0100
0000
,
0000
0000
1000
0000
,
0010
0000
1000
0000
,
0000
0000
0100
0000
,
0000
0000
0001
0000
,
0000
0000
1000
0000
,
0001
0000
1000
0000
,
0000
0000
0010
0010
,
1000
0000
0001
0000
,
1000
0000
0100
0000
,
0000
0000
0001
0000
,
0000
0000
1000
0000
,
0001
0000
1000
0000
,
0000
0000
0010
0000
,
1000
0000
0010
0000
,
0000
0000
0001
0001
,
0001
0000
1000
1000
,
1000
0000
0001
0000
,
0100
0000
0001
0000
,
0000
0000
0010
0000
,
0100
0000
0010
0000
,
0000
0000
1000
0000
,
0010
0000
1000
0000
,
0000
0000
1001
0000
;

//--------------- dance-single - XLev450X vs. Erebus ----------------
#NOTEDATA:;
#STEPSTYPE:dance-single;
#DESCRIPTION:XLev450X vs. Erebus;
#DIFFICULTY:Easy;
#METER:6;
#RADARVALUES:0,0,0,0,0;
#OFFSET:0.786;
#BPMS:0=151;
#STOPS:72=1.589;
#CREDIT:XLev450X vs. Erebus;
#MUSIC:ANTHEM LANDING (N).ogg;
#NOTES:
0000
0000
0000
0000
,
0000
0000
0000
0000
,
0000
0000
0000
0000
,
0000
0000
0000
0000
,
0000
0000
0000
0000
,
0000
0000
0000
0000
,
0000
0000
0000
0000
,
0000
0000
0000
0000
,
0000
0000
0000
0000
,
1000
0001
1000
0000
,
0010
1000
0010
0000
,
0001
1000
0001
0000
,
1000
0100
1000
0000
,
0010
0100
0010
0000
,
0001
0010
0001
0000
,
1000
0100
1000
0000
,
2002
0000
0000
0000
0000
0000
0000
0000
0000
0000
0000
0000
3003
0000
0000
0000
,
0220
0000
0000
0000
0000
0000
0000
0000
0000
0000
0000
0000
0000
0000
0000
0000
0000
0000
0000
0000
0000
0000
0000
0000
0000
0000
0000
0000
0000
0000
0000
0330
,
0000
0000
2020
3030
0001
0000
1000
0000
,
0001
0000
1000
0010
,
1000
0000
0100
1000
,
0100
0000
0001
0010
,
0001
0000
1000
0100
,
1000
0001
0100
1000
,
0010
0000
0010
1000
,
0100
1000
0001
0010
,
1000
0010
1000
0000
0202
0000
0000
0000
,
0000
0000
0303
0000
0010
1000
0010
0000
,
0001
0010
0001
0000
1000
0000
0001
0000
,
0100
0000
0000
0000
1000
0010
1000
0000
,
0100
0010
0100
0000
0001
0000
1000
0000
,
0001
0000
1000
0000
0001
1000
0001
0000
,
0100
0001
0100
0000
0010
1000
0010
0000
,
0010
0100
0010
0000
0001
0000
1000
0000
,
0001
1000
0010
0000
,
0000
0000
1000
0100
,
0001
1000
0001
0100
,
1000
0000
0010
1000
,
0100
1000
0001
0100
,
0010
0000
0001
1000
,
0100
1000
0001
0010
,
1000
0000
1000
0100
,
1000
0000
0001
0000
0010
0001
0010
0000
,
1000
0000
0100
1000
,
0001
0100
1000
0010
,
0100
0000
0001
1000
,
0010
0000
1000
0000
0010
1000
0010
0000
,
0010
0100
0010
0000
0001
0000
1000
0000
,
0001
0000
0001
1000
,
0001
0000
0010
1000
,
0010
0000
1000
0100
,
1000
0000
0001
0100
,
0010
0000
1000
0001
,
1000
0000
0010
0100
,
0001
0010
0001
0000
1000
0000
0100
0000
,
1000
0000
0001
1000
,
0001
0100
1000
0001
,
0010
0000
1000
0010
1000
0000
0100
0000
,
1000
0000
0001
0000
0010
0001
0010
0000
,
1000
0010
1000
0000
0100
0000
1000
0000
,
0001
0000
0100
0000
1000
0000
0001
1000
,
0001
0010
1000
0001
,
0100
1000
0001
0000
,
0000
0000
1000
0010
,
1000
0000
0001
0010
0001
0000
1000
0000
,
0100
0000
1000
0001
1000
0000
0001
0000
,
0010
1000
0010
1000
0001
0000
0100
0000
,
1000
0001
1000
0000
0001
0000
0100
0000
,
1000
0000
0010
0000
1000
0010
1000
0000
,
0001
0000
0100
0000
0001
0010
0001
0000
,
1000
0100
1000
0000
0010
0000
0100
0000
,
0010
0100
0010
0000
1001
0000
0000
0000
;

//--------------- dance-single - XLev450X vs. Erebus ----------------
#NOTEDATA:;
#STEPSTYPE:dance-single;
#DESCRIPTION:XLev450X vs. Erebus;
#DIFFICULTY:Medium;
#METER:12;
#RADARVALUES:0,0,0,0,0;
#OFFSET:1.595;
#BPMS:0=151;
#STOPS:68=1.192;
#CREDIT:XLev450X vs. Erebus;
#MUSIC:ANTHEM LANDING (H).ogg;
#NOTES:
0000
0000
0000
0000
,
0000
0000
0000
0000
,
0000
0000
0000
0000
,
0000
0000
0000
0000
,
0000
0000
0000
0000
,
0000
0000
0000
0000
,
0000
0000
0000
0000
,
0000
0000
0000
0000
,
0000
0000
0000
0000
,
0001
0000
1000
0000
0010
1000
0010
0100
,
0001
0000
1000
0000
0001
1000
0001
1000
,
0010
0000
1000
0000
0100
1000
0010
1000
,
0001
0000
0100
0000
0001
0010
0001
1000
,
0001
1000
0001
0000
0010
1000
0010
0000
,
0100
1000
0001
0100
0001
1000
0001
0000
,
0001
0000
1000
0000
0100
0001
1000
0000
,
0010
0000
1000
0000
0001
1000
0001
1000
,
2002
0000
3003
0000
0010
0000
0000
1000
0000
0000
0010
0000
0000
0001
0000
0000
,
1000
0000
0001
0000
0100
0000
0000
0001
0000
0000
1000
0000
0000
0001
0000
0000
,
1000
0000
0001
0000
0010
0000
0000
1000
0000
0000
0100
0000
0000
0010
0000
0000
,
0001
0000
1000
0000
0010
0000
0000
1000
0000
0000
0001
0000
0000
0010
0000
0000
,
0001
0000
1000
0000
0001
0000
0000
0100
0000
0000
1000
0000
0000
0010
0000
0000
,
0001
0000
0100
0000
1000
0000
0000
0001
0000
0000
1000
0000
0000
0001
0000
0000
,
1000
0000
0100
0000
0001
0000
0000
1000
0000
0000
0010
0000
0000
0001
0000
0000
,
0010
0000
1000
0000
0010
0000
0000
0001
0000
0000
0100
0000
0000
1000
0000
0000
,
0100
0010
0200
0300
0002
0003
2000
3001
,
0100
0000
2000
3000
0002
0003
0200
0310
,
0200
0310
2000
3000
0002
0003
2000
3100
,
0001
0000
0000
0000
0000
0000
0100
0000
0000
0000
0000
0000
1000
0000
0000
0000
0000
0000
0000
0000
0000
0100
0000
0000
0000
0000
0000
0000
0000
0000
0001
0000
0000
0000
0000
0000
0010
0000
0000
0000
1000
0000
0000
0000
0001
0000
0000
0000
,
0020
0130
0020
0030
2000
3000
0002
1003
,
0010
0000
0002
0003
2000
3000
0020
0130
,
0020
0130
0002
0003
2000
3000
0002
0013
,
1000
0000
0000
0000
0000
0000
0010
0000
0000
0000
0000
0000
0001
0000
0000
0000
0000
0000
0000
0000
0000
0010
0000
0000
0000
0000
0000
0000
0000
0000
1000
0000
0000
0000
0000
0000
0100
0000
0000
0000
0001
0000
0000
0000
1000
0000
0000
0000
,
0200
0000
0000
0000
0000
0000
0310
0000
0000
0000
0000
0000
0001
0000
0000
0000
0000
0000
0000
0000
0000
1000
0000
0000
0000
0000
0000
0000
0000
0000
0100
0000
0000
0000
0000
0000
0001
0000
0000
0000
1000
0000
0000
0000
0001
0000
0000
0000
,
1000
1001
0001
0000
1000
0000
0010
0000
,
0100
1000
0001
0000
0001
0000
0010
1000
,
0010
0001
1000
0100
,
0001
0000
1000
0001
1000
0000
0010
1000
,
0010
0001
1000
0100
,
0001
0000
0010
0000
1000
0000
0001
0010
,
0001
1000
0100
1000
,
0001
0000
1000
0000
0001
0000
0100
1000
,
0001
0000
0010
0000
1000
0100
0000
0001
0000
0100
0000
0010
2000
0000
0000
0000
,
3001
0000
0001
0000
1000
0000
0001
0000
,
0010
0000
1000
0000
0100
0000
0001
0010
,
0001
0000
1000
0000
0100
0000
1000
0010
,
1000
0000
0100
1000
0100
0000
0001
0010
,
0001
1000
0100
0001
,
1000
0000
0010
0100
0010
0000
1000
0001
,
1000
0010
1000
0100
,
0001
0000
1000
0001
1000
0001
1000
0010
,
1000
0100
0001
0000
1000
0000
0010
0000
,
0100
0000
1000
0100
0001
0010
1000
0100
,
0002
0003
0010
0000
1000
0000
0001
1000
,
0001
0000
0010
1000
0010
0001
2000
0000
,
0002
3003
0001
0000
1000
0000
0100
1000
,
0001
0000
0010
0000
1000
0000
0001
0010
,
0001
1000
0100
1000
,
0001
0000
1000
0010
1000
0100
0001
1000
,
0001
0001
1000
0010
,
0010
0000
1000
0001
1000
0010
0001
1000
,
0010
1000
0001
0000
1000
0000
0001
1000
,
0010
1000
0001
0000
0101
0000
1010
0000
,
0010
1000
0001
0001
,
1000
0010
0000
0010
,
1000
0000
0100
1000
0100
0000
0001
0000
,
0001
0000
1000
0000
0010
0100
0010
1000
,
0010
0001
1000
0100
,
0001
0000
1000
0000
0000
0000
0001
1000
,
0001
0100
1000
0010
,
0100
1000
0001
0010
,
0000
1000
0001
1000
,
0100
1000
0010
1000
,
0101
0000
0010
0000
1000
0000
0100
1000
,
0100
0010
0001
1000
0010
0001
1000
0001
,
0100
1000
0001
1000
0010
0001
1000
0001
,
1000
0010
1001
0000
0000
0000
0000
0000
;

//--------------- dance-single - XLev450X vs. Erebus ----------------
#NOTEDATA:;
#STEPSTYPE:dance-single;
#DESCRIPTION:XLev450X vs. Erebus;
#DIFFICULTY:Hard;
#METER:15;
#RADARVALUES:0,0,0,0,0;
#OFFSET:1.614;
#BPMS:0=151;
#TIMESIGNATURES:0=4=4,
224=2=4,
226=4=4;
#CREDIT:XLev450X vs. Erebus;
#MUSIC:ANTHEM LANDING.ogg;
#NOTES:
0000
0000
0000
0000
,
0000
0000
0000
0000
,
0000
0000
0000
0000
,
0000
0000
0000
0000
,
0000
0000
0000
0000
,
0000
0000
0000
0000
,
0000
0000
0000
0000
,
0000
0000
0000
0000
,
0000
0000
0000
0000
,
0000
0000
1000
0000
0000
0001
0000
0000
1000
0000
0000
0100
0000
0000
0001
0000
,
0000
0000
0010
0000
0000
1000
0000
0000
0100
0000
0000
0001
0000
0000
1000
0000
,
0000
0000
0001
0000
0000
1000
0000
0000
0100
0000
0000
0001
0000
0000
1000
0001
,
1000
0010
0000
0000
0100
0000
0000
1000
0000
0000
0001
0000
0110
0000
1001
0000
,
0001
0000
1000
0000
0100
1000
0001
0100
,
1000
0010
1000
0010
0100
1000
0001
0001
,
1000
0010
0010
1000
0100
1000
0001
0100
,
1000
0001
0010
1000
0010
0100
1000
0000
,
0010
1000
0010
1000
0100
0001
0010
0001
,
1000
0001
0100
1000
0001
0100
1000
0001
,
0010
1000
0100
1000
0001
0010
1000
0001
,
0100
1000
0001
0010
1000
0001
1000
0000
,
0001
1000
0100
1000
,
0001
0100
0001
1000
0010
1000
0001
0000
,
0010
0000
0001
0000
1000
0100
1000
0001
,
0100
1000
0001
0010
1000
0001
0101
0000
,
0010
0000
1000
0000
0100
1000
0101
1010
,
0100
0000
0010
0000
0001
1000
0001
1000
,
0001
0000
0010
0000
0010
1000
0100
1000
,
0001
0000
0001
0000
0010
1000
0100
0001
,
1000
0000
0010
0000
0001
0010
1000
0001
,
0100
0000
1000
0000
0001
0100
1000
0001
,
0100
0000
0010
0000
1000
0010
1000
0100
,
1000
0000
0001
0000
0010
0001
0010
1000
,
0100
0001
1000
0001
1000
0100
1000
0001
,
0010
0000
1000
0000
0010
1000
0010
0000
,
0001
0010
0001
0000
1000
0100
1000
0001
,
0100
0010
1001
0000
0010
1000
0010
0000
,
0001
0100
0001
0000
0010
1000
0010
0100
,
0001
0000
1000
0000
0010
1000
0100
1000
,
0001
0100
1000
0010
1000
0010
1000
0001
,
0010
0001
1000
0100
1000
0001
0100
1000
,
0001
0010
1000
0010
1000
0001
0100
1000
,
0001
1000
1000
1000
,
0010
1000
0010
0100
1000
0001
0010
0001
,
1000
0100
1000
0001
0010
0001
0010
0000
,
1000
0100
1000
0001
0010
0100
0001
0000
,
0010
1000
0100
0001
0010
0001
1000
0000
,
0101
0000
1010
0000
0010
1000
0010
0000
,
1010
0000
0101
0000
0001
1000
0001
0000
,
0101
0000
1001
0000
0010
1000
0001
1000
,
0010
0000
1000
0000
0100
1000
0100
0001
,
0010
0000
1000
0000
0001
0010
0001
0000
,
1000
0100
1000
0001
0010
0100
1000
0001
,
0100
0000
1000
0000
0010
1000
0010
1000
,
0001
0100
1000
0001
0100
0010
1000
0001
,
1000
0000
0001
0000
0100
1000
0001
1000
,
0010
0100
0000
0010
0100
0000
0000
0000
1000
0000
0000
0000
0001
0000
0000
0000
,
0010
0000
1000
0100
1000
0000
0001
0000
,
0010
1000
0001
1000
0001
0000
0100
0000
,
1000
0001
0100
1000
0001
0000
0100
0000
,
1000
0000
0000
0000
0000
0000
0001
0000
0000
0000
0000
0000
1000
0000
0000
0000
0000
0000
0001
0000
0000
0000
0000
0000
0010
0000
0000
0100
0000
0000
0010
0000
0000
1000
0000
0000
0010
0000
0000
0100
0000
0000
0010
0000
0000
0100
0000
0000
,
0001
0000
0000
1000
0000
0000
0010
0000
0000
0100
0000
0000
0001
0000
0000
1000
0000
0000
0100
0000
0000
0010
0000
0000
0100
0000
0000
1000
0000
0000
0010
0000
0000
0100
0000
0000
0001
0000
0000
0100
0000
0000
0010
0000
0000
0100
0000
0000
,
0001
0000
0000
1000
0000
0000
0010
0000
0000
1000
0000
0000
0001
0000
0000
1000
0000
0000
0001
0000
0000
0100
0000
0000
0010
0000
0000
0100
0000
0000
0001
0000
0000
1000
0000
0000
0010
0000
0000
1000
0000
0000
0010
0000
0000
0100
0000
0000
,
0010
0000
0000
1000
0000
0000
0001
0000
0000
0100
0000
0000
0010
0000
0000
0100
0000
0000
0001
0000
0000
0010
0000
0000
0001
0000
0000
0010
0000
0000
0100
0000
0000
0010
0000
0000
0100
0000
0000
0010
0000
0000
0001
0000
0000
1000
0000
0000
,
0001
0000
0000
0100
0000
0000
0001
0000
0000
0010
0000
0000
0100
0000
0000
0010
0000
0000
0001
0000
0000
1000
0000
0000
0001
0000
0000
0000
0000
0000
0000
0000
0000
0000
0000
0000
1000
0000
0000
0000
0000
0000
0000
0000
0000
0000
0000
0000
,
0010
0000
1000
0100
1000
0000
0001
0000
,
0001
1000
0100
1000
0001
0000
0010
0000
,
1000
0100
0001
0010
1000
0000
0001
0000
,
0100
0000
0000
0000
0000
0000
1000
0000
0000
0000
0000
0000
0001
0000
0000
0000
0000
0000
0010
0000
0000
0000
0000
0000
0100
0000
0000
1000
0000
0000
0010
0000
0000
0100
0000
0000
0001
0000
0000
1000
0000
0000
0001
0000
0000
0010
0000
0000
,
0100
0000
0000
1000
0000
0000
0010
0000
0000
1000
0000
0000
0010
0000
0000
1000
0000
0000
0001
0000
0000
0100
0000
0000
0010
0000
0000
1000
0000
0000
0001
0000
0000
0100
0000
0000
0010
0000
0000
0100
0000
0000
0010
0000
0000
0100
0000
0000
,
0001
0000
0000
0010
0000
0000
0001
0000
0000
0010
0000
0000
0100
0000
0000
0010
0000
0000
0001
0000
0000
0100
0000
0000
0010
0000
0000
0100
0000
0000
0010
0000
0000
1000
0000
0000
0100
0000
0000
0010
0000
0000
0001
0000
0000
1000
0000
0000
,
0001
0000
0000
0010
0000
0000
0001
0000
0000
0100
0000
0000
0010
0000
0000
0100
0000
0000
0001
0000
0000
0100
0000
0000
0001
0000
0000
0100
0000
0000
0001
0000
0000
0010
0000
0000
0001
0000
0000
1000
0000
0000
0100
0000
0000
0010
0000
0000
,
0100
0000
0000
0010
0000
0000
0100
0000
0000
1000
0000
0000
0001
0000
0000
0010
0000
0000
0100
0000
0000
1000
0000
0000
0010
0000
0000
0000
0000
0000
0001
0000
0000
0100
0000
0000
0001
0000
0000
0100
0000
0000
0010
0000
0000
1000
0000
0000
,
0010
0000
1000
0100
1000
0100
0010
0001
0010
0000
0001
0100
0001
0100
0010
1000
,
0001
0010
0100
0010
1000
0010
0100
0010
0001
0000
1000
0010
1000
0001
0010
0001
,
1000
0000
0001
0100
0001
1000
0100
1000
0001
0000
0100
0010
1000
0100
0010
0001
,
1000
0010
0100
0010
0001
0010
0100
0010
2000
0000
0000
0000
0000
0000
0000
0000
,
0000
0000
0000
0000
,
0000
0000
0000
0000
0000
0000
0000
0000
0000
0000
0000
0000
0000
0000
0000
0000
0000
0000
0000
0000
0000
0000
0000
0000
0000
0000
0000
0000
0000
0000
0000
0000
0000
0000
0000
0000
0000
0000
0000
0000
0000
0000
0000
0000
0000
0000
0000
0000
0000
0000
0000
0000
0000
0000
0000
0000
0000
0000
0000
0000
0000
0000
0000
0000
0000
0000
0000
0000
0000
0000
0000
0000
0000
0000
0000
0000
0000
0000
0000
0000
0000
0000
0000
0000
0000
0000
0000
0000
0000
0000
0000
0000
0000
0000
0000
0000
3000
0000
0000
0000
0000
0000
0000
0000
0000
0000
0000
0000
0000
0000
0000
0000
0000
0000
0000
0000
0000
0000
0000
0000
0000
0000
0000
0000
0000
0000
0000
0000
0000
0000
0000
0000
0000
0000
0000
0000
0000
0000
0000
0000
0000
0000
0000
0000
0000
0000
0000
0000
0000
0000
0000
0000
0000
0000
0000
0000
0000
0000
0000
0000
0000
0000
0000
0000
0000
0000
0000
0000
0000
0000
0000
0000
0000
0000
0000
0000
0000
0000
0000
0000
0000
0000
0000
0000
0000
0000
0000
0000
0000
0000
0000
0000
;
