#TITLE:ANALYZE (RGR-Special);
#SUBTITLE:;
#ARTIST:B.BANDJ;
#TITLETRANSLIT:;
#SUBTITLETRANSLIT:;
#ARTISTTRANSLIT:;
#GENRE:HIPHOP;
#CREDIT:;
#MUSIC:ANALYZE (RGR-Special).ogg;
#BANNER:ANALYZE (RGR-Special).png;
#BACKGROUND:ANALYZE (RGR-Special)-bg.png;
#CDTITLE:./CDTITLES/BEATMANIA.PNG;
#SAMPLESTART:12.840;
#SAMPLELENGTH:20.000;
#SELECTABLE:YES;
#OFFSET:0.000;
#BPMS:0.000=93.000;
#STOPS:;
#BGSTAGE:4;
#DISPLAYBPM:93;
#BGCHANGES:;
#FGCHANGES:;

//--------------- dance-single - XLev450X ----------------
#NOTES:
     dance-single:
     XLev450X:
     Challenge:
     14:
     0,0,0,0,0:
0000
0000
0000
0000
,
0000
0000
0000
0000
,
0000
0000
0000
0000
,
0000
0000
0000
0000
,
0000
0000
0000
0000
,
0010
0000
0100
0010
0001
0000
1000
0000
0100
0000
0010
0000
0001
0000
0000
0000
0000
0000
1000
0000
0001
0000
0100
0000
0001
0000
1000
0000
0000
0000
0010
0000
,
0100
0010
0100
1000
0000
0100
0001
0100
0010
1000
0000
0001
0010
0000
1000
0000
,
0100
0000
0010
0000
0100
0010
0000
0000
0000
0000
0100
0000
0001
0000
0100
0000
0010
0000
1000
0000
0010
0000
0100
0000
0000
0000
0100
0000
0010
0000
1000
0000
,
0001
0000
1000
0000
0001
0010
0000
0000
0000
0000
0001
0000
0100
0000
1000
0000
0010
0000
1000
0000
0001
0000
1000
0000
0100
0010
0000
0000
1000
0000
0100
0000
,
0001
0100
0001
0010
0100
1000
0100
0010
0100
1000
0010
1000
0000
0000
0100
0010
,
0100
0010
0000
1000
0001
0100
0001
0010
0000
1000
0010
0100
0010
1000
0000
0000
,
0001
0010
0001
1000
0001
0010
0100
1000
0001
0100
0000
0010
0100
1000
0010
0100
,
0000
0000
0000
0000
0000
0000
0000
0000
0000
0000
0000
0000
0010
0000
0000
0000
0000
0000
1000
0000
0000
0000
0000
0000
0100
0000
0000
0000
0000
0000
0010
0000
0000
0000
0000
0000
0100
0000
0000
0000
0000
0000
1000
0000
0000
0000
0000
0000
0010
0000
0000
0000
0000
0000
0100
0000
0000
0000
0000
0000
0001
0000
0000
0000
0000
0000
1000
0000
0000
0000
0000
0000
0010
0000
0000
0000
0100
0000
0010
0000
0001
0000
0000
0000
1000
0000
0000
0010
0001
0000
0000
0000
0100
0000
0000
0000
,
0010
0100
0001
0010
0001
1000
0100
0000
0000
0100
0010
1000
0001
0010
0100
0010
,
0100
1000
0100
0000
0000
1000
0010
1000
0010
0000
0000
0010
0100
1000
0010
0100
,
0001
0000
0000
0000
0000
0000
0010
0000
0100
0000
1000
0000
0010
0000
0000
0000
0000
0000
1000
0000
0100
0000
0010
0000
0100
0000
0000
0001
0010
0000
0100
0000
,
0001
0100
0010
1000
0000
0001
0010
0100
0001
0010
0001
1000
0010
1000
0000
0000
,
0001
0010
0001
0100
0001
1000
0010
1000
0000
0000
0000
0000
0100
0010
0100
1000
,
0010
0000
1000
0000
0010
0000
0000
0000
0001
0000
0010
0000
0001
0000
1000
0000
0100
0000
0000
0000
0001
0000
1000
0000
0010
0000
0000
0100
0000
0000
0010
0000
,
0001
0000
0010
0000
0001
0000
1000
0000
0100
0000
1000
0000
0010
0000
0100
0000
0001
0000
0000
0010
0000
0000
1000
0000
0000
0001
1000
0000
0000
0000
0100
0000
,
0010
0000
1000
0000
0001
0000
0010
0000
0100
0000
1000
0001
0100
0000
0010
0000
0001
0000
1000
0000
0100
0000
1000
0000
0010
0000
0100
0000
0000
0000
0000
0000
,
0100
0000
0000
0000
0001
0000
0010
0000
0100
0000
0010
1000
0001
0000
0000
0000
0000
0000
0010
0001
0100
0000
1000
0000
0100
0000
1000
0000
0001
0000
0000
0100
,
0010
0000
0100
0000
0001
0000
1000
0100
0000
0000
0000
0000
0010
0000
0100
0000
0010
0000
1000
0000
0010
0000
0100
0000
0001
0000
0010
0000
0100
0000
0000
0000
,
0001
1000
0010
0000
0100
0000
1000
0010
0001
0000
0100
0000
0010
0001
1000
0001
0000
0000
0010
0001
0000
0100
1000
0000
0010
0000
0100
0000
0010
0000
0000
1000
,
0001
0000
0100
0000
0010
0000
0100
0000
0001
0000
0010
0000
0000
0000
1000
0000
0001
0000
0100
0000
0010
0000
1000
0000
0100
0000
1000
0010
0001
0000
0000
0000
,
0100
0000
0000
0000
0001
0000
0010
0000
0100
0000
0010
1000
0001
0000
0000
0000
0000
0000
0010
0001
0100
0000
1000
0000
0100
0000
1000
0000
0001
0000
0000
0100
,
0010
0000
0100
0000
0001
0000
1000
0000
0100
0000
0000
0000
0010
0000
0100
0000
0010
0000
1000
0000
0010
0000
0100
0000
0001
0000
0010
1000
0100
0000
0000
0000
,
1000
0100
0010
0000
0001
0000
0100
0000
0010
0000
1000
0001
0100
0000
1000
0001
0100
0000
0010
0001
0000
0100
1000
0000
0010
0000
0100
0000
0010
0000
0000
1000
,
0001
0000
0100
0000
0010
0000
0100
0000
0001
0000
0010
0000
0000
0000
1000
0000
0001
0000
0100
0000
0010
0000
1000
0000
0100
0000
1000
0100
0001
0000
0000
0000
,
0000
0000
0000
0000
,
0100
0000
0000
0000
0000
0000
0000
0000
0000
0000
0000
0000
0000
0000
0000
0000
0000
0000
0000
0000
0010
0000
0000
0000
0000
0000
0000
0000
0000
0000
0000
0000
0000
0000
0000
0000
1000
0000
0000
0000
0000
0000
0000
0000
0000
0000
0000
0000
0100
0000
0000
0000
0000
0000
0000
0000
0000
0000
0000
0000
0010
0000
0000
0000
0000
0000
0001
0000
0000
0000
0000
0000
0100
0000
0000
0000
0000
0000
0001
0000
0000
0010
0000
0000
0100
0000
0000
0000
0000
0000
0000
0000
0000
0000
0000
0000
;
