#TITLE:AA BlackY mix;
#ARTIST:BlackY;
#MUSIC:AA BlackY mix.ogg;
#BANNER:AA BlackY mix.png;
#BACKGROUND:AA BlackY mix-bg.png;
#CDTITLE:./CDTitles/SOUND VOLTEX BOOTH.png;
#SAMPLESTART:87.104;
#SAMPLELENGTH:15;
#OFFSET:-0.104;
#BPMS:0=160;
#BGSTAGE:27;

//--------------- dance-single - KurumA-bSP ----------------
#NOTES:
     dance-single:
     KurumA:
     Beginner:
     3:
     0,0,0,0,0:
0000
0000
0000
0000
,
0000
0000
0000
0000
,
0000
0000
0000
0000
,
0000
0000
0000
0000
,
0000
0000
0000
0000
,
0000
0000
0000
0000
,
0001
0001
0001
0000
,
1000
1000
1000
0000
,
0010
0100
0010
0000
,
1001
0000
0000
0000
,
0010
0000
0100
0000
,
0001
0000
0000
0000
,
1000
0000
0010
0000
,
0100
0000
0000
0000
,
0010
0000
1000
0000
,
0001
0000
0000
0000
,
0100
0000
0001
0000
,
1000
0000
0000
0000
,
0010
0010
0010
0000
,
0100
0100
0100
0000
,
0001
0001
0001
0000
,
1000
1000
1000
0000
,
0001
1000
0001
0000
,
0010
0100
0010
0000
,
0010
0001
0010
0000
,
0100
1000
0100
0000
,
0101
0000
0000
0000
,
0000
0000
0000
0000
,
0000
0000
0000
0000
,
0000
0000
0000
0000
,
0000
0000
0000
0000
,
0000
0000
0000
0000
,
0000
0000
0000
0000
,
0000
0000
0000
0000
,
0010
0000
0000
0000
,
1000
0000
0000
0000
,
0001
0000
0000
0000
,
0100
0000
0000
0000
,
0100
0000
0010
0000
,
0000
0000
0000
0000
,
1000
0000
0001
0000
,
0000
0000
0000
0000
,
0100
0000
0010
0000
,
0001
0000
0000
0000
,
1000
0000
0010
0000
,
0100
0000
0000
0000
,
0010
0010
0010
0000
,
0001
0001
0001
0000
,
1000
0001
0100
0010
,
1001
0000
0000
0000
,
0010
0000
0100
0000
,
0001
0000
0100
0000
,
1000
0000
0010
0000
,
0100
0000
0001
0000
,
0100
0000
1000
0000
,
0010
0000
0001
0000
,
0100
0000
0010
0000
,
0100
0000
0001
0000
,
0010
0000
1100
0000
,
0011
0000
0110
0000
,
1001
0000
0000
0010
,
0000
0100
0000
0001
,
0000
0000
0011
0000
,
1100
0000
0110
0000
,
1001
0000
0000
0100
,
0000
0000
0000
0000
,
0010
0000
0001
0000
,
1000
0000
0000
0000
,
0100
0000
0010
0000
,
1000
0000
0000
0000
,
0001
0000
0100
0000
,
0001
0000
0000
0000
,
1000
0000
0010
0000
,
1001
0000
0000
0000
,
0110
0000
0000
0000
;

//--------------- dance-single - KurumA-BSP ----------------
#NOTES:
     dance-single:
     KurumA:
     Easy:
     6:
     0,0,0,0,0:
0000
0000
0000
0000
,
0000
0000
0000
0000
,
0000
0000
0000
0000
,
0000
0000
0000
0000
,
0000
0000
0000
0000
,
0000
0000
0000
0000
,
0010
0100
0001
0000
,
1000
0010
0100
0000
,
0010
1000
0001
0100
,
2002
0000
0000
0000
0000
0000
0000
3003
,
0010
0100
0001
1000
,
0010
0100
0001
0000
,
1000
0010
0100
0001
,
1000
0010
0100
0000
,
0001
1000
0100
0010
,
0001
1000
0010
0000
,
0100
0010
1000
0001
,
0200
0000
0000
0000
0000
0000
0000
0300
,
0010
1000
0001
0100
,
0010
0000
1000
0000
0010
0001
0010
0000
,
0100
0010
1000
0010
,
0100
0000
0010
0000
1000
0100
1000
0000
,
1000
0010
0001
1000
,
0010
0000
0100
0000
0010
0100
0010
0000
,
0010
1000
0001
0100
,
0010
0100
1000
0001
,
0020
0000
0000
0000
0000
0000
0000
0030
,
2000
0000
0000
0000
0000
0000
0000
3000
,
0200
0000
0000
0000
0000
0000
0000
0300
,
0002
0000
0000
0000
0000
0000
0000
0003
,
0020
0000
0000
0000
0000
0000
0000
0030
,
0200
0000
0000
0000
0000
0000
0000
0300
,
2000
0000
0000
0000
0000
0000
0000
3000
,
0020
0000
0000
0000
0000
0000
0000
0030
,
1000
1000
1000
0000
,
0010
0010
0010
0000
,
0100
0000
0001
0000
,
1000
0010
0100
0000
,
0001
0000
1000
0000
,
0100
0010
0001
0000
,
1000
0010
0100
0001
,
2002
0000
0000
3003
,
0020
0000
0000
0000
0000
0000
0000
0000
0000
0000
0000
0000
0000
0000
0000
0000
0000
0000
0000
0000
0000
0000
0000
0000
0000
0000
0000
0000
0000
0000
0000
0000
0000
0000
0000
0000
0000
0000
0000
0000
0000
0030
0000
0000
0000
0000
0000
0000
,
0200
0000
0000
0000
0000
0000
0000
0300
,
0002
0000
0000
0000
0000
0000
0000
0003
,
2000
0000
0000
0000
0000
0000
0000
3000
,
0010
0000
1000
0000
,
0001
0000
0100
0000
,
0001
1000
0010
0100
,
1020
0000
0000
0030
,
0010
0100
0001
1000
,
0000
1000
0000
0010
,
0010
1000
0001
0100
,
0000
0001
0000
0100
,
0010
1000
0001
0100
,
0010
0000
1000
0000
,
0010
0100
0001
1000
,
0010
0100
0001
1000
,
0010
0000
2200
3300
,
0022
0033
0220
0330
,
2002
0000
3003
0001
,
1000
0010
0100
0001
,
1000
0000
0220
0330
,
2002
3003
2020
3030
,
0202
0000
0303
0010
,
0100
0001
1000
0010
,
0100
0000
0001
0000
,
1000
0000
0000
0000
,
0010
0000
0100
0000
,
0001
0000
0000
0000
,
1000
0000
0010
0000
,
0100
0000
0001
0000
,
1000
0010
0100
0001
,
0220
0000
0000
0330
,
2002
0000
0000
0000
,
0000
0000
0000
0000
,
0000
0000
0000
0000
,
0000
0000
0000
0000
0000
0000
0000
0000
0000
0000
0000
0000
0000
0000
0000
3003
;

//--------------- dance-single - KurumA-DSP ----------------
#NOTES:
     dance-single:
     KurumA:
     Medium:
     8:
     0,0,0,0,0:
0000
0000
0000
0000
,
0000
0000
0000
0000
,
0000
0000
0000
0000
,
0000
0000
0000
0000
,
0000
0000
0000
0000
,
0000
0000
0000
0000
,
0010
1000
0001
0100
,
0010
1000
0001
0100
,
0010
1000
0001
0100
0010
1000
0001
0100
,
2020
0000
0000
0000
0000
0000
0000
3030
,
0010
1000
0001
0100
,
0010
0000
1000
0000
0010
0001
0010
0000
,
0100
0010
1000
0100
,
0010
0000
0100
0000
0010
1000
0100
0000
,
0010
1000
0100
0001
,
1000
0000
0010
0000
0100
0001
0100
0000
,
0010
0000
1000
0000
0001
0010
0100
1000
,
0202
0000
0000
0000
0000
0000
0303
0000
0000
0010
0000
0000
0100
0000
0000
0000
,
0010
0000
1000
0000
0010
0100
0001
0000
,
1000
0000
0010
0000
0100
1000
0100
0000
,
0010
0000
0100
0000
0010
1000
0001
0000
,
0100
0000
0010
0000
1000
0001
0100
0010
,
1000
0000
0001
0000
0100
0010
0001
0000
,
1000
0000
0010
0000
0100
0001
1000
0000
,
0010
0000
0100
0000
0001
1000
0010
0100
,
0002
0000
0000
0003
0100
1000
0010
0000
,
0200
0000
0000
0000
0000
0000
0000
0300
,
0020
0000
0000
0000
0000
0000
0000
0030
,
2000
0000
0000
0000
0000
0000
0000
3000
,
0002
0000
0000
0000
0000
0000
0000
0003
,
0200
0000
0000
0000
0000
0000
0000
0300
,
0002
0000
0000
0000
0000
0000
0000
0003
,
2000
0000
0000
0000
0000
0000
0000
3000
,
0020
0000
0000
0000
0000
0030
0000
0000
,
1000
0000
0000
0010
0100
0000
0000
0001
,
0100
0000
0000
0010
0000
0000
0100
0000
1000
0000
0000
0000
0000
0000
0000
0000
,
0010
0000
0000
1000
0100
0000
0000
0001
,
0010
0000
0000
0100
0000
0000
0010
0000
0001
0000
1000
0000
0100
0000
0000
0000
,
0001
0000
0000
1000
0010
0000
0000
0001
,
0010
0000
0000
1000
0000
0000
0010
0000
0100
0000
0000
0000
0000
0000
0000
0000
,
0010
0000
0001
0100
0001
0000
0010
1000
,
0020
0000
0000
0030
,
1001
0010
0000
1000
,
0000
0001
0000
0100
,
0000
0010
0000
1000
,
0000
0001
0000
0100
,
1000
0100
0010
0000
,
1000
0001
0100
0000
,
0010
0001
1000
0000
0010
0100
0001
0000
,
2002
0000
0000
0000
0000
0000
0000
3003
,
0010
0100
1000
0010
,
0100
0000
0001
0000
0010
0001
0010
0000
,
0100
1000
0010
0100
,
0001
0000
1000
0000
0010
0100
0001
0000
,
1000
0010
0100
0001
,
1000
0000
0010
0000
0100
0001
1000
0000
,
0010
0100
1000
0010
,
0100
0000
0001
0000
0010
1000
0100
0000
,
0010
1000
0001
0000
,
1000
0000
0010
0000
0100
0000
0000
0001
,
1000
0010
0100
0001
,
1000
0000
0010
0000
0100
0001
1000
0000
,
0010
0000
0100
0000
0000
0001
1000
0000
,
0010
0000
0100
0000
0000
1000
0001
0000
,
0100
0010
1000
0000
0001
0100
0010
0000
,
0100
0000
0001
0000
,
1000
0000
0010
0000
0100
0001
1000
0000
,
0010
0000
0100
0000
0001
1000
0010
0000
,
0100
0000
0001
0000
,
1000
0010
0100
0000
,
0001
0000
1000
0000
,
0010
0000
0100
0000
,
0010
0001
0010
0000
1000
0100
1000
0000
,
2002
0000
0000
3003
,
0220
0000
0000
0000
,
0000
0000
0000
0000
,
0000
0000
0000
0000
,
0000
0000
0000
0000
0000
0000
0000
0000
0000
0000
0000
0000
0000
0000
0000
0330
;

//--------------- dance-single - KurumA-ESP ----------------
#NOTES:
     dance-single:
     KurumA:
     Hard:
     14:
     0,0,0,0,0:
0000
0000
0000
0000
,
0000
0000
0000
0000
,
0000
0000
0000
0000
,
0000
0000
0000
0000
,
0000
0000
0000
0000
,
0000
0000
0000
0000
,
0100
0010
0100
1000
,
0010
1000
0100
1000
,
1000
0001
0010
0001
1000
0100
0010
0001
,
0220
0000
0000
0000
0000
0000
0000
0330
,
0010
1000
0001
1000
0010
1000
0001
0010
,
0001
0010
1000
0100
,
0001
0100
0010
1000
0001
0010
0001
0100
,
0010
0001
0010
0100
,
0100
1000
0100
0010
0100
1000
0001
0100
,
0010
1000
0010
1000
,
0100
0000
0010
0000
0001
0000
0100
0000
0001
0010
0100
1000
0100
0010
0001
1000
,
0101
0000
0000
0000
0000
0000
0000
0000
0000
0110
0000
0000
1001
0000
0000
0000
,
0010
1000
0010
1000
0100
0010
0001
0010
,
0001
1000
0010
1000
0010
1000
0001
0100
,
0001
0100
0001
1000
0010
1000
0010
0100
,
0010
1000
0001
0100
0010
0100
0001
0000
,
0010
1000
0010
1000
0001
0010
0001
0010
,
0100
0010
0001
0100
0010
0100
0010
1000
,
0100
0000
0010
0000
0100
0000
1000
0000
0100
1000
0010
0100
0001
0010
0100
0010
,
0200
0000
0000
0000
0000
0300
0000
0000
0000
1001
0000
0000
0110
0000
0000
0000
,
0200
0000
0000
0000
0000
0000
0000
0300
,
0020
0000
0000
0000
0000
0000
0000
0030
,
2000
0000
0000
0000
0000
0000
0000
3000
,
0002
0000
0000
0000
0000
0000
0000
0003
,
0200
0000
1000
0000
0010
0000
1000
0300
,
0002
0000
0010
0000
1000
0000
0010
0003
,
2000
0000
0100
0000
0001
0000
0100
3000
,
0020
0000
0000
0030
1000
0000
0010
0000
,
0001
0000
0000
0010
0100
0000
0000
1000
,
0100
0000
0000
0010
0000
0000
0001
0000
0100
0000
0010
0000
1000
0000
0100
0010
,
0001
0000
0000
0001
1000
0000
0000
0001
,
1000
0000
0000
0100
0000
0000
0001
0000
1000
0000
0100
0000
0001
0000
1000
0100
,
0010
0000
0000
0001
0010
0000
0000
0100
,
0001
0000
0000
1000
0000
0000
0010
0000
0100
0000
0001
0000
1000
0000
0010
0100
,
0001
0000
0000
0000
0100
1000
0010
0100
0001
0000
0000
0000
0100
0010
0100
0010
,
0002
0000
0000
0000
0000
0000
0000
0003
,
0100
0010
0100
0010
,
0000
1000
0000
0100
,
0001
0100
0010
0100
,
0000
1000
0000
0001
,
0100
0001
0010
0100
,
0010
0001
0010
0001
,
0001
0000
0100
0000
0001
0000
1000
0000
0100
0010
0001
1000
0001
0100
0001
0010
,
0200
0000
0000
0300
,
0001
0100
0010
0000
0010
1000
0100
0000
,
0100
0010
0100
0000
0001
1000
0100
0000
,
0001
0010
0001
0100
0001
0100
0010
1000
,
0000
0010
0000
0100
,
0001
1000
0010
0000
0010
0100
0001
0000
,
0010
1000
0100
0000
0010
0100
0010
0000
,
0010
0100
0001
1000
0001
0100
0010
0100
,
0010
0000
1000
0000
0001
0000
1000
0000
0001
0000
0000
0100
0000
0010
1000
0000
,
0010
0000
0100
0000
0010
0000
0000
0000
1000
0000
0000
1000
0100
0000
0001
0000
,
0001
0000
0000
0001
0100
0000
1000
0000
0100
0000
0000
0100
1000
0000
0100
0001
,
1000
0000
0000
1000
0010
0000
0001
0000
0010
0000
0000
0010
0001
0000
0000
0010
,
1000
0000
0000
0010
0100
0000
0000
0001
1000
0000
0000
0001
0100
0010
0000
0010
,
1000
0010
1000
0000
1001
0000
1010
0000
,
0001
0100
0001
0000
1001
0000
0101
0000
,
1000
0001
1000
0000
1001
0000
0110
0000
,
0001
1000
0001
1000
0100
0010
0100
0010
,
1000
0000
0100
0000
0000
0001
1000
0000
,
0010
0000
0100
0000
0000
0001
1000
0000
,
0010
0000
0100
0000
0000
0001
1000
0000
,
0010
0000
0100
0000
0001
1000
0010
0000
,
0010
0100
0001
0010
0100
0010
0001
0100
,
0010
1000
0010
0100
0001
0010
0001
0100
,
0010
1000
0001
0010
0001
0100
0010
1000
0001
0010
0100
0010
0100
1000
0100
0010
,
0002
0000
0000
0003
,
2002
0000
0000
0000
,
0000
0000
0000
0000
,
0000
0000
0000
0000
,
0000
0000
0000
0000
0000
0000
0000
0000
0000
0000
0000
0000
0000
0000
0000
3003
;
