#TITLE:A Blast Beat;
#ARTIST:Dúné;
#ARTISTTRANSLIT:Dune;
#GENRE:ROCK;
#MUSIC:A Blast Beat.ogg;
#BANNER:A Blast Beat.png;
#BACKGROUND:A Blast Beat-bg.png;
#SAMPLESTART:79.359;
#SAMPLELENGTH:15;
#OFFSET:-0.372;
#BPMS:0=158;
#BGSTAGE:31;

//--------------- dance-single - XLév450X-bSP ----------------
#NOTES:
     dance-single:
     XLév450X:
     Beginner:
     2:
     0,0,0,0,0:
0000
0000
0000
0000
,
0000
0000
0000
0000
,
0000
0000
0000
0000
,
0000
0000
0000
0000
,
0000
0000
0000
0000
,
0000
0000
0000
0000
,
0000
0000
0000
0000
,
0000
0000
0000
0000
,
0010
0000
0001
0000
,
0010
0000
0000
0000
,
1000
0000
0100
0000
,
1000
0000
0000
0000
,
1000
1000
0000
0000
,
0000
0000
0000
0000
,
0100
0100
0000
0000
,
0000
0000
0000
0000
,
0010
0010
0000
0000
,
0000
0000
0000
0000
,
0001
0001
0000
0000
,
0000
0000
0000
0000
,
1001
0000
0000
0000
,
0000
0000
0000
0000
,
0010
0000
0000
0000
,
0000
0000
0000
0000
,
0100
0000
0000
0000
,
0000
0000
0000
0000
,
0001
0000
0000
0000
,
0000
0000
0000
0000
,
1000
0000
0000
0000
,
0010
0000
0000
0000
,
1000
0000
0000
0000
,
0000
0000
0000
0000
,
0010
0000
0000
0000
,
0100
0000
0000
0000
,
0010
0000
0000
0000
,
0000
0000
0000
0000
,
0001
0000
0000
0000
,
0001
0000
0000
0000
,
0010
0000
0000
0000
,
0010
0000
0000
0000
,
0100
0000
0000
0000
,
0100
0000
0000
0000
,
1000
0000
0000
0000
,
1000
0000
0000
0000
,
0001
0000
0000
0000
,
1000
0000
0000
0000
,
0001
0000
0000
0000
,
0000
0000
0000
0000
,
1000
0000
0000
0000
,
0010
0000
0000
0000
,
1000
0000
0000
0000
,
0000
0000
0000
0000
,
0010
0010
0000
0000
,
0000
0000
0000
0000
,
0100
0100
0000
0000
,
0000
0000
0000
0000
,
1000
1000
0000
0000
,
0000
0000
0000
0000
,
0001
0001
0000
0000
,
0000
0000
0000
0000
,
0010
0000
0000
0000
,
0100
0000
0000
0000
,
0010
0000
0000
0000
,
0000
0000
0000
0000
,
1000
0000
0000
0000
,
0001
0000
0000
0000
,
1000
0000
0000
0000
;

//--------------- dance-single - XLév450X-BSP ----------------
#NOTES:
     dance-single:
     XLév450X:
     Easy:
     5:
     0,0,0,0,0:
0000
0000
0000
0000
,
0000
0000
0000
0000
,
0000
0000
0000
0000
,
0000
0000
0000
0000
,
0000
0000
0000
0000
,
0000
0000
0000
0000
,
0000
0000
0000
0000
,
0000
0000
0000
0000
,
0001
0000
1000
0010
,
0100
0000
0001
1000
,
0001
0010
1000
0100
,
0001
0010
0100
0000
,
1000
0010
0000
0100
,
0000
0001
0010
1000
,
0000
0001
0000
1000
,
0000
0100
0010
0100
,
0000
0001
0000
1000
,
0000
0010
0100
0010
,
0000
0001
0000
0010
,
0000
1000
0100
0010
,
0001
0000
1000
0000
,
0001
1000
0010
0100
,
2000
0000
0000
0000
,
0002
0000
0000
3003
,
1000
0000
0010
0000
,
0100
0001
0010
0100
,
0002
0000
0000
0000
,
2000
0000
0000
3003
,
1000
0010
0100
0001
,
0010
0100
1000
0000
,
0010
1000
0100
0001
,
0010
1000
0000
0001
,
1000
0010
0000
1000
,
0100
0010
0000
0100
,
0001
1000
0010
1000
,
0100
0001
1000
0010
,
0000
0001
0000
1000
,
0010
0100
0000
1000
,
0000
0010
0100
0010
,
0000
0001
0000
1000
,
0000
0010
1000
0010
,
0000
0101
0000
1010
,
0000
1000
0100
0010
,
0000
0001
0000
1000
,
0001
1000
0000
0010
,
1000
0010
0000
0001
,
0200
0000
0000
0000
,
0020
0000
0000
0330
,
1000
0000
0100
0000
,
0001
0000
1000
0010
,
0200
0000
0000
0000
,
0002
0000
0000
0303
,
1000
0000
0010
0000
,
0100
0001
0100
0000
,
1000
0000
0010
0000
,
0100
0000
0000
0000
,
1000
0000
0010
0000
,
0100
0001
1000
0000
,
0010
0000
1000
0000
,
0001
0000
0000
0000
,
0100
0000
1000
0000
,
0010
1000
0010
0000
,
0100
0000
0010
0000
,
1000
0000
0000
0000
,
0001
0000
1000
0000
,
0001
1000
0001
0000
,
0100
0000
0010
0000
,
1000
0001
1000
0000
,
2002
0000
3003
0000
;

//--------------- dance-single - XLév450X-DSP ----------------
#NOTES:
     dance-single:
     XLév450X:
     Medium:
     8:
     0,0,0,0,0:
0000
0000
0000
0000
,
0000
0000
0000
0000
,
0000
0000
0000
0000
,
0000
0000
0000
0000
,
0000
0000
0000
0000
,
0000
0000
0000
0000
,
0000
0000
0000
0000
,
0000
0000
0000
0000
,
0001
1000
0010
0000
,
0100
0010
0001
0010
,
0001
0010
0001
0000
0010
0100
0010
0000
,
0100
1000
0100
0000
0010
0100
0010
0000
,
0000
0001
1000
0001
,
0010
1000
0010
0202
,
0303
0001
1000
0010
,
0100
1000
0100
0220
,
0330
0010
0100
1000
,
0001
0010
0100
2200
,
3300
0001
1000
0010
,
0100
0000
0001
0000
0010
0000
0010
0100
,
0010
0001
1000
0010
,
0000
0001
0010
0001
,
0100
1000
0001
0100
,
0010
0000
1000
0000
0100
1000
0100
0000
,
0001
0010
0100
0001
,
0000
1000
0010
0100
,
0001
1000
0100
1000
,
0010
0100
0010
0000
0001
0010
0000
0000
,
0001
1000
0010
0100
,
1000
0000
0001
0000
1000
0001
1000
0000
,
0010
0000
0000
0100
0000
0000
0001
0000
,
0000
1000
0000
0000
0001
0000
0100
0000
,
1000
0010
0100
0001
,
1000
0000
0010
0000
1000
0010
1000
0000
,
0010
0000
0000
0100
0000
0000
0001
0000
,
0000
1000
0000
0000
0001
0000
0100
0000
,
1000
0001
0000
0010
,
1000
0010
0100
0001
,
1000
0001
0000
0010
,
1000
0010
0000
0100
,
0001
0010
1000
0001
,
0010
0000
0000
0202
0303
2020
3030
0220
,
0000
0330
0001
0000
1000
0000
0010
0000
,
0100
1000
0001
0010
,
1000
0001
0010
1000
,
0000
0000
0010
0000
0100
0000
1000
0001
,
0010
1000
0001
0100
,
1000
0001
0100
1000
,
0010
1000
0010
0100
,
0000
0001
0010
1000
,
0100
1000
0001
0100
,
2002
0000
0000
3003
,
1000
0010
1000
0100
,
0001
0000
0010
0000
0001
0010
0001
0000
,
0100
1000
0001
0100
,
0000
0001
1000
0010
,
0100
1000
0010
0100
,
0000
1000
0100
1000
,
0001
0010
0100
1000
,
0001
0010
0100
1000
,
0001
0010
1000
0010
,
0100
1000
0001
0100
,
0010
0000
1000
0010
,
0100
0001
0010
0100
,
1000
0001
1000
0010
,
0100
1000
0001
1000
,
0010
0100
1000
0010
,
0100
0000
0001
0000
0010
0100
0010
0000
,
2002
0000
3003
0000
;

//--------------- dance-single - XLév450X-ESP ----------------
#NOTES:
     dance-single:
     XLév450X:
     Hard:
     11:
     0,0,0,0,0:
0000
0000
0000
0000
,
0000
0000
0000
0000
,
0000
0000
0000
0000
,
0000
0000
0000
0000
,
0000
0000
0000
0000
,
0000
0000
0000
0000
,
0000
0000
0000
0000
,
0000
0000
0000
0000
,
0001
0000
1000
0000
0010
0100
0010
0000
,
0001
0000
0010
0000
1000
0001
1000
0000
,
0010
0100
0010
0000
0001
0010
0001
0000
,
1000
0001
0100
0010
1000
0001
0100
0010
,
1000
0001
1000
0010
,
0100
1000
0100
0000
0001
0010
0001
0000
,
0100
1000
0001
0010
,
1000
0100
0001
1000
0001
0100
0010
1000
,
0001
0010
1000
0010
,
0010
0100
0001
1000
0010
0100
1000
0001
,
0010
1000
0001
0100
,
0010
0000
0001
0000
1000
0000
0010
0000
0100
0000
0001
0000
1000
0000
0001
0100
,
1000
0000
0001
0000
0010
0001
1000
0000
,
0100
0000
0001
0010
0100
1000
0001
0010
,
0002
0000
0010
0000
0010
0000
0013
0100
,
2000
0100
0100
3100
,
0001
1000
0010
0100
,
0001
0000
0010
0001
0010
1000
0010
0100
,
0001
0000
1000
0000
0100
0000
0010
1000
,
0010
0000
0000
0000
0100
0000
0000
0000
0001
0000
0001
0000
0000
0000
1000
0100
,
0001
0000
0010
0000
1000
0001
0010
0000
,
0010
0000
0100
0000
1000
0001
0010
0000
,
0001
1000
0000
0010
0100
0000
1000
0010
,
0000
0001
0010
0100
1000
0001
0010
0100
,
1000
0000
0001
0000
1000
0100
1000
0000
,
0010
0000
0100
0000
0001
0010
0001
0000
,
0100
0000
1000
0000
0010
0100
0010
0000
,
1000
0000
0100
0000
0010
0100
0010
0000
,
0001
0010
0001
0000
1000
0000
0001
0000
,
0100
0000
1000
0000
0010
1000
0010
0000
,
0100
0000
1000
0000
0001
0000
0010
0100
,
1000
0000
0001
0000
1000
0010
0100
1000
,
0000
0001
0010
1000
,
0010
1000
0000
0101
0000
1010
0000
0110
,
1001
0001
1000
0010
,
1000
0001
0010
0000
0100
0000
1000
0000
,
0001
0010
0001
0000
0100
0000
1000
0000
,
0010
0000
1000
0100
1000
0001
0010
2000
,
0001
0000
3001
0000
0100
0000
1000
0001
,
2000
0010
3010
0100
,
1000
0000
0001
0000
0001
1000
0001
0000
,
1000
0000
0010
0100
1000
0010
2000
0000
,
3001
0000
0010
0000
0100
0010
0100
0000
,
0001
0000
0010
0000
0001
0100
1000
0000
0001
0000
0100
0000
0001
0100
1000
0100
,
0001
0000
0001
0000
1000
0010
1000
0000
,
0010
0000
0100
0000
0001
0010
0001
0000
,
0001
1000
0010
1000
,
0000
0001
0100
1000
,
0010
1000
0100
0010
,
1000
0010
1000
0000
0001
0000
0010
0000
,
0101
0010
1010
0010
,
0110
0001
1000
0001
,
1000
0001
1000
0000
0010
0000
1000
0000
,
0100
0010
0001
0011
,
0001
0101
0010
1010
,
0010
0000
0100
0000
1000
0000
0001
1000
,
0001
0010
1000
0100
,
0001
0000
0010
0000
1000
0010
1000
0000
,
0001
0100
1000
0001
,
1000
0001
1000
0010
0100
0001
0010
0100
,
2002
0000
3003
0000
;
