#TITLE:8347;
#ARTIST:Zekk;
#MUSIC:8347.ogg;
#BANNER:8347.png;
#BACKGROUND:8347-bg.png;
#CDTITLE:./CDTitles/DANCERUSH STARDOM.png;
#SAMPLESTART:16.756;
#SAMPLELENGTH:15;
#OFFSET:-0.141;
#BPMS:0=130
,68=65
,86=130
,153.5=65
,157.5=260
,158=130;
#STOPS:157.5=0.1;
#BGSTAGE:30;

//--------------- dance-single - XLev450X-bSP ----------------
#NOTES:
     dance-single:
     XLev450X:
     Beginner:
     3:
     0,0,0,0,0:
0000
0000
0000
0000
,
0000
0000
0000
0000
,
0000
0000
0000
0000
,
0000
0000
0000
0000
,
0000
0000
0000
0000
,
0001
1000
0010
0000
,
0100
0001
1000
0000
,
0010
0100
0001
1000
,
1001
0000
0000
0000
,
0010
0100
0010
0000
,
0010
0001
0010
0000
,
0100
1000
0001
0000
,
0010
0100
0001
0000
,
1000
0010
0100
0000
,
0001
0100
0010
1000
,
0001
0000
0100
0000
,
0010
1000
0001
0100
,
0010
0000
1000
0000
,
0000
0000
0001
0000
,
0000
0000
0010
0000
,
0000
0000
0100
0000
,
0000
0000
0001
0001
,
0001
0000
1000
1000
,
1000
0000
0010
0010
,
0010
0000
0100
0100
,
0100
0000
0001
0010
,
0001
0000
0100
1000
,
0100
0000
0010
0100
,
0001
1000
0010
0000
,
0000
0000
0000
0000
,
0000
0000
0100
0000
,
0001
0000
1000
0010
,
0100
0000
0001
0000
,
1000
0000
0010
0100
,
0001
0000
1000
0000
,
0001
0000
0010
0100
,
0001
0000
1000
0000
,
0001
0000
0010
0000
,
0000
0000
0000
0000
0000
0000
0000
0100
0000
0000
0000
0000
0000
0000
0000
0000
,
0000
0000
1000
0001
,
0100
0000
0010
1000
,
0001
0000
0100
0000
,
0010
0000
1000
0001
,
0100
0000
0010
0100
,
0001
0000
1000
0010
,
0100
0001
0010
0000
,
0100
0000
0001
0000
,
1000
0000
0010
0000
,
0100
0000
0001
1000
,
0010
0110
0000
0000
;

//--------------- dance-single - XLev450X-BSP ----------------
#NOTES:
     dance-single:
     XLev450X:
     Easy:
     5:
     0,0,0,0,0:
0000
0000
0000
0000
,
0000
0000
0000
0000
,
0000
0000
0000
0000
,
0000
0000
0000
0000
,
0000
0000
0000
0000
,
0001
1000
0001
0000
,
0010
0100
0010
0000
,
0010
1000
0001
0100
,
2002
3003
0220
0330
2200
3300
0022
0033
,
0010
0100
0001
0000
,
1000
0010
0100
0000
,
0001
0100
0010
1000
,
0001
0100
0010
0000
,
0001
1000
0010
0000
,
0100
1000
0001
0000
,
0100
0010
1000
0001
,
0100
0010
1000
0001
,
0220
0330
0001
0001
,
0002
0003
1000
1000
,
2000
3000
0010
0010
,
0020
0030
0100
0100
,
0200
0300
0010
1000
,
0001
0000
0100
0001
,
1000
0000
0010
0100
,
0001
0000
1000
0010
,
0100
0000
0001
1000
,
0010
0100
0001
1000
,
0010
0100
0001
1000
,
0001
0100
0020
0030
,
0200
0300
0002
0003
,
2000
3000
0010
0100
,
0001
1000
0010
0100
,
0001
1000
0010
0000
,
0100
0000
0001
1000
,
0010
0100
0001
0000
,
1000
0000
0001
0100
,
0010
1000
0001
0000
,
0100
0000
0010
1000
,
0001
0000
0000
0000
0100
0000
0000
0110
0000
0000
0000
1010
0000
0000
0000
0110
,
0000
0000
0000
1001
0000
0000
0000
0000
0010
0000
0000
0000
1000
0000
0000
0000
,
0001
0000
0001
1000
,
0010
0000
0100
0001
,
1000
0010
0100
0000
,
0001
0000
0010
1000
,
0100
0001
0010
0000
,
1000
0000
0010
0000
,
0100
0000
0001
1000
,
0001
0000
0010
0100
,
0001
1000
0010
0100
,
0001
0110
0000
0000
;

//--------------- dance-single - XLev450X-DSP ----------------
#NOTES:
     dance-single:
     XLev450X:
     Medium:
     8:
     0,0,0,0,0:
0000
0000
0000
0000
,
0000
0000
0000
0000
,
0000
0000
0000
0000
,
0000
0000
0000
0000
,
0000
0000
0000
0000
,
0001
1000
0010
0000
0100
0001
1000
0000
,
0010
0100
0001
0000
,
1000
0010
0100
0001
1000
0000
0010
0100
,
0001
1000
0010
0100
,
0001
1000
0010
0000
0100
0000
0001
0000
,
0010
0001
0100
0000
1000
0000
0000
0000
,
0001
0000
1000
0000
0010
0100
0001
0000
,
1000
0001
0100
0000
,
1000
0000
0001
0000
0100
0010
1000
0000
,
0001
0000
0100
0000
0010
0001
0100
0000
,
1000
0001
0100
0010
,
1000
0001
0100
0010
,
1001
0000
0010
0100
,
0001
1000
0010
0100
,
0001
0000
1000
0010
0100
0000
0001
0000
,
1000
0000
0001
0100
0010
0000
1000
0000
,
0010
0100
0001
1000
0010
0100
0001
1000
,
0010
0000
0100
0000
0001
1000
0010
0100
,
0001
0000
0010
0000
0010
0001
0010
0000
,
0100
1000
0100
0000
0010
0000
0100
0000
,
0001
1000
0010
0000
0101
0000
0010
1000
,
1010
0000
0001
0100
0110
0000
0001
1000
,
0110
0000
0001
1000
0101
0000
1010
0000
,
0110
1001
0001
1000
,
0010
0100
0001
1000
,
0010
0000
0100
0000
0001
0000
1000
0010
,
0100
0000
0001
0000
0010
0001
1000
0010
,
0100
0001
1000
0100
,
0001
1000
0010
0100
0001
0000
1000
0000
,
0010
0100
0001
1000
0010
0000
0100
0000
,
0001
0000
0000
0000
1000
0010
0100
0000
,
0010
0001
1000
0000
0010
0000
0100
0000
,
0001
0000
1000
0000
0010
0100
0001
1000
,
0010
0000
0100
0000
0001
0000
0000
0110
0000
0000
0000
1001
0000
0000
0000
0010
,
0000
0100
0000
0001
1000
0010
0100
0000
0001
0000
0000
0000
1000
0000
0010
0000
,
0100
0001
1000
0000
0010
0000
0100
0000
,
0001
0010
0001
0000
1000
0000
0010
0000
,
0100
0000
0001
1000
,
0010
0100
0001
0000
1000
0000
0010
0000
,
0100
0001
1000
0010
0100
0000
0001
0000
,
1000
0010
0001
1000
,
0010
0000
0100
0001
1000
0000
0010
0000
,
0100
0000
0001
1000
,
0001
0100
0010
1000
0001
0000
0100
0000
,
0010
1000
0101
0000
0000
0000
0000
0000
;

//--------------- dance-single - XLev450X-ESP ----------------
#NOTES:
     dance-single:
     XLev450X:
     Hard:
     10:
     0,0,0,0,0:
0000
0000
0000
0000
,
0000
0000
0000
0000
,
0000
0000
0000
0000
,
0000
0000
0000
0000
,
0000
0000
0000
0000
,
0001
1000
0010
0000
0100
0010
0001
0000
,
1000
0010
0100
0000
0001
1000
0010
0000
,
0100
0001
1000
0010
0100
1000
0001
0100
,
1001
0110
0101
1010
,
0010
0100
0001
0000
1000
0010
0100
0000
,
0001
1000
0010
0100
0001
1000
0101
0000
,
1010
0000
0010
0100
0001
1000
0010
0000
,
0100
0000
1000
0010
0100
0001
0010
0000
,
0100
0001
1000
0010
0100
0000
1000
0000
,
0010
0001
0100
1000
0010
0100
0001
0000
,
0100
0001
1000
0010
0100
1000
0001
0000
,
0101
0000
1010
0000
0010
0100
0001
1000
,
0010
0000
0000
0000
0001
1000
0010
0100
,
0001
0000
1000
0000
0010
0100
0001
0000
1000
0000
0010
0000
0100
1000
0010
0000
,
0100
0001
1000
0010
0000
0100
0001
0000
1000
0000
0010
0000
0100
0001
1000
0000
,
0010
0001
0100
0010
0000
1000
0001
0000
0100
0010
0001
0000
1000
0010
0100
0000
,
1000
0010
0100
0001
1000
0100
0010
0001
1000
0000
0010
0000
0100
0000
0001
0000
,
1000
0000
0010
0100
0001
0000
1000
0100
,
1000
0010
0100
0001
1000
0000
0100
0001
,
1000
0000
0010
0100
1000
0000
0001
0100
,
0010
0001
0100
0000
0010
0100
0001
0000
,
1000
0100
0010
0000
0001
0100
0010
0000
,
1000
0001
0100
0000
0001
1000
0010
0100
,
0001
0000
0000
0010
0000
0000
1000
0000
0000
0100
0000
0000
0001
0000
0000
0000
1000
0000
0000
0000
0010
0000
0000
0000
,
0100
0000
0001
0000
1000
0000
0010
0000
0100
0000
0001
1000
,
0010
0000
0000
0000
0100
0000
0000
0000
0000
0000
0000
0000
0001
0000
0000
0000
0000
0000
1000
0000
0000
0010
0000
0000
,
0100
0000
0001
0000
0010
0001
0100
1000
,
0010
0100
0001
0000
1000
0000
0010
0100
,
1000
0100
0001
0000
0010
0000
0100
0001
,
1000
0010
0100
0001
1010
0000
0101
0000
,
0010
0100
0001
0000
0010
0100
1000
0001
,
0100
0010
1000
0000
0001
0000
0100
0010
,
1000
0001
0100
0010
1000
0001
0100
0010
,
1000
0000
0001
0000
0100
0000
0000
1001
0000
0010
0100
0001
0000
1000
0000
0010
,
0100
1000
0001
0100
0010
1000
0001
0000
0010
0000
0000
0000
1000
0000
0001
0000
,
0100
0010
0001
0000
1000
0010
0100
0001
,
1000
0010
0100
0000
0010
0000
0001
0100
,
0010
1000
0001
0000
0010
0100
1000
0001
,
0010
0001
0101
0000
1010
0000
0010
0100
,
1000
0010
0100
0000
0001
1000
0010
0100
,
0001
1000
0010
0100
0001
0000
0100
0000
,
0010
1000
0001
0000
0100
0000
0010
0000
,
0001
0100
0010
0000
1000
0001
0100
0010
,
1000
0001
0100
0010
0101
0000
1010
0000
,
0110
1001
0000
0000
;

//--------------- dance-single - XLev450X-CSP ----------------
#NOTES:
     dance-single:
     XLev450X:
     Challenge:
     16:
     0,0,0,0,0:
0000
0000
0000
0000
,
0000
0000
0000
0000
,
0000
0000
0000
0000
,
0000
0000
0000
0000
,
0000
0000
0000
0000
,
0001
1000
0010
0100
0001
1000
0010
0100
,
0001
1000
0010
0001
0100
0010
1000
0001
,
0100
0010
0100
0010
0100
1000
0001
1000
0100
1000
0001
0010
0001
1000
0001
0100
,
0002
0003
2000
3000
0020
0030
0200
0300
,
0001
0000
1000
0000
0020
0000
0030
1000
0200
0000
0300
0010
0002
0000
0003
0000
,
1000
0000
0010
0000
0200
0000
0300
1000
0002
0000
0003
0000
1000
0000
0010
0000
,
0001
0000
1000
0010
0100
0001
1000
0010
0100
0000
0001
0000
1000
0000
0100
0010
,
0001
0000
0100
0001
1000
0010
0100
0001
1000
0100
0010
0000
0100
0000
0001
0000
,
1000
0000
0010
0000
0200
0000
0300
1000
0002
0000
0003
0010
2000
0000
3000
0000
,
0010
0000
0100
0000
0002
0000
0003
0010
2000
0000
3000
0000
0010
0000
0100
0000
,
0001
0000
0010
1000
0001
0100
0010
1000
0001
0000
0100
0000
0010
0000
1000
0000
,
0202
0000
0303
0000
2020
0000
3030
0000
0001
0100
0001
1000
0010
0100
0001
1000
,
0020
0000
0000
0000
0000
0030
0000
0000
0001
1000
0010
0100
0000
0010
0000
0000
,
0001
1000
0100
0010
0000
0001
0100
0000
0001
0000
0100
0010
0100
0000
1000
0000
,
0010
0100
0000
0001
0000
1000
0000
0000
0010
0000
0001
1000
0000
0000
0010
0000
,
0100
0001
1000
0010
0000
0000
0100
0000
0001
1000
0010
0100
0000
0000
0001
0000
,
0100
0010
1000
0001
0100
0000
0010
0000
0001
0000
1000
0000
0010
0000
0100
0000
,
0001
0000
0010
0100
0001
1000
0010
0100
,
0001
0000
0010
0000
0001
1000
0010
0100
,
0001
0000
0100
0000
0001
1000
0010
0100
,
0001
0000
1000
0000
0010
0100
0001
1000
,
0010
0100
1000
0001
0100
0010
0001
1000
,
0100
0000
0000
0010
0000
0000
1000
0000
0000
0001
0000
0000
0100
0010
0100
0010
0001
1000
0010
0100
0001
1000
0010
1000
,
0010
1000
0001
0100
0010
0100
0010
1000
0001
0010
0001
0100
0001
0000
0000
0000
1000
0000
0000
0000
0010
0000
0000
0000
,
0100
0000
0001
0000
1000
0001
0010
0000
0100
0000
0001
0000
,
1000
0000
0100
0000
0010
0000
0001
0000
0000
0000
0000
0000
1001
0000
0000
0000
0000
0000
0010
0000
0000
0100
0000
0000
,
0001
0000
1000
0000
0010
0100
0001
1000
,
0010
0000
0000
0000
0100
0000
0001
0000
1000
0000
0000
0000
0100
1000
0100
0010
,
0100
1000
0010
0100
0010
0000
0000
0000
0101
0000
0000
0000
0001
1000
0001
0100
,
0001
0100
0010
1000
0010
0000
0000
0000
1001
0000
0000
0000
0010
0000
0100
0000
,
0001
0000
1000
0000
0010
0100
0001
1000
,
0010
0000
0100
0001
0010
0000
1000
0010
,
0100
0001
1000
0000
0110
0000
0101
0000
,
1010
0000
0000
0000
0101
0000
0000
1001
0000
1000
0000
0010
0000
0100
0000
0001
,
1000
0010
0100
0001
1000
0010
0100
0000
0022
0000
0033
0000
0100
0010
0100
0010
,
0001
0100
0010
1000
0100
0010
0100
0000
0002
0000
0003
0000
0010
0100
0010
0100
,
0010
1000
0100
0010
0002
0000
0000
0003
0110
0000
0000
0000
0001
0000
1000
0000
,
0010
0000
0100
0000
0010
0001
1000
0010
,
0100
0000
0000
0000
0001
0000
0000
0000
1000
0000
0000
0000
0100
1000
0100
0010
,
0001
1000
0100
0010
0001
0100
0001
0000
0202
0000
0303
0000
2020
0000
3030
0000
,
0220
0330
2002
3003
0020
0030
0200
0300
,
0001
1000
0020
0030
0200
0300
0002
0003
,
1000
0000
0000
0010
0000
0000
0100
0000
0000
0001
0000
0000
0100
0010
0100
1000
0001
0100
0010
1000
0001
0010
0100
1000
,
0010
0100
0001
1000
0010
1000
0010
0100
0001
1000
0010
0100
0002
0000
0000
0003
0000
0000
2200
0000
0000
3300
0000
0000
,
0220
0330
1001
0000
0000
0000
0000
0000
;
