#TITLE:3.29.9;
#ARTIST:reo nagumo;
#GENRE:TECHNO;
#MUSIC:3.29.9.ogg;
#BANNER:3.29.9.png;
#BACKGROUND:3.29.9-bg.png;
#SAMPLESTART:0.496;
#SAMPLELENGTH:15;
#OFFSET:-0.052;
#BPMS:0=135;
#BGSTAGE:31;

//--------------- dance-single - XLev450X-bSP ----------------
#NOTES:
     dance-single:
     XLev450X:
     Beginner:
     2:
     0,0,0,0,0:
0000
0000
0000
0000
,
0000
0000
0000
0000
,
0000
0000
0000
0000
,
0000
0000
0000
0000
,
0000
0010
0000
0000
,
0000
0100
0000
0000
,
0010
0000
0000
0100
,
1000
0001
0000
0000
,
0000
0100
0000
0000
,
0000
0000
0000
0000
,
1000
0000
0000
0100
,
1000
0100
0000
0000
,
0000
0010
0000
0000
,
0000
0000
0010
0000
,
0000
0000
0100
0000
,
0000
0001
0010
0001
,
1000
0000
0000
0000
,
1000
0000
0000
0010
,
0000
0000
0000
0000
,
0000
0100
1000
0001
,
0000
0000
0000
0000
,
0000
0000
0000
0000
,
0000
0010
0000
0000
,
0000
0000
0000
0000
,
0000
0100
0000
0000
,
0000
0000
0000
0000
,
0000
0001
0000
0000
,
0000
0000
0000
0000
,
0000
0001
0000
0000
,
0000
0000
0000
0000
,
0000
0010
0000
0000
,
0000
0000
0000
0000
,
0000
0000
0100
0000
,
0000
0000
0000
0000
,
0000
0000
0000
0000
,
0000
0000
0000
0000
,
0000
0100
0000
0000
,
1000
0010
0000
0001
,
0010
0100
0000
0000
,
1000
0000
0000
0000
,
0000
0100
0000
0000
,
1000
0000
0000
0000
,
1000
0000
0000
0010
,
1000
0001
0000
0000
,
0000
0010
0000
0000
,
0000
0001
0000
0000
,
0000
0000
0000
0001
,
0010
0001
0100
0010
,
0100
1001
0000
0000
,
0000
0000
0000
0000
,
0000
0000
0000
0000
,
0000
0000
0000
0000
,
0000
0000
0000
0000
,
0000
0001
0000
0000
,
0000
0000
0000
0100
,
0000
0000
0000
0000
,
0000
0001
0000
0000
,
0000
0000
0000
0100
,
1000
0001
0000
0000
,
0000
0001
0000
0000
,
0000
0000
0000
0001
,
0100
0000
0000
0000
,
1000
0000
0000
0100
,
0000
0000
0000
0100
,
0000
0000
0000
0000
,
0010
0000
0000
0000
,
1000
0000
0000
0000
,
0000
0000
0000
0100
;

//--------------- dance-single - XLev450X-BSP ----------------
#NOTES:
     dance-single:
     XLev450X:
     Easy:
     8:
     0,0,0,0,0:
0000
0000
0000
0000
,
0000
0000
0000
0000
,
0000
0000
0000
0000
,
0000
0000
0000
0000
,
0000
0000
0010
1000
0100
0000
0010
0001
,
0100
0010
0100
0000
1000
0000
0001
0000
,
0010
0000
0000
0100
,
1000
0000
0001
0000
0100
1001
0000
0110
,
0000
0100
0010
0100
,
0000
0010
0100
0010
,
1000
0000
0000
0100
,
1000
0000
0100
1000
0010
0000
0000
0000
,
0000
0000
1010
0000
0100
0001
0100
0000
,
1000
0000
0010
0100
0010
0000
1000
0010
,
0100
0000
0100
0010
,
1000
0000
0001
0000
0010
0000
0001
0010
,
1000
0000
1000
0100
1000
0000
0001
0010
,
0100
0000
1000
0100
1000
0000
0010
0001
,
0010
0000
1001
0000
1001
0000
1001
0110
,
1001
0000
0100
0000
1000
0000
0001
0100
,
1000
2000
0000
0000
,
0000
3000
0000
0100
0010
0100
0000
1000
,
0100
1000
0000
0110
0000
1001
0000
0110
,
0000
1000
0100
0000
0010
0001
0000
0100
,
0010
0100
1000
0010
,
0100
0010
0100
0000
1000
0000
0100
0000
,
0010
0100
0001
0000
0100
0000
0001
0000
,
0010
1000
0100
0010
,
1000
0001
0010
0100
,
0001
1000
0100
0010
,
0100
0010
0000
0001
,
0010
0100
1000
0001
,
0010
0000
0100
0001
,
0010
0100
1000
1001
,
0110
0011
0110
1100
,
1001
0110
0011
0110
,
1001
0000
0100
0000
0000
0100
0010
0000
,
1000
0010
0000
0001
,
0010
0100
0001
0010
,
1000
0010
0000
0100
0000
0000
0010
0000
,
0000
0000
0000
0100
1000
0010
0001
0010
,
1000
0100
0001
0010
,
1000
0000
0000
0010
,
1000
0001
0100
0010
,
0000
0010
0100
0010
,
1000
0001
0100
0010
,
0100
0010
0100
0001
,
0010
0001
0100
0010
,
0100
0010
2002
0000
0000
0000
0000
0000
,
0000
0000
0000
0000
,
0000
3003
0100
0001
,
0010
0100
0010
0100
,
1000
2002
0000
0000
,
3003
0100
0010
0100
,
0010
0001
0010
0100
,
1000
0100
1000
0001
,
0100
0001
0100
0010
,
0100
0010
1000
0100
,
1000
0001
1000
0010
,
0100
0001
1000
0001
,
0100
0010
0100
0001
,
0100
0001
0010
0100
,
1000
0100
0010
0100
,
1000
0001
1000
0100
,
1000
0000
0010
0001
,
0010
0100
0010
0001
,
1000
0001
0100
0010
,
1000
0010
1000
0100
,
1001
0000
0000
0000
;

//--------------- dance-single - XLev450X-DSP ----------------
#NOTES:
     dance-single:
     XLev450X:
     Medium:
     9:
     0,0,0,0,0:
0000
0000
0000
0000
,
0000
0000
0000
0000
,
0000
0000
0000
0000
,
0000
0000
0000
0000
,
0000
0000
0010
1000
0100
0000
0010
0001
,
0100
0010
0100
0000
1000
0000
0001
0000
,
0010
0000
0000
0100
,
1000
0000
0001
0000
0100
1001
0000
0110
,
0000
0100
0010
0100
,
0000
0010
0100
0010
,
1000
0000
0000
0100
,
1000
0000
0100
1000
0010
0000
0000
0000
,
0000
0000
1010
0000
0100
0001
0100
0000
,
1000
0000
0010
0100
0010
0000
1000
0010
,
0100
0000
0100
0010
,
1000
0000
0001
0000
0010
0000
0001
0010
,
1000
0000
1000
0100
1000
0000
0001
0010
,
0100
0000
1000
0100
1000
0000
0010
0001
,
0010
0000
1001
0000
1001
0000
1001
0110
,
1001
0000
0100
0000
1000
0000
0001
0100
,
1000
2000
0000
0000
,
0000
3000
0000
0100
0010
0100
0000
1000
,
0100
1000
0000
0110
0000
1001
0000
0110
,
0000
1000
0100
0000
0010
0001
0000
0100
,
0010
0100
1000
0010
,
0100
0010
0100
0000
1000
0000
0100
0000
,
0010
0100
0001
0000
0100
0000
0001
0000
,
0010
1000
0100
0010
,
1000
0001
0010
0100
,
0001
1000
0100
0010
,
0100
0010
0000
0001
,
0010
0100
1000
0001
,
0010
0000
0100
0001
,
0010
0100
1000
1001
,
0110
0011
0110
1100
,
1001
0110
0011
0110
,
1001
0000
0100
0000
0000
0100
0010
0000
,
1000
0010
0000
0001
,
0010
0100
0001
0010
,
1000
0010
0000
0100
0000
0000
0010
0000
,
0000
0000
0000
0100
1000
0010
0001
0010
,
1000
0000
0100
0010
0001
0001
0010
0100
,
1000
0000
0000
0010
,
1000
0000
0001
0010
0100
0000
0010
0000
,
0000
0000
0010
0001
0100
0000
0010
0100
,
1000
0000
0001
1000
0100
0000
0010
0001
,
0100
0000
0010
0010
0100
1000
0001
0100
,
0010
0100
0001
0000
0100
0000
0010
0000
,
0100
0010
2002
0000
0000
0000
0000
0000
,
0000
0000
0000
0000
,
0000
3003
0100
0001
,
0010
0010
0100
0100
0010
0000
0100
0001
,
1000
0100
2001
0000
0010
0000
0001
0000
,
3010
0000
0100
1000
0010
0001
0100
0000
,
0010
0100
0001
0000
0010
0001
0100
0000
,
1000
0000
0010
0000
0100
0000
0000
0000
1000
0000
0000
0000
0001
1000
0000
0000
,
0100
0000
0001
0010
0100
0000
0010
0001
,
0100
0000
0010
0100
1000
0000
0100
0010
,
1000
0100
0001
0000
1000
0000
0010
1000
,
0100
0000
0001
0010
1000
0000
0001
1000
,
0100
0000
0010
0001
0100
0000
0001
0010
,
0100
0000
0001
0001
0010
1000
0100
0010
,
1000
0100
0010
0100
,
1000
0000
0001
0010
1000
0001
0100
0010
,
1000
0100
0000
0000
0010
0000
0001
0000
,
0010
0000
0100
0000
0010
0100
0001
0010
,
1000
0100
0001
1000
0100
0001
0010
0000
,
1000
0100
0010
0001
1000
0010
0100
0010
,
1001
0000
0000
0000
;

//--------------- dance-single - XLev450X-ESP ----------------
#NOTES:
     dance-single:
     XLev450X:
     Hard:
     14:
     0,0,0,0,0:
0000
0000
0000
0000
,
0000
0000
0000
0000
,
0000
0000
0000
0000
,
0000
0000
0000
0000
,
0000
0000
0001
1000
0001
0010
0001
0010
,
0100
0010
0001
0100
0010
1000
0010
0000
,
0101
0000
0000
0001
,
0100
0000
0000
0000
0001
0100
0000
1000
0010
0000
0001
0000
0100
0000
0010
0000
,
0100
0000
1000
0001
0010
0100
0010
0001
,
0010
0100
1000
0010
0100
0010
0100
0000
,
1100
0000
0000
1000
,
0010
0000
0000
0000
0010
0001
0000
0100
0010
0000
0001
0000
0100
0000
0010
0000
,
0100
0000
0000
0000
0001
0000
1000
0000
0010
0000
0100
0000
0001
0100
0000
1000
,
0001
0000
0100
0000
0000
0000
0100
0000
0001
0000
0100
0000
0010
1000
0000
0100
,
0001
1000
0100
0010
0100
0000
0001
0010
,
0100
0000
0001
0100
0001
0010
0100
1000
,
0001
0000
0001
0100
0001
0000
0100
1000
,
0010
0000
0001
1000
0001
0000
0001
1000
,
0010
0000
0001
1000
0010
0000
0010
1000
,
0001
0000
0100
0010
0001
0100
0010
0100
,
0001
2002
0000
0000
,
0000
0000
0000
0000
0000
0000
0000
0000
0000
0000
0000
0000
0000
0000
0000
0000
0000
0000
0000
0000
0000
0000
0000
0000
0000
0000
0000
0000
0000
0000
0000
0000
0000
0000
0000
0000
0000
0000
0000
0000
0000
0000
0000
0000
0000
0000
0000
0000
0000
0000
0000
0000
0000
0000
0000
0000
0000
0000
0000
0000
0000
0000
0000
0000
0000
0000
0000
0000
0000
0000
0000
0000
0000
0000
0000
0000
0000
0000
0000
0000
0000
0000
0000
0000
0003
3000
0000
0000
0000
0000
0000
0000
0000
0000
0000
0000
0000
0000
0000
0000
0000
0000
0000
0000
0000
0000
0000
0000
0000
0000
0000
0000
0000
0000
0000
0000
0000
0000
0000
0000
1000
0000
0000
0000
0000
0000
0000
0000
0000
0000
0000
0000
0000
0000
0000
0000
0000
0000
0000
0000
0000
0000
0000
0000
0100
0000
0000
0000
0000
0000
0000
0000
0000
0000
0000
0000
0000
0000
0000
0000
0000
0000
0000
0000
0000
0000
0000
0000
0010
0000
0000
0000
0000
0000
0000
0000
0000
0000
0000
0000
0000
0000
0000
0000
0000
0000
0000
0000
0000
0000
0000
0000
,
0001
0100
0010
0100
0000
0000
0001
1000
,
0001
0100
0001
1000
0000
0000
0100
0010
,
0001
0100
0001
1000
0000
0000
0100
1000
,
0001
0100
0010
1000
0000
0000
0100
0010
,
0100
1000
0100
1000
0000
0000
0010
0100
,
0001
0100
0010
1000
0000
0000
0001
0010
,
0001
0000
0010
0100
0001
1000
0010
0100
,
0001
1000
0001
0010
0100
0010
0001
0100
,
1000
0010
0001
1000
0010
0000
1000
0000
0010
0000
1000
0000
0100
0000
1000
0000
,
0010
0000
0100
0000
0010
0000
1000
0000
0100
0000
1000
0000
0100
0010
1000
0001
,
0010
0100
1000
0001
0100
0000
1000
0000
0001
0000
0010
0000
0100
0000
0010
0000
,
0100
0010
0001
1000
0010
0100
0001
0010
,
0100
0001
1000
0100
0010
0000
1000
0000
0010
0000
1000
0000
0001
0000
0100
0000
,
0001
0010
0001
0010
0100
0010
0100
1000
,
0100
0010
0001
0010
0001
0000
0000
0000
0100
0000
0010
0000
0001
0000
1000
0000
,
0100
1000
0010
0000
0010
0100
0010
0100
,
0001
0010
0100
0000
0100
0010
0100
0010
,
0001
0100
0000
1100
0000
0000
0001
1000
,
0010
0100
0000
0001
1000
0001
0010
0001
,
0010
0100
0010
0001
0100
0010
1000
0010
,
0101
0000
0000
0000
0000
0000
0001
0010
,
0100
0000
1000
0000
0001
0100
0000
1000
0010
0000
0001
0000
0100
0000
0010
0000
,
0100
0000
0000
0000
0001
0000
1000
0000
0010
0000
0100
0000
0001
0100
0000
1000
,
0001
0000
0100
0000
0000
0000
0100
0000
0001
0000
0100
0000
0010
1000
0000
0100
,
0001
1000
0001
1000
0100
0010
0100
0010
,
0001
0010
0001
0100
0010
0100
0001
1000
,
0001
0100
2020
0000
0000
0000
0000
0000
,
0000
0000
0000
0000
,
3030
0000
0001
1000
0010
1000
0001
1000
,
0100
0000
0010
0000
0001
0100
0001
1000
0010
0100
0001
0100
0001
0100
0010
1000
,
0100
0000
0000
0010
0000
0000
0100
0000
0000
1000
0000
0000
0001
0000
0000
0000
1000
0000
0000
0000
0010
0000
0000
0000
0100
0000
0000
0000
0001
0000
0000
0000
0010
0000
0000
0000
0100
0000
0000
0000
1000
0000
0000
0000
0010
0000
0000
0000
,
1000
0000
0001
0000
1000
0000
0001
0000
0000
0100
0000
0000
0010
0000
0000
0000
0000
0000
0100
0000
0000
0010
0000
0000
,
0001
0000
0001
1000
0100
0000
0100
0010
,
0001
0000
0000
0000
0100
0000
0010
0000
0100
0000
0000
0000
0001
1000
0000
0001
,
0100
1000
0100
0010
0001
0100
0001
0010
,
0100
0000
0100
0010
0001
1000
0010
1000
,
0100
0000
0001
0100
0010
0100
0001
0100
,
0001
0000
0000
0000
0000
0000
0010
0000
1000
0000
0001
0000
0100
0000
0000
1000
0000
0000
0001
0000
0000
1000
0000
0000
,
0100
1000
0000
0010
0001
0010
0100
0010
,
0100
1000
0000
0100
0001
1000
0010
1000
,
0010
1000
0000
0000
0010
0100
0010
1000
,
0100
1000
0000
0000
0010
1000
0010
1000
,
0100
0010
0001
0100
0010
1000
0100
1000
,
0001
0100
0001
1000
0001
0100
0010
1000
,
0010
1000
0100
0010
0100
1000
0010
1000
,
0010
1000
0100
0010
0001
1000
0001
1000
,
0010
0202
0000
0000
0000
0000
0303
0000
;
