#TITLE:20,NOVEMBER (D.D.R. version) (RGR-Special);
#ARTIST:N.M.R. feat. DJ.nagureo;
#GENRE:DDR REMIX;
#MUSIC:20,NOVEMBER (D.D.R. version) (RGR-Special).ogg;
#BANNER:20,NOVEMBER (D.D.R. version) (RGR-Special).png;
#BACKGROUND:20,NOVEMBER (D.D.R. version) (RGR-Special)-bg.png;
#CDTITLE:./CDTITLES/DANCE DANCE REVOLUTION 2NDMIX.PNG;
#SAMPLESTART:53.499;
#SAMPLELENGTH:15;
#BPMS:0=130.095;
#BGSTAGE:1;
#DISPLAYBPM:130;

//--------------- dance-single - XLev450X ----------------
#NOTES:
     dance-single:
     XLev450X:
     Challenge:
     15:
     0,0,0,0,0:
0000
0000
0000
0000
,
0000
0000
0000
0000
,
0000
0000
0000
0000
,
0000
0000
0000
0000
,
0000
0000
0000
0000
,
0001
0000
0100
0000
1000
0000
0010
1000
0100
0001
0010
0000
1000
0000
0100
0000
,
0010
0000
0100
0000
0001
0000
1000
0010
0100
0000
0001
0000
1000
0000
0010
0000
,
0100
0000
0001
0000
1000
0000
0010
0100
0001
0000
1000
0000
0010
0000
0100
0000
,
0001
0000
1000
0000
0010
0000
0100
0000
0001
1000
0010
0100
0001
1000
0010
0100
,
0001
0000
1000
0000
0010
0000
0001
0100
0010
0000
1000
0000
0001
0000
0100
0000
,
0010
0000
1000
0000
0001
0000
0100
0010
0100
0000
0001
0000
0010
0000
1000
0010
,
0100
0000
0001
0000
1000
0000
0010
0100
0001
0000
1000
0000
0010
0000
0100
0000
,
0001
0100
0010
0000
1000
0001
0100
0000
0010
1000
0001
0000
0100
0010
1000
0000
,
0001
0001
1000
0010
0100
0001
1000
0000
,
0010
0100
0001
1000
0010
0100
0001
0010
,
1000
0001
0020
0030
0100
0001
0010
1000
,
0001
0000
0100
0000
0010
0000
1000
0000
0001
0100
0010
1000
0001
0010
0100
0001
,
1000
0000
0010
0000
0000
0001
0000
0000
0010
0000
1000
0000
0000
0010
0000
0000
,
0001
0000
1000
0000
0000
0010
0000
0000
0100
0000
0010
0000
0000
0100
0000
0000
,
0001
0000
0100
0000
0000
0010
0000
0000
0001
0000
1000
0000
0000
0010
0000
0000
,
0100
0000
0001
0000
0000
1000
0000
0000
0001
1000
0001
0010
1000
0010
0001
1000
,
0010
1000
0001
0100
0010
0001
1000
0010
,
0100
0000
0001
0000
1000
0000
0010
0000
0100
0001
1000
0010
0100
0000
0001
0000
,
1000
0010
0100
1000
0010
0001
0100
1000
,
0010
0000
0100
0000
0001
0000
1000
0000
0010
0100
0001
1000
0010
0000
0100
0000
,
0001
0000
1000
0000
0010
0000
1000
0100
0001
0000
1000
0000
0010
0000
0100
0000
,
0001
0000
1000
0000
0010
0000
0100
0000
0001
1000
0010
0000
0100
0000
0001
0000
,
1000
0000
0010
0000
1000
0100
0001
0000
1000
0000
0010
0000
0100
0000
0001
0000
,
1000
0010
0100
0000
0001
1000
0010
0000
0100
0001
1000
0000
0010
0100
0001
0000
,
1000
0010
0000
0100
0000
0001
0000
0010
0000
0000
0000
0000
0001
0000
1000
0000
,
0010
0100
0000
0001
0000
1000
0000
0010
0000
0000
0001
0000
1000
0000
0010
0000
,
0100
0001
0000
1000
0000
0010
0000
0001
0000
0000
0000
0000
0010
0000
1000
0000
,
0010
1000
0000
0001
0000
0100
0000
0010
0000
0000
1000
0000
0001
0000
0100
0000
,
0010
1000
0000
0001
0000
0100
0010
0000
0000
0000
1000
0000
0001
0000
0100
0000
,
0010
1000
0000
0001
0000
0100
0000
0010
0000
0000
0001
0000
0010
0000
1000
0000
,
0001
0100
0000
0010
0000
1000
0000
0001
0000
0000
0100
0000
0010
0000
1000
0000
,
0001
0010
0100
1000
0010
1000
0100
0001
0100
0010
0100
1000
0001
0100
0010
0100
,
1001
0000
0000
0000
;
