#TITLE:1-2-3 Jump!;
#ARTIST:まろん (IOSYS) ft. Renko;
#ARTISTTRANSLIT:MARON (IOSYS) ft. Renko;
#MUSIC:1-2-3 Jump!.ogg;
#BANNER:1-2-3 Jump!.png;
#BACKGROUND:1-2-3 Jump!-bg.png;
#CDTITLE:./CDTitles/DANCE aROUND.png;
#SAMPLESTART:26.209;
#SAMPLELENGTH:15;
#OFFSET:-0.027;
#BPMS:0=110;
#BGSTAGE:17;

//--------------- dance-single - XLev450X-bSP ----------------
#NOTES:
     dance-single:
     XLev450X:
     Beginner:
     3:
     0,0,0,0,0:
0000
0000
0000
0000
,
0000
0000
0000
0000
,
0000
0000
0000
0000
,
0000
0000
0000
0000
,
1000
0000
0000
0000
,
0001
0000
0000
0000
,
0010
0000
0000
0000
,
0100
0000
0000
0000
,
0001
0000
1000
0000
,
0001
0000
0000
0000
,
0010
0000
0100
0000
,
0010
0000
0000
0000
,
0001
0001
0001
0000
,
1000
1000
1000
0000
,
0010
0010
0010
0000
,
0100
0100
0100
0000
,
0010
0100
0010
1000
,
0001
0100
0010
1000
,
0001
0100
0010
1000
,
0001
0100
0010
1000
,
1001
0000
0000
0000
,
0001
0001
0001
0000
,
1000
1000
1000
0000
,
0010
0010
0010
0000
,
0100
0100
0100
0000
,
1001
0000
0010
0010
,
0010
0010
0100
0100
,
0100
0100
0001
0001
,
0001
0001
1000
1000
,
1000
1000
0010
0000
,
0000
0000
0100
0000
,
0000
0000
0001
0000
,
0000
0000
1000
0000
,
0000
0000
0010
0100
,
0010
0000
0010
0001
,
0010
0000
0100
1000
,
0100
0000
0010
0100
,
1000
0000
0001
0000
,
1000
0000
0010
0000
,
0100
0000
0010
0010
,
0010
0000
0001
0001
,
0001
0000
1000
1000
,
1000
0000
0100
0100
,
0100
0000
0010
0100
,
0010
0000
1000
0001
,
1000
0000
0010
0100
,
0001
1000
0010
0100
,
0001
0000
1000
0000
,
0100
0000
0010
0000
,
0001
0000
0000
0000
;

//--------------- dance-single - XLev450X-BSP ----------------
#NOTES:
     dance-single:
     XLev450X:
     Easy:
     6:
     0,0,0,0,0:
0000
0000
0000
0000
,
0000
0000
0000
0000
,
0000
0000
0000
0000
,
0000
0000
0000
0000
,
0001
1000
0010
0000
,
0100
0001
1000
0000
,
0001
0010
1000
0010
,
0100
0001
1000
0000
,
0001
1000
0010
0000
,
0100
1000
0001
0000
,
0010
0100
0001
1000
,
0010
0001
0100
0000
,
0001
1000
0010
0100
,
0001
1000
0100
0000
,
0010
0001
1000
0010
,
0100
0000
0001
0000
0100
0010
0001
0000
,
1000
0010
0100
0001
,
1000
0010
0100
0000
,
0001
1000
0010
0100
,
0001
0000
0100
0000
0010
0100
0001
0000
,
2200
3300
0022
0033
2002
3003
0220
0330
,
0001
1000
0010
0100
,
0001
1000
0010
0100
,
0001
0010
1000
0010
,
0100
0001
1000
0010
,
2002
0000
0000
3003
0001
0000
1000
0000
,
0010
0100
0001
1000
,
0010
0100
0001
1000
,
0010
0100
0220
0000
,
0000
0000
0000
0330
0001
0000
1000
0000
,
0010
0000
0100
0001
,
1000
0000
0010
0100
,
0001
1000
0010
0100
,
0001
0000
1000
0010
,
0100
0001
2002
0000
,
0000
0000
0000
3003
0010
0000
1000
0000
,
0001
0100
0010
1000
,
0010
0000
0001
1000
,
0010
0100
0001
1000
,
0010
1001
0010
0100
,
0001
1000
0010
0100
,
0001
1000
0010
0100
,
0001
1000
0010
0100
,
0001
0000
0100
1000
,
0001
0100
0010
1000
,
0010
0100
0001
1000
,
0010
0100
0001
1000
,
0010
0000
0100
0001
,
1000
0000
0100
0001
,
1000
0220
0330
0000
;

//--------------- dance-single - XLev450X-DSP ----------------
#NOTES:
     dance-single:
     XLev450X:
     Medium:
     7:
     0,0,0,0,0:
0000
0000
0000
0000
,
0000
0000
0000
0000
,
0000
0000
0000
0000
,
0000
0000
0000
0000
,
0010
1000
0001
0000
0100
0010
0001
0000
,
1000
0010
0100
0001
1000
0000
0010
0000
,
0100
0001
1000
0000
0010
0100
1000
0000
,
0010
0100
0001
1000
,
0010
0100
0001
0000
1000
0010
0100
0000
,
0001
1000
0010
0100
0001
0000
0010
0000
,
1000
0001
0100
0000
0010
1000
0001
0000
,
0100
0000
0010
0000
1000
0001
0100
0000
,
0010
0000
0100
0000
0001
1000
0010
0000
,
0100
0000
0001
0000
1000
0010
0100
0000
,
0001
0000
1000
0000
0010
0100
0001
0000
,
0011
0000
1001
0000
0010
0100
0001
0000
,
1000
0010
0100
0001
,
1000
0000
0010
0000
0100
0001
1000
0000
,
0010
0000
0100
0000
0001
1000
0010
0000
,
0100
0000
0001
0000
1000
0010
0100
0000
,
2200
3300
0022
0033
2002
3003
0220
0330
,
0010
0100
0001
0000
1000
0010
0100
0000
,
0001
1000
0010
0100
0001
0000
1000
0000
,
0010
0100
0001
0000
1000
0010
0100
0000
,
0001
1000
0010
0100
0001
0000
1000
0000
,
2002
0000
0000
3003
0010
0100
0001
0000
,
1000
0010
0100
0000
0001
1000
0010
0000
,
0100
0001
1000
0000
0010
0100
0001
0000
,
1000
0010
0100
0000
0022
0000
0000
0000
,
0000
0000
0033
0000
0010
0100
1000
0000
,
0010
0100
0001
0000
1000
0010
0100
0000
,
0001
1000
0010
0000
0100
0000
0001
0000
,
1000
0010
0100
0000
0001
0000
1000
0000
,
0010
0100
0001
0000
1000
0000
0010
0000
,
0100
0001
1000
0000
0010
0000
0100
0000
,
0001
1000
0010
0000
0100
0000
0001
0000
,
1000
0010
0100
0001
,
1000
0010
0100
0000
0001
0000
1000
0000
,
0010
0000
0220
0330
0001
0000
1000
0000
,
0010
0100
2002
3003
0010
0100
0001
0000
,
1000
0010
0100
0000
0010
0100
0001
1000
,
0010
0000
0100
0000
0010
1000
0001
0000
,
0100
0010
1000
0000
0001
0000
0100
0000
,
0010
0100
1000
0000
0001
0000
1000
0000
,
0010
0100
0001
0000
1000
0000
0010
0000
,
0100
0001
1000
0000
0010
0000
0100
0000
,
0001
1000
0010
0000
0100
0000
0001
0000
,
1000
0010
0100
0000
0001
0000
1000
0000
,
0010
0100
0001
1000
,
0010
0000
0000
0100
0000
0000
2002
0000
0000
0000
3003
0000
0000
0000
0000
0000
0000
0000
0000
0000
0000
0000
0000
0000
;

//--------------- dance-single - XLev450X-ESP ----------------
#NOTES:
     dance-single:
     XLev450X:
     Hard:
     11:
     0,0,0,0,0:
0000
0000
0000
0000
,
0000
0000
0000
0000
,
0000
0000
0000
0000
,
0000
0000
0000
0000
,
0001
0100
0010
0000
0001
0010
0100
0000
,
0001
0000
1000
0000
0100
0000
0010
0000
0001
0000
1000
0010
0100
0000
1000
0000
,
0100
0010
0001
0000
0001
1000
0100
0000
,
0001
0000
0010
0000
0100
0000
0010
0000
0001
0000
0100
0010
0100
0000
1000
0000
,
0001
1000
0100
0000
0001
0100
0010
0000
,
0010
0000
1000
0000
0001
0000
0100
0000
0001
0000
0100
0010
0001
0100
1000
0000
,
0010
1000
0100
0000
0001
0100
0010
0000
,
0001
0000
0010
0000
0100
0000
1000
0000
0001
0000
0010
1000
0010
1000
0010
0100
,
0010
0000
0000
0000
0001
0100
0000
0010
0000
0000
1000
0000
0001
0000
0010
0000
,
0001
0000
0000
0000
0010
0001
0000
0010
0000
0000
0010
0000
0100
0000
1000
0000
,
0100
0000
0000
0000
0001
1000
0000
0100
0000
0000
0100
0000
0001
0000
1000
0000
,
0010
0000
0000
0100
0010
0000
0000
0100
0001
0000
1000
0000
0100
0000
0010
0000
,
0100
0000
0000
0000
0100
1000
0000
0100
0000
0000
0100
0000
0010
0000
1000
0000
,
0001
0000
0000
0000
0010
0100
0000
0010
0000
0000
0100
0000
0010
0000
1000
0000
,
0001
0000
0000
0000
0001
1000
0000
0010
0000
0000
0010
0000
0001
0000
0100
0000
,
0010
0000
0000
0100
0001
0000
0000
0010
0001
0000
0100
0000
0010
0000
0100
0000
,
0022
0000
0033
0000
2020
0000
3030
0000
0202
0303
1000
0010
0100
0000
0000
0000
,
0100
0000
1000
0000
0001
1000
0001
1000
0010
0000
0100
0000
0001
0000
1000
0000
,
0010
0000
0100
0000
0010
1000
0001
0100
0010
0000
1000
0000
0001
0000
0100
0000
,
0010
0000
1000
0000
0010
1000
0001
0100
0010
0000
0100
0000
0001
0000
1000
0000
,
0100
0000
1000
0000
0001
1000
0100
0001
0010
0000
0100
0000
0001
0000
1000
0000
,
0020
0000
0000
0000
0000
0000
0030
0000
0100
0010
0100
1000
0010
0100
0001
1000
,
0001
0000
1000
0000
0010
0000
1000
0000
0100
0000
0010
0000
0001
0010
0100
1000
,
0010
0000
1000
0000
0010
0000
0100
0000
0010
0000
1000
0000
0100
0010
0100
1000
,
0100
0010
0100
0010
2002
0000
0000
0000
,
0000
0000
0000
3003
0001
0100
0010
0000
,
0001
0010
0100
0000
0001
1000
0100
0010
,
0001
0000
1000
0010
0100
0000
1000
0000
0100
0000
0010
0000
0001
0000
0000
0000
,
0001
1000
0100
0000
0001
0010
0100
0010
,
0001
0000
0100
0010
0100
0000
1000
0000
0001
0000
1000
0000
0100
0000
0000
0000
,
0001
0100
0010
0000
0010
1000
0001
0100
,
0001
0000
0100
0000
0010
0100
0001
1000
0010
0000
1000
0000
0100
0000
0000
0000
,
0001
0100
0010
0000
0001
0010
0100
1000
,
0001
0000
0010
0001
0100
1000
0001
1000
0010
0000
1000
0000
0001
0000
1000
0000
,
0010
1000
0010
0000
0001
0010
0001
1000
,
0100
0000
0010
0100
0001
0000
0000
0000
0010
0000
0000
0000
0001
0100
0000
0010
,
0000
0000
1000
0000
0001
0000
0010
0000
0001
0000
0000
0000
0010
0001
0000
0010
,
0000
0000
0010
0000
0100
0000
1000
0000
0100
0000
0000
0000
0001
1000
0000
0100
,
0000
0000
0100
0000
0001
0000
1000
0000
0010
0000
0000
0100
0010
0000
0000
0100
,
0001
0000
1000
0000
0100
0000
0010
0000
0100
0000
0000
0000
0100
1000
0000
0100
,
0000
0000
0100
0000
0010
0000
1000
0000
0001
0000
0000
0000
0010
0100
0000
0010
,
0000
0000
0100
0000
0010
0000
1000
0000
0001
0000
0000
0000
0001
1000
0000
0010
,
0000
0000
0010
0000
0001
0000
0100
0000
0010
0000
0000
0100
0001
0000
0000
0010
,
0001
0000
0100
0000
0010
0000
0100
0000
0001
0000
0000
0000
0100
0010
0000
1000
,
0000
0000
0100
0000
0001
0000
1000
0000
0001
0000
0000
0000
0010
1000
0000
0010
,
0000
1000
0202
0303
0000
0000
0000
0000
;

//--------------- dance-single - 車 (RGR)-CSP ----------------
#NOTES:
     dance-single:
     車 (RGR):
     Challenge:
     7:
     0,0,0,0,0:
0000
0000
0000
0000
,
0000
0000
0000
0000
,
0000
0000
0000
0000
,
0000
0000
0000
0000
,
0010
1000
0001
0000
0100
0010
0001
0000
,
1000
0010
0100
0001
1000
0000
MMMM
0000
,
0100
0001
1000
0000
0010
0100
1000
0000
,
0010
0100
0001
MMMM
,
0010
0100
0001
0000
1000
0010
0100
0000
,
0001
1000
0010
0100
0001
0000
MMMM
0000
,
1000
0001
0100
0000
0010
1000
0001
0000
,
0100
0010
1000
MMMM
,
0010
0100
0001
MMMM
,
0100
0001
1000
MMMM
,
0001
1000
0010
MMMM
,
0011
1001
0010
MMMM
,
1000
0010
0100
MMMM
,
1000
0010
0100
MMMM
,
0010
0100
0001
MMMM
,
0100
0001
1000
MMMM
,
2200
3300
0022
0033
2002
3003
0220
0330
,
0010
0100
0001
0000
1000
0010
0100
0000
,
0001
1000
0010
0100
0001
0000
MMMM
0000
,
0010
0100
0001
0000
1000
0010
0100
0000
,
0001
1000
0010
0100
0001
0000
MMMM
0000
,
2002
0000
0000
3003
0010
0100
0001
0000
,
1000
0010
0100
0000
0001
1000
0010
0000
,
0100
0001
1000
0000
0010
0100
0001
0000
,
1000
0010
0100
0000
0022
0000
0000
0000
,
0000
0000
0033
0000
0010
0100
1000
0000
,
0010
0100
0001
0000
1000
0010
0100
0000
,
0001
MMMM
0100
0001
,
1000
0010
0100
0000
0001
0000
1000
0000
,
0010
MMMM
1000
0010
,
0100
0001
1000
0000
0010
0000
0100
0000
,
0001
MMMM
0100
0001
,
1000
0010
0100
0001
,
1000
MMMM
0001
1000
,
0010
0000
0220
0330
0001
0000
1000
0000
,
0010
0100
2002
3003
0010
0100
0001
0000
,
1000
0000
MMMM
0000
0010
0100
0001
1000
,
0010
0000
MMMM
0000
0010
1000
0001
0000
,
0100
MMMM
0001
0100
,
0010
MMMM
0001
1000
,
0010
MMMM
1000
0010
,
0100
MMMM
0010
0100
,
0001
MMMM
0100
0001
,
1000
MMMM
0001
1000
,
0010
0100
0001
1000
,
0010
0000
0000
0100
0000
0000
2002
0000
0000
0000
3003
0000
0000
0000
0000
0000
0000
0000
0000
0000
0000
0000
0000
0000
;
