#TITLE:kioku;
#SUBTITLE:[unconnected];
#ARTIST:atmbzk;
#TITLETRANSLIT:;
#SUBTITLETRANSLIT:;
#ARTISTTRANSLIT:;
#GENRE:;
#CREDIT:C. Grab;
#BANNER:Kioku-BN.png;
#BACKGROUND:Kioku-BG.png;
#LYRICSPATH:;
#CDTITLE:;
#MUSIC:kiokuuc.ogg;
#OFFSET:-0.055;
#SAMPLESTART:60.000;
#SAMPLELENGTH:15.000;
#SELECTABLE:YES;
#DISPLAYBPM:140.000;
#BPMS:0.000=140.000,91.000=280.000,92.000=140.000,225.500=560.000;
#STOPS:91.000=0.214
,179.000=0.322
,193.750=0.214
;
#BGCHANGES:;
#KEYSOUNDS:;

//---------------dance-single - C. Grab----------------
#NOTES:
     dance-single:
     C. Grab:
     Challenge:
     10:
     1.000,1.000,1.000,1.000,1.000:
0000
0000
0000
0000
,
0000
0000
0000
0000
,
0000
0000
0000
0000
,
0000
0000
0000
0000
,
0000
0000
0000
1000
0000
0100
0010
0101
,
0000
0000
0000
0000
0000
0000
1000
0000
0000
0000
0100
0010
0001
0000
0101
0000
,
0000
0000
0000
1000
0000
0100
0010
0101
,
0000
0000
0000
0000
0000
0000
0000
0000
0000
0000
0000
0000
0000
0000
0000
0000
0000
0000
0000
0000
0000
0000
0000
0000
0000
0000
0000
0000
0000
0000
0000
0000
0000
0000
0000
0000
0000
0000
0000
0000
0000
0000
2000
0200
0000
0000
0000
0000
,
0000
0000
0000
0000
0000
0000
0000
0000
0000
0000
0000
0000
0000
0000
0000
3300
,
MMMM
0000
0000
1000
0000
1000
0000
0000
0010
0100
0000
0010
0000
1000
0100
0010
,
0100
0000
0000
0010
0000
0010
0000
0000
0001
1000
0000
0010
0000
0100
0001
1000
,
0001
0000
0000
0010
0000
0010
0000
0000
0100
1000
0000
0010
0000
0100
0001
0010
,
0001
0000
0000
1000
0000
1000
0000
0000
0100
0010
0000
0100
0000
1000
0010
0100
,
0001
0000
0000
0100
0000
0100
0000
0000
0010
1000
0000
0001
0000
0010
0100
1000
,
0100
0000
0000
0010
0000
0010
0000
0000
0001
1000
0000
0010
0000
0100
0001
1000
,
0001
0000
0000
0010
0000
0010
0000
0000
0100
1000
0000
0001
0000
1000
0001
0100
,
0001
0000
0000
0100
0000
0100
0000
0000
0010
0100
0000
0001
0000
0010
0100
1000
,
0010
0000
0000
0100
0000
0100
0000
0000
0010
1000
0000
0001
0000
0010
0001
1000
,
0001
0000
0000
0100
0000
0100
0000
0000
0010
1000
0000
0001
0000
1000
0100
0010
,
0100
0000
0000
1000
0000
1000
0000
0000
0001
0100
0000
0010
0000
0100
0010
1000
,
0010
0000
0000
0100
0000
0100
0000
0000
0010
1000
0000
0001
0000
0010
0001
0100
,
0010
0000
0000
1000
0000
1000
0000
0000
0000
0002
0000
2003
3000
1100
0100
0000
,
0010
0000
0001
1000
0000
1000
0000
0000
0000
0020
0000
2030
300M
0000
0000
0000
,
1001
0000
0000
0001
0000
0001
0000
0000
0010
0100
0000
1000
0000
0100
1000
0010
,
1000
0000
0000
0100
0000
0100
0000
0000
0010
0001
0000
1000
0000
0040
0000
0000
,
0230
0000
1000
0000
,
0302
0000
0000
0000
0000
0000
0000
0000
0000
0000
0000
0000
0000
2000
0000
3000
,
0023
0000
0000
0000
0000
0000
0000
0000
0200
0000
0000
0000
0300
0000
0032
2003
,
3020
0000
0000
2000
0000
0000
0030
0000
,
3200
0000
0001
0000
,
2300
0000
0000
0000
0000
0000
0000
0000
0000
0000
0000
0000
0000
0002
0000
0003
,
3020
0000
0000
0200
0000
0000
0000
0300
,
2030
0000
0000
0200
0000
0000
3000
0000
,
0320
0000
1000
0000
,
0032
0000
0000
0000
0000
0000
0000
0000
0000
0000
0000
0000
0000
2000
0000
3000
,
0203
0000
0000
0000
0000
0000
0000
0000
0020
0000
0000
0000
0030
0000
0302
2003
,
3200
0000
0000
2000
0000
0000
0300
0000
,
3020
0000
0001
0000
,
2030
0000
0000
0000
0000
0000
0000
0000
0000
0000
0000
0000
0000
0002
0000
0003
,
3200
0000
0000
0020
0000
0000
0000
0030
,
2300
0000
0000
3020
0000
0000
0000
0000
,
0130
0001
0100
0010
1000
0001
0000
1000
0100
0010
0100
0000
0010
0001
1000
0010
,
0100
0001
0010
0100
0010
0001
0000
1000
0010
0100
0001
0000
1000
0010
0100
0001
,
0100
0001
1000
0100
1000
0001
0000
0010
0001
0100
0001
0000
0010
0001
1000
0010
,
0100
0010
1000
0100
0010
0001
0000
0100
0010
0100
0001
0000
1M00
0010
1000
0001
,
1000
0100
0010
0000
0001
1000
0010
0100
0000
0010
0100
0001
0100
0001
1000
0100
,
0010
0100
1000
0000
0010
0100
0010
1000
0000
0001
0100
0001
1000
0010
1000
0100
,
0010
0001
0010
0000
0001
0100
0010
1000
0000
0001
0100
0010
0100
0001
0010
0100
,
0010
0001
1000
0000
0010
0100
0010
1M00
0002
0000
0000
0013
0000
0000
0100
0000
,
0100
0010
0000
0000
0000
0001
0000
1000
0001
0000
0100
0000
0000
0000
0010
0000
,
0010
0100
0000
0000
0000
0010
0000
1000
0001
0000
0010
0100
0000
0000
1000
0000
,
1000
0001
0000
0000
0000
1000
0000
0010
0100
0000
0001
0000
1000
0000
1000
0000
,
0000
0000
0100
0000
0100
0000
0100
0000
0000
0010
0000
0001
0000
0000
1000
0000
,
1000
0010
0000
0000
0000
0100
0000
0001
1000
0000
0100
0000
0000
0000
0010
0000
,
0010
0100
0000
0000
0000
1000
0000
0001
0100
0000
0010
0000
0000
0000
1000
0000
,
1000
0001
0000
0000
0000
0010
0000
0100
1000
0000
0001
0000
0100
0000
0100
0000
,
0000
0010
0010
2000
0000
0000
0000
0000
,
0000
0000
0000
0000
,
0000
0000
0000
0000
,
0000
0000
0000
0000
,
0000
0000
0000
0000
,
0000
0000
0000
0000
0000
3000
0000
0000
;
