#TITLE:TSUGARU (X-Special);
#SUBTITLE:;
#ARTIST:RevenG vs DE-SIRE;
#TITLETRANSLIT:#22TSUGARU (X-Special);
#SUBTITLETRANSLIT:;
#ARTISTTRANSLIT:;
#GENRE:;
#CREDIT:;
#MENUCOLOR:#F90000;
#METERTYPE:DDR;
#BANNER:TSUGARU (x-special).png;
#BACKGROUND:TSUGARU (x-special)-bg.png;
#LYRICSPATH:;
#CDTITLE:;
#MUSIC:TSUGARU (x-special).ogg;
#OFFSET:-1.879;
#SAMPLESTART:72.360;
#SAMPLELENGTH:12.000;
#SELECTABLE:YES;
#LISTSORT:;
#DISPLAYBPM:165.000;
#BPMS:0.000=165.000,229.000=157.000,233.000=131.000,237.000=123.000,238.000=130.000,239.000=109.000,240.000=94.000;
#STOPS:15.500=0.727
;
#BGCHANGES:;
#ATTACKS:;

//---------------dance-single - ----------------
#NOTES:
     dance-single:
     :
     Challenge:
     15:
     0.687,0.740,0.500,0.223,0.500:
0000
0000
0000
0000
,
0000
0000
0000
0000
,
0000
0000
0000
0000
,
0000
0000
0000
0000
,
0000
0000
0000
1000
0101
0001
0010
1100
,
1000
0000
0000
1000
0011
0001
0100
1010
,
0010
0000
0000
1000
0101
0001
1000
0100
,
0010
0100
1000
0001
1100
1000
0010
0101
,
0100
0010
0000
0010
0100
0101
0010
1000
,
1100
0000
0000
1000
0001
0101
0100
0010
,
1010
0000
0000
1000
0010
0110
0001
0100
,
1000
0100
0001
0100
0110
0001
1000
1100
,
0001
0100
0000
0002
1000
1000
0013
0100
,
0100
0000
0000
2000
0100
0100
3001
0010
,
0010
0000
0000
0200
1000
1000
0310
0001
,
0001
2000
0010
0010
3100
0001
0001
1000
,
0100
1100
0000
2000
0010
0010
3001
0100
,
0110
0000
0000
0002
0010
0010
0103
1000
,
1100
0000
0000
0002
1000
1000
0013
0100
,
0100
2000
0010
0010
3100
0001
0001
1000
,
0001
0000
1000
0002
2000
0000
0000
0000
0000
0000
0000
0000
0000
0000
0000
0000
,
0000
0000
0000
0000
,
0000
0000
0000
0000
,
3003
0000
0000
0010
0000
1000
0100
0000
0010
0001
0000
0001
,
0100
0000
0010
1000
0000
1000
0100
0000
0010
0100
0000
1000
,
0100
0000
0001
0100
0000
0100
0010
0000
0010
0001
0000
0001
,
1000
0000
1000
0100
0000
0001
0100
0000
1000
0100
0000
0010
,
0100
0000
0001
0100
0000
1000
0010
0000
0001
0100
0000
0100
,
0001
0000
0010
1000
0000
1000
0100
0000
0100
0010
0000
0010
,
0100
0000
0100
1000
0000
0001
0100
0000
1000
0010
0000
1000
,
0100
0000
0001
0010
0000
1000
0100
0000
0100
0010
0000
0001
,
1000
0000
0000
0000
0000
0000
0000
0000
0000
0000
0000
0000
0000
0000
0000
0000
0000
0000
0000
0000
0000
0000
0000
0000
0000
0000
0000
0000
0000
0000
0000
0000
1000
0000
0000
0000
0000
0000
0000
0000
0000
0000
0000
0000
0000
0000
0000
0000
0010
0000
0000
0000
0000
0000
0000
0000
0000
0000
0000
0000
0000
0000
0000
0000
0000
0000
0000
0000
0000
0000
0000
0000
0000
0000
0000
0000
0000
0000
0000
0000
0000
0000
0000
0000
0000
0000
0000
0000
0000
0000
0001
0000
0000
0000
0000
0000
1000
0000
0000
0000
0000
0000
0000
0000
0000
0000
0000
0000
0000
0000
0000
0000
0000
0000
0000
0000
0000
0000
0000
0000
0000
0000
0000
0000
0000
0000
0000
0000
0010
0000
0000
0000
0000
0000
0000
0000
0000
0000
0000
0000
0000
0000
0000
0000
0100
0000
0000
0000
0000
0000
0000
0000
0000
0000
0000
0000
0000
0000
0000
0000
0000
0000
0000
0000
0000
0000
0000
0000
0000
0000
0000
0000
0000
0000
0000
0000
0000
0000
0000
0000
0000
0000
0000
0000
0000
0000
0010
0000
0000
0000
0000
0000
,
0100
0000
0000
0000
0000
0000
0000
0000
0000
0000
0000
0000
0000
0000
0000
0000
0000
0000
0000
0000
0000
0000
0000
0000
0000
0000
0000
0000
0000
0000
0000
0000
0001
0000
0000
0000
0000
0000
0000
0000
0000
0000
0000
0000
0000
0000
0000
0000
1000
0000
0000
0000
0000
0000
0000
0000
0000
0000
0000
0000
0000
0000
0000
0000
0000
0000
0000
0000
0000
0000
0000
0000
0000
0000
0000
0000
0000
0000
0000
0000
0000
0000
0000
0000
0000
0000
0000
0000
0000
0000
1000
0000
0000
0000
0000
0000
0100
0000
0000
0000
0000
0000
0000
0000
0000
0000
0000
0000
0000
0000
0000
0000
0000
0000
0000
0000
0000
0000
0000
0000
0000
0000
0000
0000
0000
0000
0000
0000
0001
0000
0000
0000
0000
0000
0000
0000
0000
0000
0000
0000
0000
0000
0000
0000
0100
0000
0000
0000
0000
0000
0000
0000
0000
0000
0000
0000
0000
0000
0000
0000
0000
0000
0000
0000
0000
0000
0000
0000
0000
0000
0000
0000
0000
0000
0000
0000
0000
0000
0000
0000
0000
0000
0000
0000
0000
0000
0010
0000
0000
0000
0000
0000
,
0100
0000
0000
0000
0000
0000
0000
0000
0000
0000
0000
0000
0000
0000
0000
0000
0000
0000
0000
0000
0000
0000
0000
0000
0000
0000
0000
0000
0000
0000
0000
0000
1000
0000
0000
0000
0000
0000
0000
0000
0000
0000
0000
0000
0000
0000
0000
0000
0001
0000
0000
0000
0000
0000
0000
0000
0000
0000
0000
0000
0000
0000
0000
0000
0000
0000
0000
0000
0000
0000
0000
0000
0000
0000
0000
0000
0000
0000
0000
0000
0000
0000
0000
0000
0000
0000
0000
0000
0000
0000
0010
0000
0000
0000
0000
0000
0100
0000
0000
0000
0000
0000
0000
0000
0000
0000
0000
0000
0000
0000
0000
0000
0000
0000
0000
0000
0000
0000
0000
0000
0000
0000
0000
0000
0000
0000
0000
0000
0100
0000
0000
0000
0000
0000
0000
0000
0000
0000
0000
0000
0000
0000
0000
0000
1000
0000
0000
0000
0000
0000
0000
0000
0000
0000
0000
0000
0000
0000
0000
0000
0000
0000
0000
0000
0000
0000
0000
0000
0000
0000
0000
0000
0000
0000
0000
0000
0000
0000
0000
0000
0000
0000
0000
0000
0000
0000
1000
0000
0000
0000
0000
0000
,
0001
0000
0000
0000
0000
0000
0000
0000
0000
0000
0000
0000
0000
0000
0000
0000
0000
0000
0000
0000
0000
0000
0000
0000
0000
0000
0000
0000
0000
0000
0000
0000
0001
0000
0000
0000
0000
0000
0000
0000
0000
0000
0000
0000
0000
0000
0000
0000
1000
0000
0000
0000
0000
0000
0000
0000
0000
0000
0000
0000
0000
0000
0000
0000
0000
0000
0000
0000
0000
0000
0000
0000
0000
0000
0000
0000
0000
0000
0000
0000
0000
0000
0000
0000
0000
0000
0000
0000
0000
0000
1000
0000
0000
0000
0000
0000
0010
0000
0000
0000
0000
0000
0000
0000
0000
0000
0000
0000
0000
0000
0000
0000
0000
0000
0000
0000
0000
0000
0000
0000
0000
0000
0000
0000
0000
0000
0000
0000
0010
0000
0000
0000
0000
0000
0000
0000
0000
0000
0000
0000
0000
0000
0000
0000
0100
0000
0000
0000
0000
0000
0000
0000
0000
0000
0000
0000
0000
0000
0000
0000
0000
0000
0000
0000
0000
0000
0000
0000
0000
0000
0000
0000
0000
0000
0000
0000
0000
0000
0000
0000
0000
0000
0000
0000
0000
0000
0100
0000
0000
0000
0000
0000
,
0001
0000
0100
0001
0010
1000
0010
0001
0100
0010
0000
0000
,
1001
0000
1000
0100
0001
0010
0001
0100
1000
0010
0000
0000
,
1001
0000
0001
0010
0001
0010
0100
1000
0010
1000
0010
0100
,
0001
0001
0010
0100
0100
1000
0010
0010
0100
1001
0000
0000
,
0000
0000
0011
0000
0001
0100
0000
0100
,
0001
0010
1001
0010
0101
0000
0100
0001
,
1000
1000
0001
1000
1000
0000
0001
1000
,
0010
0000
1010
0000
0000
0000
0100
0000
0101
0000
0000
0000
1000
0000
0001
1000
,
0001
0000
1000
0001
1000
0000
0100
0000
0001
0000
0010
0000
0001
0000
0100
0000
,
1000
0001
0100
1000
0010
1000
0100
0001
,
0100
0001
0010
1000
0001
0100
1000
0001
,
0010
1000
0001
0100
1000
0010
0100
0001
,
1000
0000
0100
0000
1000
0000
0001
0100
0001
0000
1000
0000
1000
0001
1000
0000
,
0001
0000
0000
1000
0001
0000
0000
0010
0100
0000
0000
1000
0001
0000
0000
0100
,
0010
2010
3010
0201
,
0301
0000
0000
1000
0001
0000
0000
0010
0100
0000
0000
0010
0100
0000
0000
1000
,
0001
0000
0000
0001
1000
0000
0100
0000
0110
0000
0010
0000
0011
0000
0001
0000
,
1001
0000
1000
0000
1010
0000
0000
0000
1000
0001
1000
0000
0100
0000
0000
0000
,
1010
0000
0000
0100
0001
0000
0000
0000
0001
0100
1000
0000
0101
0000
0000
0000
,
1100
0000
0000
0100
1000
0000
0000
0000
0001
0010
1000
0000
0011
0000
0000
0100
,
1000
0000
0000
0010
0100
0000
0001
0000
0101
0000
0010
0000
1010
0000
0000
0000
,
0000
1001
0000
0011
0000
1100
0012
0000
,
0100
2000
0000
0000
,
3003
0000
0000
0000
0000
1001
0000
0000
0202
0000
0000
0000
0000
0000
0000
0000
0000
0000
0000
0000
0000
0000
0000
0000
0000
0000
0000
0000
0000
0000
0000
0000
,
0303
0000
0000
0000
0000
1010
0000
0000
2100
0000
0000
0000
0000
0000
0000
0000
3200
0000
0000
0000
0000
0000
0000
0000
0302
0000
0000
0000
0000
0000
0000
0000
,
0103
0000
1010
0100
2020
0000
0000
0000
3030
0000
0000
0000
0000
0000
0000
0000
;

//---------------dance-double - ----------------
#NOTES:
     dance-double:
     :
     Challenge:
     15:
     0.676,0.740,0.617,0.192,0.431: // measure 1
00000000
00000000
00000000
00000000
,  // measure 2
00000000
00000000
00000000
00000000
,  // measure 3
00000000
00000000
00000000
00000000
,  // measure 4
00000000
00000000
00000000
00000000
,  // measure 5
00000000
00000000
00000000
00100000
00101000
00001000
00000100
00000110
,  // measure 6
00000010
00000000
00000000
00000010
00000110
00000100
00001000
00101000
,  // measure 7
00100000
00000000
00000000
00100000
00101000
00010000
00100000
01000000
,  // measure 8
00100000
00001000
00100000
01000000
01000000
10000000
01000000
01000000
,  // measure 9
00100000
00011000
00000000
00011000
00000100
00000010
00000011
00000010
,  // measure 10
00000100
00000000
00000000
00001000
00000010
00000100
00000110
00000010
,  // measure 11
00010000
00000000
00000000
00011000
00001000
00100000
11000000
10000000
,  // measure 12
01000000
00100000
00110000
00100000
00101000
00011000
00010100
00000100
,  // measure 13
00000110
00000011
00000000
00000200
00010000
00010000
00001300
00000010
,  // measure 14
00000010
00000000
00000000
00020000
00001000
00001000
00030100
00010000
,  // measure 15
00010000
00000000
00000000
00001000
00100000
01000000
00010000
00001000
,  // measure 16
00100000
01000000
10000000
01000000
10000000
01000000
00100000
00010000
,  // measure 17
00000010
00000001
00000000
00000001
00000100
00001000
00010000
01000000
,  // measure 18
01000000
00000000
00000000
10000000
01000000
00010000
00001000
00000100
,  // measure 19
00000100
00000000
00000000
00000001
00000100
00000100
00001000
00010000
,  // measure 20
00010000
00100000
01000000
10000000
01000000
00010000
01000000
00100000
,  // measure 21
01000000
00100000
20020000
00000000
00000000
00000000
00000000
00000000
,  // measure 22
00000000
00000000
00000000
00000000
,  // measure 23
00000000
00000000
00000000
00000000
,  // measure 24
30030000
00000000
00000000
10000000
00000000
01000000
00100000
00000000
00100000
00010000
00000000
00010000
,  // measure 25
00001000
00000000
00000000
00000110
00000000
00000001
00000100
00000000
00000100
00010000
00000000
00010000
,  // measure 26
00000100
00000000
00000000
00001001
00000000
00000001
00000010
00000000
00000010
00001000
00000000
00001000
,  // measure 27
01000000
00000000
01000000
00100000
00000000
00100000
10000000
00000000
10000000
01000000
00000000
01000000
,  // measure 28
00100000
00000000
00000000
10010000
00000000
10000000
01000000
00000000
00100000
00010000
00000000
01000000
,  // measure 29
00100000
00000000
01000000
00001000
00000000
00010000
00001000
00000000
00010000
00000010
00000000
00000100
,  // measure 30
00000001
00000000
00001000
00000100
00000000
00000000
00000110
00000000
00000001
00000100
00000000
00001000
,  // measure 31
00000100
00000000
00000001
00000010
00000000
00001000
00000010
00000000
00000100
00010000
00000000
00001000
,  // measure 32
00100000
00000000
01000000
00010000
00000000
01000000
10000000
00000000
00010000
10000000
00000000
00010000
,  // measure 33
01000000
00000000
10000000
01000000
00000000
00010000
00100000
00000000
10000000
00100000
00000000
00010000
,  // measure 34
01000000
00000000
00010000
00100000
00000000
00001000
00010000
00000000
00001000
00100000
00000000
00001000
,  // measure 35
01000000
00000000
01000000
00001000
00000000
00100000
00001000
00000000
00010000
00001000
00000000
00011000
,  // measure 36
00011000
00000000
00010000
00001000
00000100
00001000
00010000
01000000
00010000
00001000
00000000
00000000
,  // measure 37
00010100
00000000
00000010
00000001
00000100
00001000
00000100
00000001
00001000
00000100
00000000
00000000
,  // measure 38
00000011
00000000
00000001
00000100
00001000
00010000
01000000
10000000
00010000
10000000
01000000
00010000
,  // measure 39
00001000
00000100
00000001
00001000
00000001
00000010
00001000
00010000
00100000
10000000
00000000
00000000
,  // measure 40
00000000
00000000
10010000
00100000
00010000
00001000
00010000
00001000
,  // measure 41
00000110
00000000
00000001
00000001
00001100
00000000
00000010
00000010
,  // measure 42
00011000
00000000
00001000
01000000
00100000
01000000
00010000
10000000
,  // measure 43
01000000
00000000
00100000
00000000
01000000
00000000
10000000
00000000
10010000
00000000
00000000
00000000
10010000
00000000
10000000
01000000
,  // measure 44
00100000
00000000
01000000
00100000
00010000
00000000
00001000
00000000
00000100
00000000
00000010
00000000
00000100
00000000
00000001
00000000
,  // measure 45
00000010
00000100
00000010
00000001
00001000
00010000
10000000
00010000
,  // measure 46
10000000
10010000
10000000
01000000
00010000
01000000
00100000
00010000
,  // measure 47
01000000
10000000
00100000
01000000
10000000
00010000
01010000
00010000
,  // measure 48
10010000
00010000
00200000
00000000
00010000
02300000
00000000
00100000
,  // measure 49
03020000
00000000
00000000
00000000
00031000
00000000
00000000
00000000
00011000
00000000
00000000
00000000
00000100
00000000
00000000
00000010
,  // measure 50
00000001
00000000
00000000
00000000
00001000
00000000
00000000
00001000
00011000
00000000
00000000
00000000
01000000
00000000
00000000
10000000
,  // measure 51
00100000
00000000
00000000
00000000
10000000
00000000
00000000
00100000
00110000
00000000
00000000
00000000
01000000
00000000
00000000
00000000
,  // measure 52
00011000
00000000
00000100
00000010
00001000
00000100
00000010
00000001
,  // measure 53
00000100
00000000
00000010
00000000
00000001
00000000
00000000
00000000
00000010
00001000
00000010
00000000
00001000
00000000
00000000
00000010
,  // measure 54
00001000
00000000
00000000
00000000
00011000
00000000
00000000
00000000
00100000
10000000
00100000
00000000
10100000
00000000
00000000
10000000
,  // measure 55
01000000
00000000
00000000
00000000
01100000
00000000
00000000
00000000
00100000
00010000
00100000
00000000
00011000
00000000
00000000
00001000
,  // measure 56
00000100
00000110
00011000
01100000
,  // measure 57
00000000
11000000
00000000
00110000
00000000
00001100
00000011
00000000
,  // measure 58
00001001
20020000
00000000
30030000
,  // measure 59
00000000
00000000
10010000
00200000
00000000
00000000
00000000
00000000
00000000
00000000
00000000
00000000
,  // measure 60
00300000
00000000
00001000
00022000
00000000
00033000
02200000
00000000
03300000
22000000
00000000
33000000
,  // measure 61
00100000
00000000
00011000
00000100
00022000
00000000
00000000
00000000
00033000
00000000
00000000
00000000
00000000
00000000
00000000
00000000
;
