#TITLE:#22TSUGARU (X-Special);
#ARTIST:RevenG vs DE-SIRE;
#FILE:TSUGARU (x-special).ogg;
#BPM:165.000;
#GAP:1879;
#MENUCOLOR:#F90000;
#SAMPLESTART:72.360;
#SAMPLELENGTH:12.000;
#DISPLAYBPM:165;

#FREEZE:62.000=727.000;
#CHANGEBPM:916.000=157.000,932.000=131.000,948.000=123.000,952.000=130.000,956.000=109.000,960.000=94.000;
#SINGLE:SMANIAC:15:
00000000
00000000
00000000
00000000
00043681
40049627
80043642
82461483
28082384
10046328
70048A62
4262A641
6206!64492
2004!422B8
8002!244A6
64!4881664
2104!488B2
A006!68834
1006!64492
24!4881664
(6046!64!400000000000)
00000000
00000000
[B00000800040200080600060]
[200080400040200080200040]
[200060200020800080600060]
[400040200060200040200080]
[200060200040800060200020]
[600080400040200020800080]
[200020400060200040800040]
[200060800040200020800060]
`400000000000000000000000000000004000000000000000800000000000000000000000000000000000000000600000400000000000000000000000000000008000000000000000200000000000000000000000000000000000000000800000'
`200000000000000000000000000000006000000000000000400000000000000000000000000000000000000000400000200000000000000000000000000000006000000000000000200000000000000000000000000000000000000000800000'
`200000000000000000000000000000004000000000000000600000000000000000000000000000000000000000800000200000000000000000000000000000002000000000000000400000000000000000000000000000000000000000400000'
`600000000000000000000000000000006000000000000000400000000000000000000000000000000000000000400000800000000000000000000000000000008000000000000000200000000000000000000000000000000000000000200000'
[600020608040806020800000]
[B00040206080602040800000]
[B00060806080204080408020]
[606080202040808020B00000]
00906202
68B83026
44644064
(8070002030004064)
(6046402060806020)
46248426
26846246
84624826
(4020406260404640)
(6004600820046002)
807!40703!20
(3004600820082004)
(60064020A0809060)
(B040700046402000)
(7002600062403000)
(1002400068409002)
(4008206030807000)
0B09019!60
204!400000
{B000000000B000003!300000000000000000000000000000000000000000000000}
{30000000007000001!40000000000000001!20000000000000003!6000000000000000}
(30727!700070000000)
;
#DOUBLE:SMANIAC:15:
00000000
00000000
00000000
00000000
00088000
00000008
80088682
80822422
86060000
00000000
60060814
28988660
00006600
0006!60066
60008260
82424286
00000062
20042600
00000006
68242628
28B!B00000
00000000
00000000
[B00000400020800080600060]
[000000000000000000600060]
[000000000000000000000000]
[200020800080400040200020]
[800000B00040200080600020]
[800020000060000060000000]
[000000000000000000000000]
[000000000000000000600000]
[800020600020400060400060]
[200040200060800040800060]
[200060800000600000800000]
[200020000080000060000060]
[600060000000602060000000]
[600000000000000000000000]
[000000000060204060402060]
[000000000000006080400000]
00B86060
00000000
60028264
(20802040B000B042)
(8028600000000000)
00000646
4B426286
24824636
B68!806A!208
(3!6000600060000000)
(0000000060002004)
(8000400890002000)
60000000
(0000000000000000)
(0000600084807004)
(2000A00086806000)
000060A0
01090000
00B!B000B0
[0000B08!800000000000000000]
[8000006!600060A!A000A01!100010]
(80606!600060000000)
:
00000000
00000000
00000000
00000000
0000442A
8008A244
00004000
04000000
04042898
200482A8
00044000
00004422
A902!20018
80004420
00040004
00000000
86062400
00000042
20062240
00000000
00000000
00000000
00000000
[000000000000000000000000]
[400000A00060200020000000]
[200000B00060800080400040]
[000000000000000000000000]
[000000000000000000000000]
[000000400000400000800020]
[600040200000A00060200040]
[200060800040800020000040]
[000000000000000000000000]
[000000000000000000000000]
[000000000040000040000040]
[000000400000400000400040]
[400000402040000000400000]
[200080602040206040200000]
[900060204000000000000000]
[402060406080400000000000]
00000404
A0661088
40400000
(0000000000000000)
(0000004020802060)
82864000
00000000
00000000
00000000
(0000400040002008)
(6000400440000000)
(0000000000000000)
40284286
(2080600084804008)
(4000400000000000)
(0000000000004004)
20A04000
00000190
B0000000
[000000000000000000000000]
[0000404!400040000000000000]
(00424!400040000000)
;
