#TITLE:REINCARNATION;
#SUBTITLE:;
#ARTIST:P*Light;
#TITLETRANSLIT:;
#SUBTITLETRANSLIT:;
#ARTISTTRANSLIT:;
#GENRE:;
#CREDIT:;
#MUSIC:REINCARNATION.ogg;
#BANNER:REINCARNATION.png;
#BACKGROUND:REINCARNATION-bg.png;
#CDTITLE:./CDTitles/DDR WORLD.png;
#SAMPLESTART:20.750;
#SAMPLELENGTH:15.000;
#SELECTABLE:YES;
#OFFSET:0.000;
#BPMS:0.000=110.000
,24.000=220.000
,56.000=110.000
,72.000=220.000
,200.000=110.000
,232.000=220.000
,360.000=110.000
;
#STOPS:;
#BGCHANGES:;
#FGCHANGES:;

//--------------- dance-single - ----------------
#NOTES:
     dance-single:
     :
     Beginner:
     4:
     0,0,0,0,0:
0000
0000
0000
0000
,
0000
0000
0000
0000
,
0000
0000
0000
0000
,
0000
0000
0000
0000
,
0000
0000
0000
0000
,
0000
0000
0000
0000
,
0002
0000
0000
0000
,
0003
0000
0000
0000
,
0002
0000
0000
0000
,
0003
0000
0000
0000
,
0010
0000
0000
0000
,
0010
0000
0000
0000
,
0010
0000
0010
0000
,
0010
0000
0000
0000
,
1001
0000
0000
0000
,
1000
1000
0100
0000
,
1001
0000
0000
0000
,
0001
0001
0100
0000
,
1001
0000
0000
0000
,
0000
0000
0000
0000
,
0001
0000
0001
0000
,
0010
0000
0000
0000
,
0020
0000
0000
0000
,
0030
0000
0000
0000
,
0200
0000
0000
0000
,
0300
0000
0000
0000
,
0010
0000
0010
0000
,
0010
0000
0000
0000
,
1000
0000
0000
0000
,
1000
0000
0000
0000
,
0010
0000
0010
0000
,
0010
0000
0000
0000
,
0001
0000
0000
0000
,
0001
0000
0000
0000
,
1001
0000
0000
0000
,
0000
0000
0000
0000
,
0001
0000
0001
0000
,
0010
0000
0000
0000
,
1001
0000
0000
0000
,
0000
0000
0000
0000
,
0010
0000
0010
0000
,
1000
0000
0000
0000
,
1000
0000
0000
0000
,
0100
0000
0000
0000
,
1000
0000
1000
0000
,
0010
0000
0000
0000
,
0010
0000
0010
0000
,
0100
0000
0000
0000
,
0010
0000
0010
0000
,
0001
0000
0000
0000
,
1001
0000
0000
0000
,
0001
0000
0000
0000
,
1000
0000
0000
0000
,
0001
0000
0000
0000
,
0010
0000
0010
0000
,
0010
0000
0000
0000
,
0100
0000
0100
0000
,
0100
0000
0000
0000
,
1001
0000
0000
0000
,
0000
0000
0000
0000
,
1001
0000
0000
0000
,
0000
0000
0000
0000
,
1000
0000
1000
0000
,
0010
0000
0010
0000
,
0001
0000
0000
0000
,
0000
0000
0000
0000
,
0001
0000
0001
0000
,
0100
0000
0000
0000
,
0001
0000
0010
0000
,
0001
0000
0000
0000
,
0001
0000
0001
0000
,
0010
0000
0010
0000
,
1000
0000
0000
0000
,
1000
0000
0000
0000
,
1000
0000
1000
0000
,
0100
0000
0000
0000
,
1000
0000
0010
0000
,
1000
0000
0000
0000
,
1000
0000
1000
0000
,
0010
0000
0010
0000
,
0001
0000
0000
0000
,
0000
0000
0000
0000
,
1001
0000
0000
0000
,
1001
0000
0000
0000
,
0010
0000
0010
0000
,
1001
0000
0000
0000
,
0001
0000
0001
0000
,
0010
0000
0010
0000
,
1000
0000
0000
0000
,
0000
0000
0000
0000
,
1001
0000
0000
0000
;

//--------------- dance-single - ----------------
#NOTES:
     dance-single:
     :
     Easy:
     10:
     0,0,0,0,0:
0000
0000
0000
0000
,
0000
0000
0000
0000
,
0000
0000
0000
0000
,
0000
0000
0000
0000
,
0000
0000
0000
0000
,
0000
0000
0000
0000
,
0002
0000
0000
0003
,
0020
0000
0000
0030
,
0200
0000
0000
0300
,
2000
0000
0000
3000
,
1100
0000
0011
0000
,
0101
0000
1010
0000
,
1000
0100
0010
0001
,
2000
0000
0000
3000
,
1001
0000
0110
0000
1001
1001
0110
0000
,
1000
0010
0100
0001
1000
1000
1000
0000
,
1001
0000
0110
0000
1001
1001
0110
0000
,
0001
0100
0010
1000
0002
0000
0000
0003
,
1000
1000
1000
0000
,
0100
0100
0100
0000
,
0010
0010
0010
0000
,
0001
0001
0001
0000
,
0011
0000
0101
0000
,
1010
0000
1100
0000
,
1000
0010
0100
0001
,
2000
0000
0000
3000
,
1000
0100
1000
0000
,
1000
0010
0100
0000
,
0001
0100
0001
0000
,
0001
0010
0100
0000
,
1000
0001
0010
0100
,
0010
0001
0100
0010
,
1000
0001
1000
0001
,
2000
0000
0000
3000
,
1000
0010
1000
0010
,
0100
0001
0100
0001
,
0010
0001
0010
0001
,
1000
0100
1000
0000
,
0001
0100
0001
0100
,
0010
1000
0010
0100
,
0001
0000
0010
0000
0100
0010
0100
0000
,
0020
0000
0000
0030
,
0001
0001
1000
0010
,
0100
0000
0100
0000
0010
0000
1000
0001
,
1000
1000
0010
0100
,
0001
0000
0001
0000
1000
0000
0100
0010
,
0100
0100
1100
0000
,
0001
0001
0011
0000
,
1000
0010
0100
0000
0001
1000
0010
0000
,
0100
0000
0000
0000
,
1001
0000
0001
0100
,
0100
0000
1000
0100
,
0100
0000
0001
1000
,
0002
0003
2000
3000
,
0001
1000
0010
1000
0010
0100
0001
0000
,
1000
0001
0010
0001
0010
0100
1000
0000
,
0001
0100
0010
0010
1000
0100
0010
0010
,
0001
1000
0100
0001
0100
1000
0001
0000
,
2000
0000
0000
3000
,
1001
0000
0110
0000
,
0002
0000
0000
0003
,
1001
0000
0110
0000
,
0101
0000
0110
0000
,
1100
0000
0110
0000
,
1001
0000
0000
0000
,
0000
0000
0000
0000
,
1000
0010
0001
0010
,
1000
0010
0100
0000
,
0001
0010
1000
0010
,
0001
0010
0100
0000
,
1000
0100
0010
0001
,
0100
1000
0100
0000
,
0101
0000
1010
0000
,
0110
0110
0000
1001
,
1000
0100
0001
0100
,
1000
0100
0010
0000
,
0001
0100
1000
0100
,
0001
0100
0010
0000
,
1000
0010
0100
0001
,
0010
1000
0010
0001
,
0010
0010
0100
0100
,
0110
0000
0000
0000
,
0001
0001
0001
0001
,
1000
1000
2000
3000
,
0010
0010
0010
0020
,
0130
0100
0110
0110
,
0001
0000
0001
0000
0001
0001
0001
0000
,
1000
0000
1000
0000
1000
1000
1000
0000
,
0020
0000
0000
0000
,
0030
0000
0000
0000
,
0110
0000
0000
0000
;

//--------------- dance-single - ----------------
#NOTES:
     dance-single:
     :
     Medium:
     15:
     0,0,0,0,0:
0000
0000
0000
0000
,
0000
0000
0000
0000
,
0000
0000
0000
0000
,
0000
0000
0000
0000
,
0000
0000
0000
0000
,
0000
0000
0000
0000
,
0002
0100
0100
0103
,
2000
0100
0100
3100
,
0002
0010
0010
0013
,
2000
0010
0010
3010
,
0001
0000
0000
0010
0000
0000
0001
0000
0100
0000
0000
0001
0000
0000
0100
0000
,
0010
0000
0000
1000
0000
0000
0010
0000
0000
1000
0000
0000
0020
0000
0000
0000
,
1030
0100
0010
0001
1000
0100
0010
0001
,
2000
0000
0000
3000
,
0002
0000
0003
0000
0101
0000
0000
0000
0110
0000
0010
1000
0010
0100
0010
0000
,
1010
0000
1100
0000
0100
0010
0001
0000
0011
0000
1000
0001
1000
0001
2000
0000
,
3001
0000
0000
0000
0110
0100
0010
0000
0110
0000
0001
1000
0001
1000
0001
0000
,
1000
0000
0000
0100
0000
0000
0001
0000
0001
0000
0100
0000
1000
0000
0000
0000
0002
0000
0000
0000
0000
0000
0000
0000
0000
0000
0000
0000
0003
0000
0000
0000
,
1000
0000
1100
0000
0100
0010
0001
0000
,
0101
1100
0101
1100
,
0101
0000
0001
0100
0010
1000
0010
1000
,
0010
0100
0010
0000
0110
0000
1001
0000
,
1000
0000
0000
0010
0000
0000
0010
0000
0100
0000
0000
0001
0000
0000
0001
0000
,
1000
0000
0000
0010
0000
0000
0100
0000
0002
0000
0000
0000
0003
0000
0000
0000
,
1000
0010
0100
0001
1000
0010
0100
0001
,
2000
0000
0000
3000
,
1002
1003
2001
3001
,
0001
0010
1000
0001
0100
1000
0001
0000
,
0120
0130
0210
0310
,
0010
0100
0010
0000
0110
0000
1001
0000
,
2001
3001
1002
1003
,
1000
0100
0001
1000
0010
0001
1000
0000
,
0100
0010
0100
0010
0100
0010
0100
0000
,
2002
0000
0000
3003
,
1000
0010
0100
0001
1000
0001
0100
0010
,
1000
0100
0010
0001
0100
0010
1000
1000
,
0001
0100
0010
0100
1000
0100
0010
0100
,
0001
0000
1000
0000
0100
0000
0010
0000
0001
0000
0000
0001
0000
0000
0001
0000
,
1000
0100
0010
0100
1000
0010
0100
0001
,
1000
0100
0001
1000
0010
0001
1000
1000
,
0010
0000
0100
0000
0001
0000
0100
0000
0010
0100
0010
0100
0010
0000
0000
0000
,
2002
0000
0000
3003
,
0001
0100
0010
1000
0001
1000
0010
0100
,
0001
0010
0100
1000
0010
0100
0001
0001
,
1000
0010
0100
0010
0001
0010
0100
0010
,
1000
0000
0001
0000
0010
0000
0100
0000
1000
0000
0000
1000
0000
0000
1000
0000
,
0001
0010
1000
0010
0002
0000
0003
0000
,
1000
0010
0001
0010
2000
0000
3000
0000
,
1000
0100
0010
0001
0100
0010
1000
0100
,
0010
0000
0000
0000
,
2002
0000
0000
0000
3003
0000
0000
0000
0001
0000
0000
0100
0000
0100
0000
0100
,
0000
0000
0000
0000
0000
0000
0000
0000
1000
0000
0000
0100
0000
0000
0100
0000
,
0000
0000
0000
0000
0000
0000
0000
0000
0001
0000
0000
0010
0000
0000
0000
0010
,
0000
0000
1000
0000
0010
0000
0000
0001
1000
0000
0000
1000
0000
0010
0000
0010
,
0100
0000
0010
0000
1001
0000
0100
0010
0100
0010
0100
0000
1001
0000
0010
0100
,
0010
0100
0010
0000
1001
0000
0100
0010
0100
0010
0100
0000
1001
0000
0010
0100
,
0010
0000
0010
0000
1001
0000
0001
1000
0001
1000
0001
0000
0110
0000
0000
0000
,
1000
0001
1000
0000
0110
0000
1000
0001
1000
0100
0010
0000
0001
0100
0010
0000
,
2000
0000
0000
0000
0000
0010
0000
0010
,
0000
0010
0000
0010
0000
3010
1000
0000
,
0002
0000
0000
0000
0000
0100
0000
0100
,
0000
0103
0001
0100
0001
0100
0001
0000
,
0010
0000
0000
0001
0000
0000
0100
0000
0010
0000
0000
1000
0000
0000
0100
0000
,
0010
0000
0000
0001
0000
0000
0100
0000
0010
0000
0000
1000
0000
0000
0100
0000
,
0010
0000
0000
0000
,
0000
0000
0000
0000
,
0002
0000
0203
0000
2300
0000
3001
0010
,
0000
0010
1000
0001
1000
0100
1000
0000
,
2000
0000
3200
0000
0302
0000
1003
0010
,
0000
0010
0001
0100
0010
0100
0001
0000
,
0002
0000
2003
0000
3200
0000
0310
1000
,
0000
1000
0001
0100
1000
0001
0100
0000
,
0101
0001
1100
1000
,
0011
0000
0001
1000
0000
1000
0001
0000
,
2000
0000
3020
0000
0032
0000
1003
0100
,
0000
0100
0001
1000
0001
0010
0001
0000
,
0002
0000
0023
0000
2030
0000
3001
0100
,
0000
0100
1000
0010
0100
0010
1000
0000
,
1000
0000
0000
0010
0000
0000
0010
0000
0100
0000
0000
0001
0000
0000
1000
0000
,
0001
0000
0000
0010
0000
0000
0010
0000
0100
0000
0000
1000
0000
0000
0001
0000
,
1000
0010
0100
0001
1000
0100
0010
0001
,
1000
0000
0000
0000
,
0001
0001
0010
0010
0001
0001
0020
0000
,
0031
0001
0100
0100
0020
0000
0130
0010
,
1000
1000
0010
0010
1000
1000
0200
0000
,
1300
1000
0001
0001
1001
0000
0110
0000
,
0001
0001
0001
0001
0100
0100
0100
0100
,
0010
0010
0010
0010
1000
1000
1000
2000
,
0001
0001
0001
0001
0001
0001
0001
0001
,
3001
0000
0000
0000
,
1001
0000
0000
0000
;

//--------------- dance-single - ----------------
#NOTES:
     dance-single:
     :
     Hard:
     18:
     0,0,0,0,0:
0000
0000
0000
0000
,
0000
0000
0000
0000
,
0000
0000
0000
0000
,
0000
0000
0000
0000
,
0000
0000
0000
0000
,
0000
0000
0000
0000
,
0001
0000
0010
0100
0000
0010
0100
0000
,
1000
0000
0010
0100
0000
0010
0100
0000
,
0001
0000
0010
0100
0000
0010
0100
0000
,
1000
0000
0000
0000
0010
0000
0100
0000
0000
0000
0000
0010
0100
0010
0100
0010
,
0100
0000
0000
0001
0000
0000
0101
0000
1000
0000
0000
0100
0000
0000
1100
0000
,
0001
0000
0000
0010
0000
0000
0011
0000
0000
1010
0000
0000
1000
0001
1000
0001
,
1000
0100
0010
0001
1000
0100
0010
0001
1000
0100
0010
0001
1000
0100
0010
0001
,
2000
0000
0000
3000
,
2002
0000
0000
0000
3003
0000
0000
0000
0001
0000
0100
0000
0110
0000
0000
0000
2001
0000
0000
0000
3100
0000
0001
0000
0100
0000
1000
0000
0001
1000
0001
1000
,
0001
0000
0000
0000
1010
0000
0000
0000
0100
0000
0100
0000
0011
0000
0000
0000
0001
0000
1000
0000
0001
0000
0001
0000
0002
0000
0000
0000
0103
0010
0100
0010
,
0200
0000
0000
0000
0300
0000
0000
0000
1000
0000
0010
0000
0110
0000
0000
0000
1002
0000
0000
0000
0013
0000
1000
0000
0010
0000
0001
0000
1000
0001
1000
0001
,
1000
0000
0000
0100
0000
0000
0010
0000
0001
0000
0100
0000
0010
0000
0000
0000
2002
0000
0000
0000
0000
0000
0000
0000
0000
0000
0000
0000
3003
0000
0000
0000
,
0001
0100
0110
1000
0001
0010
0110
1000
,
0001
0100
0110
0100
0001
0100
0110
0000
,
1000
0100
0110
0001
0100
0010
1010
0001
,
0100
0000
0100
0000
0100
0000
0000
0000
0110
0000
0000
0001
1000
0001
1000
0001
,
1000
0000
0000
1100
0000
0000
0110
0000
0001
0000
0000
0011
0000
0000
0110
0000
,
1000
0000
0000
1010
0000
0000
0110
0000
1001
0000
0000
0000
0000
0000
0000
0000
,
0001
0100
0010
1000
0001
0100
0010
1000
0001
0100
0010
1000
0001
0100
0010
1000
,
0002
0000
0000
0000
1003
0000
0100
0000
0010
0000
0001
0010
0001
0010
0100
1000
,
0200
0001
0010
1300
,
1000
0001
1000
0000
1010
0000
0101
0000
,
0200
1000
0010
0301
,
0001
0100
0010
1000
0001
0000
0001
1000
,
0100
0001
0100
0001
0100
1000
0100
1000
,
0010
0001
0010
0001
0010
1000
0010
1000
,
0001
0100
0010
1000
0001
0100
0010
1000
0001
0010
0100
1000
0001
0010
0100
1000
,
0002
0000
0000
0003
,
0001
0000
1000
0001
1000
0000
0010
1000
0010
0000
0100
0010
0100
0000
0001
0100
,
0001
0000
0010
0001
0010
0000
0100
1000
0100
0000
1000
0001
1000
0000
0010
0000
,
1000
0000
0001
0100
0001
0000
1000
0100
1000
0000
0010
1000
0010
0000
0100
0010
,
0100
0000
0001
0100
0001
0000
1000
0001
1000
0001
0000
0001
0000
0000
0001
0000
,
1000
0000
0001
1000
0001
0000
0100
0001
0100
0000
0010
0100
0010
0000
1000
0010
,
1000
0000
0100
1000
0100
0000
0010
0001
0010
0000
0001
1000
0001
0000
0100
0000
,
0001
0000
1000
0010
1000
0000
0001
0000
0100
0001
0100
0001
0100
0000
0010
0000
,
0110
1000
0001
1000
0110
0000
1001
0000
,
1001
0000
0001
1000
0010
0000
0100
0000
0010
1000
0001
0000
0100
0000
0010
0000
,
0110
0000
0001
0010
0100
0000
1000
0000
0001
1000
0100
0000
0010
0000
0001
0000
,
1001
0000
0001
0100
0010
0000
1000
0000
0100
0010
0001
0000
0100
0000
0001
0000
,
0011
0000
0001
1000
0010
0000
0100
0000
0001
1000
0000
1000
0000
0000
1000
0000
,
0001
0010
0100
1000
0001
1000
0100
0010
0001
0000
0000
0001
0000
0000
0001
0000
,
1000
0010
0100
0001
1000
0001
0100
0010
1000
0000
0000
0000
1001
0000
0001
0000
,
1000
0100
1000
0100
0010
0001
0010
0001
1000
0100
0010
0001
1000
0100
0010
0001
,
2000
0000
0000
3000
,
2002
0000
0000
0000
3003
0000
0000
1000
0100
0000
0100
0010
0000
0011
0000
1001
,
0000
0000
0000
0000
0000
0000
0000
0001
0100
0010
0100
0010
0000
1000
0001
0000
,
0000
0000
0000
0000
0000
0000
0000
0000
1000
0000
0100
0001
0000
0100
0000
1000
,
0000
0000
1100
0000
0110
0000
0011
0000
0001
0100
0000
0010
0000
0110
0000
0000
,
0001
0100
0001
0100
0010
1000
0100
1000
0010
0100
0001
1000
0100
0010
0001
0000
,
1000
0100
1000
0100
0010
0001
0100
0001
0010
0100
1000
0001
0100
0010
1000
0000
,
0001
0100
0010
0001
1000
0100
0010
1000
0100
0010
0001
0100
0001
0010
0100
0000
,
1000
0010
0100
1000
0001
0010
0100
0001
0010
0100
1000
0010
1000
0100
0010
0000
,
0002
0000
0000
0000
0000
0013
0002
0013
,
0002
0013
0002
0013
0002
0013
0002
0003
,
2000
0000
0000
0000
0000
3100
2000
3100
,
2000
3100
2100
3100
2100
3100
2100
3000
,
0010
0000
0000
0100
0000
0000
1001
0000
0100
0000
0000
0010
0000
0000
1001
0000
,
0010
0000
0000
0100
0000
0000
1001
0000
0100
0000
0000
0010
0000
0000
1001
0000
,
0110
0000
0000
0000
,
0000
0000
0000
0000
,
1100
0100
0010
0001
0101
0001
1000
0100
,
0110
0100
1000
0010
0110
0100
0101
0000
,
0101
0100
0010
1000
1100
1000
0001
0100
,
0110
0000
0100
0000
0001
0000
0010
0000
0110
0000
0000
1000
0001
1000
0001
1000
,
0001
0100
0010
0100
1100
0100
0001
1000
,
1100
1000
0001
0100
0101
0001
0011
0000
,
1000
0100
1100
0000
0010
0001
0011
0000
,
0101
0000
0000
0000
1010
0000
0000
0000
0000
0000
0000
1000
0010
1000
0010
1000
,
0010
0100
0001
0010
0011
0001
1000
0010
,
0110
0100
0001
0010
0011
1000
0101
0000
,
1100
0100
1000
0010
1010
1000
0010
0100
,
0101
0001
1000
0010
1010
0001
1100
1000
,
0010
0000
0000
1000
0000
0000
0101
0000
0001
0000
0000
0010
0000
0000
1100
0000
,
1000
0000
0000
0100
0000
0000
0011
0000
0001
0000
0000
0100
0000
0000
1010
0000
,
1000
0010
0100
0001
1000
0010
0100
0001
1000
0100
0010
0001
1000
0100
0010
0001
,
1000
0000
0000
0000
,
0001
0010
0001
0010
0100
1000
0001
0100
0010
1000
0001
1000
0020
0000
0000
0000
,
0130
0001
0100
0001
1000
0010
1000
0010
0200
0000
0000
0000
0310
0000
0110
0000
,
1000
0001
0010
0100
1000
0001
0010
0100
1000
0001
0010
0001
2000
0000
0000
0000
,
3001
0100
0010
1000
0001
1000
0010
0100
0002
0000
0000
0000
2003
0000
0000
0000
,
3001
0010
0001
0010
0100
1000
0100
1000
0001
0010
0100
0000
1000
0010
0100
0000
,
0001
0100
0010
1000
0100
0010
0001
0100
0001
0000
0110
0000
1000
0000
0110
0000
,
0001
0010
0100
1000
0100
0010
0001
1000
0001
0010
0100
1000
0010
0100
0001
0010
,
0100
0000
0000
0000
,
0110
0000
0000
0000
;

//--------------- dance-single - ----------------
#NOTES:
     dance-single:
     :
     Challenge:
     19:
     0,0,0,0,0:
0000
0000
0000
0000
,
0000
0000
0000
0000
,
0000
0000
0000
0000
,
0000
0000
0000
0000
,
0000
0000
0000
0000
,
0000
0000
0000
0000
,
0010
0001
0100
0000
1000
0000
0100
0001
0010
0000
1000
0000
0010
0001
0100
0000
,
0010
1000
0100
0000
0001
0000
0100
1000
0010
0000
0001
0000
0010
0100
0001
0000
,
0010
0100
1000
0000
0010
0000
0001
0010
0100
0000
0001
0000
0010
0100
0001
0000
,
1000
0010
0100
0000
1000
0000
0010
0100
0001
0000
0010
0000
0100
1000
0010
0100
,
0001
0000
0010
0100
0000
0100
1000
0000
1010
0000
0010
0100
0000
0100
0001
0000
,
0011
0000
0000
0000
0010
0000
0100
0000
0000
0000
0100
0000
1000
0000
0000
0000
1000
0000
0010
0000
0000
0000
0010
0000
0200
0300
0002
0003
2000
3000
0002
0003
,
1000
0010
0100
0001
1000
0010
0100
0001
1000
0010
0100
0001
1000
0010
0100
0001
,
2000
3200
0302
0023
,
0230
0000
0000
0000
0000
0000
0300
0000
1010
0000
1100
0000
1010
0000
0000
0000
1001
0000
0000
0000
0011
0000
0101
0000
0011
0000
0010
0100
1000
0010
0100
0001
,
0010
0000
0001
0000
0101
0000
0000
0000
1100
0000
0101
0000
1100
0000
0000
0000
0110
0000
0000
0000
1010
0000
0011
0000
1010
0000
0000
0000
1000
0010
0100
0001
,
0020
0000
0000
0000
0000
0000
0030
0000
1100
0000
1010
0000
1100
0000
0000
0000
1001
0000
0000
0000
0101
0000
0011
0000
0101
0000
0100
0001
0010
0100
1000
0010
,
0100
0000
0001
0010
0000
0010
0100
0000
0110
0000
0010
0100
0000
0100
1000
0000
0010
0000
0001
0000
0010
0000
1000
0000
0001
0000
0010
0000
1000
0000
0010
0000
,
0001
0000
0100
0000
0001
0000
0010
0000
0100
1000
0010
0000
0100
0001
0010
0000
,
0100
1000
0010
0000
0100
0001
0010
0000
0011
0000
0001
0000
1001
0000
0000
0000
,
1010
0000
1000
0000
1001
0000
0001
0000
0010
0100
1000
0000
0010
0100
0001
0000
,
0110
0000
0110
0000
0110
0000
1000
0000
0001
0000
1000
0010
0100
0010
1000
0001
,
0010
0000
0010
0100
0000
0100
1000
0000
1010
0000
0010
0100
0000
0100
0001
0000
,
0011
0000
0010
0100
0000
0100
1000
0000
0002
0000
0103
0000
2000
0000
3100
0000
,
0001
0010
0100
0010
0001
1000
0010
0100
0010
1000
0001
0010
0100
0010
0001
1000
,
0020
0000
0000
0030
0200
0000
0000
0300
2002
0000
0000
0000
0000
0000
0000
3003
,
1000
0100
0001
0100
1000
0010
0100
0001
,
1000
0001
0010
0001
1000
0001
0100
0001
1000
0001
0010
0000
0001
0000
0100
0000
,
0010
1000
0001
0100
1000
0100
0001
0010
,
0001
1000
0100
1000
0001
1000
0010
1000
0001
1000
0100
0000
1000
0000
0001
0000
,
0010
0100
1000
0000
0010
0000
0001
0000
0010
0000
1000
0000
0100
0010
0001
0000
,
0100
0010
1000
0000
0100
0000
0001
0000
0100
1000
0010
0000
0100
0001
0010
0000
,
0100
1000
0010
0100
0001
0010
0001
0100
0010
1000
0100
1000
0010
0100
0001
0010
,
0001
0100
0000
0100
0010
1000
0100
0010
,
0001
0100
0001
1000
0010
0100
0010
1000
0001
0010
0100
1000
0001
0100
0010
1000
,
0001
0010
0001
1000
0100
1000
0001
0100
0001
1000
0100
0010
0001
1000
0010
0100
,
0001
1000
0100
1000
0001
0100
0010
0100
0001
1000
0100
0010
0001
1000
0010
0100
,
0001
0010
0001
1000
0010
0100
0010
1000
0001
1000
0100
0010
0001
1000
0010
0100
,
0001
1000
0100
1000
0001
0100
0010
0100
0001
1000
0100
0010
0001
0100
0010
1000
,
0001
0010
0001
0100
0010
1000
0001
0010
0100
0010
0001
1000
0010
0100
0001
1000
,
0100
1000
0001
0100
0001
1000
0100
0010
0100
1000
0001
0100
0010
1000
0100
1000
,
0001
1000
0101
1000
0110
0001
1010
0001
,
1000
0100
0010
0000
1000
0000
0010
0100
1000
0000
0010
0000
0001
0010
0100
0000
,
0001
0010
0100
0000
0001
0000
1000
0010
0100
0000
1000
0000
0010
0100
1000
0000
,
0001
0010
0100
0000
0001
0000
0010
0100
0001
0000
1000
0000
0010
0100
1000
0000
,
0010
0100
1000
0000
0001
0000
0010
0100
0001
0010
0000
0010
0001
0000
1000
0000
,
0001
0100
0001
1000
0010
1000
0100
0010
0001
0000
0100
0001
0000
0010
0001
0000
,
1000
0010
1000
0001
0100
0001
0010
0100
1000
0000
0010
0000
0200
0301
0020
0030
,
0100
1000
0010
0100
0001
0010
0001
1000
0010
1000
0001
0010
0100
1000
0010
0100
,
0002
0000
0000
2000
0000
0000
3003
0000
,
1001
0000
0000
0000
,
0000
0000
0000
0000
,
0000
0000
0000
0000
,
0000
0000
0000
0000
,
0100
0000
0100
0000
1001
0000
0000
0100
0000
0010
0010
0000
1001
0000
0000
0100
,
0010
0010
0100
0000
1001
0000
0010
0010
0000
0100
0010
0000
1001
0000
0000
0000
,
0100
0000
0010
0000
1001
0000
0100
0100
0000
0010
0100
0000
1001
0000
0000
0000
,
0010
0010
0100
0000
1001
0000
0100
0100
0000
0010
0100
0001
0010
0100
1000
0000
,
0002
0000
0000
0000
0000
0013
1002
0103
,
1002
0013
1002
0103
1002
0013
1002
0003
,
2001
0000
0000
0000
0000
3100
2001
3010
,
2001
3100
1001
1010
1001
1100
2010
3000
,
0110
0000
0010
1000
0000
1000
0100
0000
1100
0000
0100
0010
0000
0010
0001
0000
,
0011
0000
0001
0100
0000
0100
0010
0000
0110
0000
0010
1000
0000
1000
0001
0010
,
0200
0000
2300
0000
,
3020
0000
0000
0000
0130
0000
0110
0000
0010
0000
0100
0010
1000
0010
0100
0010
,
0100
0001
0020
0000
0130
1000
0020
0000
0130
0001
0020
0000
0130
1000
0010
0100
,
0001
0010
0200
0000
0302
0000
0203
0000
1300
0100
0010
0000
0100
0010
0001
0000
,
1000
0010
0200
0000
0301
0010
0200
0000
1300
0010
0200
0000
0301
0010
0100
0010
,
0001
1000
0010
0100
0002
0000
0203
0000
2300
0000
3100
0000
0001
0010
0100
0010
,
0001
0100
0020
0000
1030
0100
0020
0000
0031
0100
0020
0000
1030
0100
0020
0000
,
0031
0100
0001
1000
0010
1000
0001
0000
1000
0100
1000
0001
0010
0001
1000
0000
,
1010
0001
1100
0001
1010
0001
1100
0001
,
1010
0000
0110
0000
0101
0000
0011
0000
0110
0000
1100
0000
1000
0001
0100
0010
,
1000
0000
0010
0000
0002
0000
0013
0000
1000
0000
0001
0010
0200
0000
0301
0100
,
0010
0000
0001
0100
0020
0000
0031
0010
0100
0000
0001
0010
0200
0000
0301
0000
,
0100
0000
1000
0000
0020
0000
0031
0000
0010
0000
1000
0100
0020
0000
1030
0010
,
0100
0000
0000
0000
1000
0000
0010
0000
0200
0300
0020
0030
2000
3000
0100
0000
0010
0000
0100
0000
1000
0000
0010
0000
0200
0000
0000
0000
0301
0000
0000
0000
,
1001
0000
0001
0010
0000
0010
0100
0000
0101
0000
0001
0100
0000
0100
1000
0000
,
1010
0000
0010
0001
0000
0001
1000
0000
1100
0000
0100
0001
0000
0001
0010
0000
,
0001
0100
0001
1000
0010
1000
0100
0010
0001
0100
0001
0010
0100
1000
0010
1000
,
0200
0300
0200
0300
0002
0003
0000
0000
,
0001
0010
0001
1000
0010
1000
0001
0100
0010
1000
0001
0010
0200
0000
0300
0000
,
1000
0010
1000
0001
0010
0001
1000
0010
0200
0000
0300
0000
0101
0000
0011
0000
,
1000
0100
1000
0001
0100
0001
0010
0100
1000
0010
0100
0001
0020
0000
0030
0000
,
0100
1000
0010
0100
0001
0010
0100
0010
0001
1000
0020
0000
1030
0001
0020
0000
,
0031
0000
0000
0100
0000
0000
0001
0000
0000
0010
0000
0000
0100
0000
0000
1000
0000
0000
0001
0000
0000
1000
0000
0000
0010
0000
0100
0000
0010
0000
0100
0000
0000
0001
0000
0000
1000
0000
0000
0100
0000
0000
0010
0000
0000
0001
0000
0000
,
0100
0000
0010
0000
0100
0000
0010
0000
0000
1000
0000
0000
0100
0000
0010
0000
0100
0000
0010
0000
0000
0001
0000
0000
0100
0000
0000
0001
0000
0000
1000
0000
0000
0010
0000
0000
1000
0000
0000
0001
0000
0000
0010
0000
0000
0100
0000
0000
,
1000
0001
1000
0001
1000
0001
1000
0001
1000
0001
1000
0001
1000
0001
1000
0001
1000
0001
1000
0001
1000
0001
1000
0001
,
2000
3000
0000
0000
0000
0000
0000
0000
0000
0000
0000
0000
0000
0000
0000
0000
,
0110
0000
0000
0000
;

//--------------- dance-double - ----------------
#NOTES:
     dance-double:
     :
     Easy:
     10:
     0,0,0,0,0:
00000000
00000000
00000000
00000000
,
00000000
00000000
00000000
00000000
,
00000000
00000000
00000000
00000000
,
00000000
00000000
00000000
00000000
,
00000000
00000000
00000000
00000000
,
00000000
00000000
00000000
00000000
,
00001000
00001000
00010000
00000000
,
00001000
00010000
00000010
00000000
,
00000100
00000100
00000001
00000000
,
00000100
00000001
00001000
00000000
,
00001001
00000000
00001100
00000000
,
00010100
00000000
00011000
00000000
,
00010000
00001000
00100000
00010000
,
00200000
00000000
00000000
00300000
,
01100000
00000000
10010000
00000000
10000000
01000000
00010000
00000000
,
00011000
00000000
00001000
00010000
00000010
00001000
00000010
00000000
,
00000110
00000000
00001001
00000000
00000001
00000100
00000010
00000000
,
00001000
00000010
00001000
00000100
00020000
00000000
00000000
00030000
,
00001000
00100000
00001000
00000000
,
00100000
00010000
00100000
00000000
,
00010000
01000000
00010000
01000000
,
00100000
01000000
00100000
00000000
,
10100000
00000000
10010000
00000000
,
00110000
00000000
00101000
00000000
,
00001000
00010000
00000100
00001000
,
00000200
00000000
00000000
00000300
,
00000100
00000010
00000001
00000000
,
00001000
00000010
00000100
00000000
,
00000001
00000100
00000010
00001000
,
00000010
00010000
00001000
00000000
,
00010000
00001000
00100000
00000000
,
00010000
00100000
01000000
00000000
,
10000000
00010000
10000000
00010000
,
20000000
00000000
00000000
30000000
,
10000000
00100000
01000000
00010000
,
10000000
01000000
00100000
00000000
,
00100000
00001000
00010000
00001000
,
00010000
00000010
00001000
00000000
,
00000001
00000010
00000100
00001000
,
00000001
00000100
00000010
00000000
,
00000010
00010000
00001000
00010000
,
00001000
00100000
00010000
00000000
,
00010000
10000000
01000000
00010000
,
01000000
00000000
00100000
00000000
00010000
00000000
00100000
00001000
,
00100000
00001000
00010000
00000010
,
00001000
00000100
00010000
00001000
,
00010000
00010000
00011000
00000000
,
00001000
00001000
00011000
00000000
,
00001000
00010000
00000100
00000000
00001000
00000100
00000010
00000000
,
00000001
00000000
00000000
00000000
,
00001001
00000000
00000001
00000100
,
00001000
00000000
00010000
00100000
,
10000000
00000000
10000000
01000000
,
00020000
00030000
00002000
00003000
,
00001000
00010000
00000100
00010000
00000100
00001000
00000010
00000000
,
00001000
00000001
00000100
00000010
00001000
00000001
00000100
00000000
,
00000010
00001000
00000010
00010000
00001000
00010000
00001000
01000000
,
00010000
00100000
01000000
10000000
01000000
00000000
00000000
00000000
,
20000000
00000000
00000000
30000000
,
10000000
00100000
00010000
00000000
,
00002000
00000000
00000000
00003000
,
00001000
00000100
00000001
00000000
,
00000011
00000000
00000110
00000000
,
00010100
00000000
00011000
00000000
,
00011000
00000000
00000000
00000000
,
00000000
00000000
00000000
00000000
,
00001000
00010000
00100000
01000000
,
00010000
10000000
01000000
00000000
,
10000000
01000000
00010000
01000000
,
10000000
00100000
01000000
00000000
,
00100000
10000000
00010000
00100000
,
01000000
00100000
00001000
00010000
,
00011000
00000000
01001000
00000000
,
00011000
00011000
00000000
00011000
,
00010000
00001000
00000010
00000100
,
00001000
00000001
00000100
00000000
,
00000001
00000100
00001000
00000100
,
00000001
00000010
00000100
00000000
,
00000010
00000001
00001000
00000010
,
00000100
00000010
00010000
00001000
,
00010000
00010000
00001000
00001000
,
00011000
00000000
00000000
00000000
,
00001000
00001000
01000000
01000000
,
00010000
00010000
20000000
30000000
,
10000000
10000000
01000000
02000000
,
03010000
00010000
00001000
00011000
,
00010000
00000000
00001000
00000000
00000010
00000001
00000010
00000000
,
00000001
00000000
00001000
00000000
00000100
00010000
00000100
00000000
,
00020000
00000000
00000000
00000000
,
00030000
00000000
00000000
00000000
,
00011000
00000000
00000000
00000000
;

//--------------- dance-double - ----------------
#NOTES:
     dance-double:
     :
     Medium:
     15:
     0,0,0,0,0:
00000000
00000000
00000000
00000000
,
00000000
00000000
00000000
00000000
,
00000000
00000000
00000000
00000000
,
00000000
00000000
00000000
00000000
,
00000000
00000000
00000000
00000000
,
00000000
00000000
00000000
00000000
,
00001000
00010000
00010000
00000100
,
00000100
00001000
00001000
00000010
,
00000010
00000100
00000100
00000001
,
00000001
00001000
00001001
00000000
,
00000001
00000000
00000000
00000100
00000000
00000000
00000001
00000000
00000010
00000000
00000000
00000100
00000000
00000000
00001000
00000000
,
00000100
00000000
00000000
00010000
00000000
00000000
00001000
00000000
00000000
00010000
00000000
00000000
00011000
00000000
00000000
00000000
,
00010000
00001000
00010000
00001000
00100000
00010000
00100000
00010000
,
00200000
00000000
00000000
00300000
,
02200000
00000000
03300000
00000000
10010000
00000000
00000000
00000000
10000000
00000000
01000000
00100000
00010000
10000000
00010000
00000000
,
10010000
00000000
11000000
00000000
01000000
00010000
00001000
00000000
00011000
00000000
00010000
00001000
00010000
00001000
00020000
00000000
,
00031000
00000000
00000000
00000000
00011000
00001000
00010000
00000000
00000100
00000000
00001000
00000100
00000010
00000100
00000010
00000000
,
00000001
00000000
00000000
00000100
00000000
00000000
00000010
00000000
00001000
00000000
00000010
00000000
00001000
00000000
00000000
00000000
00000002
00000000
00000000
00000000
00000000
00000000
00000000
00000000
00000000
00000000
00000000
00000000
00000003
00000000
00000000
00000000
,
00000001
00000000
00000101
00000000
00000100
00000010
00001000
00000000
,
00000100
00010000
00001000
00000000
00011000
00000000
00011000
00000000
,
00001000
00100000
00010000
00000000
01000000
00100000
10000000
00000000
,
01000000
00100000
01000000
00000000
01100000
00000000
10010000
00000000
,
10000000
00000000
00000000
01000000
00000000
00000000
10000000
00000000
00100000
00000000
00000000
01000000
00000000
00000000
00010000
00000000
,
01000000
00000000
00000000
00001000
00000000
00000000
00010000
00000000
00002000
00000000
00000000
00000000
00003000
00000000
00000000
00000000
,
00001000
00010000
00001000
00010000
00000010
00001000
00000010
00001000
,
00000020
00000000
00000000
00000030
,
00001001
00001000
00000001
00000010
,
00001000
00000000
00010000
00001000
01000000
00010000
01000000
00000000
,
01100000
00100000
10000000
00100000
,
00010000
00000000
00001000
00010000
00000100
00001000
00000100
00000000
,
00000010
00000001
00000010
00000001
00000100
00000010
00000100
00000000
,
00000010
00001000
00000010
00001000
00000010
00010000
00001000
00000000
,
00010000
00001000
01000000
00010000
10000000
01000000
10000000
00000000
,
20020000
00000000
00000000
30030000
,
10000000
00100000
01000000
00010000
10000000
01000000
00100000
00010000
,
00100000
00001000
00010000
00001000
00010000
00000100
00001000
00000010
,
00001000
00000100
00000010
00000100
00010000
00000100
00000010
00000100
,
00001000
00000000
00000010
00000000
00000100
00000000
00000001
00000000
00001000
00000000
00000000
00001000
00000000
00000000
00001000
00000000
,
00000001
00000010
00000100
00001000
00000001
00000100
00000010
00001000
,
00000010
00010000
00001000
00010000
00001000
01000000
00010000
00100000
,
00010000
01000000
00100000
01000000
00001000
01000000
00100000
01000000
,
20020000
00000000
00000000
30030000
,
10000000
01000000
00010000
00001000
00010000
01000000
10000000
00000000
,
10000000
00100000
00010000
00001000
00010000
00100000
10000000
00000000
,
10000000
01000000
00100000
00001000
00010000
01000000
00100000
00001000
,
00010000
00000000
00000100
00000000
00000010
00000000
00000001
00000000
00001000
00000000
00000000
00001000
00000000
00000000
00001000
00000000
,
00000001
00000100
00001000
00010000
00001000
00000100
00000001
00000000
,
00000001
00000010
00001000
00010000
00001000
00000010
00000001
00000000
,
00000001
00000100
00000010
00010000
00001000
00000100
00000010
00010000
,
00001000
00000000
00000000
00000000
,
00022000
00033000
00001000
01000000
,
01100000
00000000
10000000
01000000
,
01100000
00000000
00000000
00000000
00000000
00000000
00000000
00000000
10000000
00000000
01000000
00010000
00000000
00001000
00000000
00000010
,
00000000
00000000
00000001
00000000
00001000
00000000
00000000
00001000
00000010
00000000
00000000
00000110
00000000
00000000
00000000
00000000
,
00000001
00000100
00000010
00001000
00000010
00000000
00000100
00000010
00001000
00000100
00010000
00001000
00010000
00000000
00001000
00100000
,
00010000
01000000
00001000
00100000
00010000
00000000
01000000
00100000
10000000
01000000
00100000
00010000
10000000
00000000
00100000
01000000
,
00100000
00010000
00001000
00010000
00001000
00000000
00010000
00000100
00001000
00000010
00000100
00001000
00000100
00000000
00000001
00000010
,
00000100
00001000
00000100
00000010
00000001
00000000
00000100
00001000
00010000
00100000
01000000
00010000
00100000
00001000
00010000
00000000
,
00002000
00000000
00000000
00000000
00000000
00010000
00000000
00010000
,
00000000
00010000
00000000
00010000
00000000
00013000
00001000
00000000
,
00020000
00000000
00000000
00000000
00000000
00001000
00000000
00001000
,
00000000
00031000
00010000
00001000
00010000
00001000
00010000
00000000
,
00001000
00000000
00000000
00010000
00000000
00000000
00000100
00000000
00001000
00000000
00000000
00000010
00000000
00000000
00000100
00000000
,
00000001
00000000
00000000
00000010
00000000
00000000
00000100
00000000
00001000
00000000
00000000
00000010
00000000
00000000
00000100
00000000
,
00000001
00000000
00000000
00000000
,
00000000
00000000
00000000
00000000
,
00000002
00000000
00000203
00000000
00002300
00000000
00013000
00100000
,
00000000
00100000
10000000
00010000
00100000
00010000
01000000
00100000
,
20000000
00000000
32000000
00000000
03020000
00000000
00031000
00000010
,
00000000
00000010
00000001
00001000
00000010
00000100
00000010
00001000
,
00000002
00000000
00000203
00000000
00002300
00000000
00013000
00100000
,
00000000
00100000
01000000
00010000
10000000
01000000
10000000
00000000
,
11000000
00010000
00110000
01000000
,
01100000
10010000
00000000
00000000
,
20000000
00000000
30200000
00000000
00320000
00000000
00031000
00000100
,
00000000
00000100
00000001
00001000
00000100
00001000
00000010
00000100
,
00000002
00000000
00000023
00000000
00002030
00000000
00013000
01000000
,
00000000
01000000
10000000
00010000
01000000
00100000
01000000
00010000
,
10000000
00000000
00000000
00100000
00000000
00000000
00100000
00000000
00010000
00000000
00000000
00001000
00000000
00000000
00001000
00000000
,
00000100
00000000
00000000
00000001
00000000
00000000
00000001
00000000
00001000
00000000
00000000
00000100
00000000
00000000
00000100
00000000
,
00001000
00000010
00010000
00001000
01000000
00010000
10000000
01000000
,
10000000
00000000
00000000
00000000
,
10000000
10000000
00010000
00010000
00100000
00100000
00002000
00000000
,
00013000
00010000
00000100
00000100
00002000
00000000
00003010
00000100
,
00000001
00000001
00001000
00001000
00000100
00000100
00020000
00000000
,
00031000
00001000
00001000
00001000
00001000
00000000
00011000
00000000
,
00010000
00010000
00100000
00100000
10000000
10000000
01000000
01000000
,
00010000
00010000
00001000
00001000
00000010
00000010
00000001
00000002
,
00001000
00001000
00001000
00001000
00001000
00001000
00001000
00001000
,
00001003
00000000
00000000
00000000
,
00001001
00000000
00000000
00000000
;

//--------------- dance-double - ----------------
#NOTES:
     dance-double:
     :
     Hard:
     18:
     0,0,0,0,0:
00000000
00000000
00000000
00000000
,
00000000
00000000
00000000
00000000
,
00000000
00000000
00000000
00000000
,
00000000
00000000
00000000
00000000
,
00000000
00000000
00000000
00000000
,
00000000
00000000
00000000
00000000
,
00011000
00000000
00001000
00010000
00000000
00010000
00100000
00000000
,
01100000
00000000
00100000
10000000
00000000
10000000
01000000
00000000
,
01100000
00000000
00100000
00001000
00000000
00001000
00010000
00000000
,
00011000
00000000
00000000
00000000
00010000
00000000
00001000
00000000
00000000
00000000
00000000
00001000
00000010
00000100
00000010
00000100
,
00000010
00000000
00000000
00000001
00000000
00000000
00001001
00000000
00001000
00000000
00000000
00000100
00000000
00000000
00010100
00000000
,
00010000
00000000
00000000
00011000
00000000
00000000
00001000
00000000
00000000
01001000
00000000
00000000
01000000
00010000
01000000
00000000
,
00010000
01000000
00100000
01000000
00010000
01000000
00001000
00010000
00000100
00001000
00000100
00010000
00000100
00001000
00000010
00000100
,
00000020
00000000
00000000
00000030
,
00002002
00000000
00000000
00000000
00003003
00000000
00000000
00000000
00000001
00000000
00000100
00000000
00001000
00000000
00010000
00000000
00200000
00000000
00000000
00000000
01300000
00000000
00001000
00000000
00010000
00000000
01000000
00000000
00100000
01000000
00100000
01000000
,
00100000
00000000
00001000
00000000
00010000
00000000
00010000
00000000
00000010
00000000
00010000
00000000
00001000
00000000
00001000
00000000
00010000
00000000
00000100
00000000
00000010
00000000
00000001
00000000
00002000
00000000
00000000
00000000
00003010
00000100
00000010
00000100
,
00000020
00000000
00000000
00000000
00000030
00000000
00000000
00000000
00000010
00000000
00000100
00000000
00001000
00000000
00001000
00000000
00010000
00000000
00100000
00000000
01000000
00000000
01000000
00000000
00010000
00000000
00100000
00000000
01000000
00100000
01000000
00100000
,
01000000
10000000
00100000
01000000
00010000
00100000
00001000
00010000
00022000
00000000
00000000
00000000
00000000
00000000
00033000
00000000
,
00001000
00010000
00010100
00000100
00000010
00000001
00001001
00001000
,
00000100
00010000
00011000
00001000
01000000
00100000
01100000
00000000
,
10000000
00100000
01100000
01000000
00001000
00010000
00011000
00001000
,
00000010
00000000
00000001
00000000
00001001
00000000
00001000
00000000
00000010
00000000
00000000
00000100
00000001
00000100
00000001
00000100
,
00000001
00000000
00000000
00000010
00000000
00000000
00001000
00000000
00010000
00000000
00000000
01000000
00000000
00000000
10000000
00000000
,
00100000
00000000
00000000
00010000
00000000
00000000
00001000
00000000
00011000
00000000
00000000
00000000
00000000
00000000
00000000
00000000
,
00001000
00010000
00000010
00010000
00001000
00010000
00000010
00010000
00001000
00100000
00001000
00010000
00001000
00100000
00001000
00010000
,
00002000
00000000
00000000
00000000
00013000
00000000
00001000
00000000
00000010
00000000
00000001
00000010
00000100
00001000
00000001
00000000
,
00000200
00000010
00020300
01000000
,
10030000
01000000
00010000
00001000
00010000
00100000
10000000
00000000
,
00200000
01000000
00302000
00000010
,
00003001
00000010
00001000
00010000
00001000
00000100
00000001
00000000
,
00000010
00000001
00000100
00001000
00010000
00000010
00000100
00010000
,
01000000
00100000
00010000
00001000
00100000
00010000
00000010
00000000
,
00000001
00000010
00000001
00000010
00000100
00001000
00000100
00010000
00001000
00010000
00001000
00010000
00001000
00100000
00010000
00100000
,
00020000
00000000
00000000
00030000
,
00010000
00000000
10000000
00100000
10000000
00000000
00010000
00100000
00010000
00000000
10000000
01000000
10000000
00000000
00010000
01000000
,
00010000
00000000
01000000
00001000
01000000
00000000
00001000
00010000
00001000
00000000
00010000
00000100
00010000
00000000
00000100
00000000
,
00001000
00000000
00000010
00001000
00000010
00000000
00000100
00000001
00000100
00000000
00000001
00000010
00000001
00000000
00001000
00000100
,
00001000
00000000
00000100
00010000
00000100
00000000
00010000
00001000
00010000
00001000
00000000
00001000
00000000
00000000
00001000
00000000
,
00100000
00000000
00010000
01000000
00010000
00000000
00100000
01000000
00100000
00000000
00010000
10000000
00010000
00000000
01000000
00001000
,
01000000
00000000
00001000
00010000
00001000
00000000
00010000
00000010
00010000
00000000
00000100
00001000
00000100
00000000
00000010
00000000
,
00000001
00000000
00000100
00000010
00000100
00000000
00000010
00000000
00001000
00000010
00001000
00000010
00001000
00000000
00000010
00000000
,
00000100
00001000
00000000
00010000
00100000
00000000
01100000
00000000
,
10000000
00000000
00100000
01000000
00010000
00000000
10000000
00000000
01000000
00100000
00001000
00000000
00010000
00000000
00100000
00000000
,
00010000
00000000
00001000
00010000
00000100
00000000
00000010
00000000
00000001
00001000
00000100
00000000
00000001
00000000
00001000
00000000
,
00000010
00000000
00000001
00000100
00000010
00000000
00001000
00000000
00000100
00000010
00000001
00000000
00000100
00000000
00001000
00000000
,
00010000
00000000
00100000
01000000
10000000
00000000
01000000
00000000
00010000
10000000
00000000
10000000
00000000
00000000
10000000
00000000
,
01000000
00100000
01000000
00100000
00001000
00010000
00001000
00010000
00001000
00000000
00000000
00010000
00000000
00000000
00010000
00000000
,
00000100
00001000
00000100
00001000
00000100
00000010
00000001
00000010
00000001
00000000
00000000
00000000
00001001
00000000
00000000
00000000
,
00000001
00000010
00000100
00001000
00000100
00001000
00000100
00010000
00001000
00100000
00001000
00100000
00010000
00100000
01000000
10000000
,
00020000
00000000
00000000
00030000
,
20020000
00000000
00000000
00000000
30030000
00000000
00000000
10000000
01000000
00000000
01000000
00100000
00000000
00001000
00010000
00001000
,
00000000
00000000
00000000
00000000
00000000
00000000
00000000
00010000
00000100
00001000
00000100
00001000
00000000
00000010
00000100
00000000
,
00000000
00000000
00000000
00000000
00000000
00000000
00000000
00000000
00000001
00000000
00000100
00001000
00000000
00001000
00000000
00010000
,
00000000
00010000
00100000
00000000
10000000
00100000
10000000
00000000
00010000
10000000
00000000
10010000
00000000
00010000
00000000
10000000
,
01000000
00100000
00010000
01000000
00100000
00010000
00001000
00100000
00010000
00001000
00000100
00010000
00001000
00000100
00000010
00000000
,
00001000
00000001
00000010
00000100
00001000
00000010
00000100
00001000
00010000
00000100
00001000
00010000
00100000
00001000
00010000
00000000
,
00001000
00010000
00100000
01000000
00100000
00010000
00001000
00000000
00010000
00001000
00000100
00000010
00000100
00001000
00010000
00000000
,
00001000
00010000
00100000
01000000
00010000
00100000
01000000
00010000
00001000
00000010
00000100
00001000
00000010
00000100
00001000
00000100
,
00000002
00000000
00000000
00000000
00000000
00001003
00000200
00010300
,
00002000
01003000
00020000
10030000
02000000
03100000
02000000
03000000
,
20000000
00000000
00000000
00000000
00000000
30100000
02000000
03010000
,
00200000
00302000
00023000
00030020
00002030
00003002
00000023
00000030
,
00000001
00000000
00000000
00000100
00000000
00000000
00001000
00000000
00010000
00000000
00000000
00100000
00000000
00000000
10000000
00000000
,
10000000
00000000
00000000
01000000
00000000
00000000
00010000
00000000
00001000
00000000
00000000
00000010
00000000
00000000
00000001
00000000
,
00002000
00000000
00000000
00000000
,
00000000
00000000
00000000
00003000
,
00001001
00000001
00000010
00001000
00010000
00100000
01000000
00001000
,
00010000
01000000
10000000
00100000
01100000
00000000
10010000
00000000
,
10010000
10000000
00100000
00010000
00001000
00000010
00000100
00010000
,
00001000
00000000
00000100
00000000
00000001
00000000
00000010
00000000
00000110
00000000
00000000
00001000
00000001
00001000
00000001
00001000
,
00000001
00000100
00010000
00001000
00000010
00010000
00001000
00000010
,
00000100
00000010
00001000
00010000
01000000
00100000
00001000
00010000
,
00100000
01000000
00001000
00010000
00000100
00000010
00001000
00010000
,
00011000
00000000
00000000
00000000
00011000
00000000
00000000
00000000
00000000
00000000
00000000
00010000
00001000
00010000
00001000
00010000
,
00001000
00010000
00100000
00010000
00001000
00100000
00010000
00001000
,
00010000
00100000
00001000
00010000
00011000
00000000
00011000
00000000
,
00010000
00001000
00000010
00001000
00010000
00000010
00001000
00010000
,
00001000
00000010
00010000
00001000
00011000
00000000
00011000
00000000
,
00001000
00000000
00000000
00010000
00000000
00000000
00100000
01000000
00100000
00000000
00000000
00010000
00000000
00000000
00001000
00010000
,
00001000
00000000
00000000
00000010
00000000
00000000
00000100
00000010
00000100
00000000
00000000
00000010
00000000
00000000
00001000
00000000
,
00010000
00001000
00100000
00010000
00100000
01000000
00100000
00010000
00100000
00001000
00010000
00000100
00001000
00000100
00000010
00000001
,
00001000
00000000
00000000
00000000
,
00000001
00000010
00000100
00001000
00000010
00000100
00001000
00010000
00100000
01000000
00010000
01000000
00100000
00000000
00000000
00000000
,
10000000
01000000
00100000
00010000
10000000
01000000
00100000
00001000
00010000
00000000
00000000
00000000
00011000
00000000
00001000
00000000
,
00010000
00000010
00001000
00000100
00010000
00000010
00001000
00000100
00000010
00000001
00000100
00000010
00000100
00000000
00000000
00000000
,
00000001
00000100
00000010
00000100
00001000
00010000
00001000
00010000
00002000
00000000
00000000
00000000
00013000
00000000
00000000
00000000
,
00001000
01000000
00010000
00100000
01000000
10000000
00010000
01000000
00100000
00000000
00010000
00000000
00001000
00000000
00000010
00000000
,
00000001
00000100
00000010
00000000
00001000
00000100
00000010
00000000
00000001
00000000
00000100
00000000
00001000
00000000
00010000
00000000
,
00100000
10000000
01000000
00100000
00001000
00010000
00000100
00001000
00000001
00000010
00000100
00001000
00000010
00000100
00001000
00010000
,
00001000
00000000
00000000
00000000
,
00011000
00000000
00000000
00000000
;
