#TITLE:Megalara Garuda (Long Version);
#SUBTITLE:;
#ARTIST:SYUNN;
#TITLETRANSLIT:;
#SUBTITLETRANSLIT:;
#ARTISTTRANSLIT:;
#GENRE:;
#CREDIT:;
#MUSIC:28 Megalara Garuda(Long Version).mp3;
#BANNER:;
#BACKGROUND:;
#CDTITLE:;
#SAMPLESTART:33.614;
#SAMPLELENGTH:12.000;
#SELECTABLE:YES;
#OFFSET:1.092;
#BPMS:0.000=180.000
,8.000=90.000
,56.000=180.000
,488.000=360.000
,490.000=180.000
,584.000=90.000
,585.000=180.000
,617.000=90.000
;
#STOPS:488.000=2.333;
#DISPLAYBPM:90.000:180.000;
#BGCHANGES:;
#FGCHANGES:;

//--------------- dance-single - Renzo ----------------
#NOTES:
     dance-single:
     Renzo:
     Hard:
     17:
     0.821,1,0.228,0.408,0.73:
0000
0000
0000
0000
,
0000
0000
0000
0000
,
0000
0000
0000
0000
,
0000
0000
0000
0000
,
0002
0100
0003
0100
0000
0010
0000
0010
0000
1000
0000
0001
1000
0001
1000
0000
,
0001
0010
0000
0010
0000
0100
0000
0100
0000
0010
0000
0001
0100
0001
1000
0000
,
1000
0100
0000
0100
0000
0010
0000
0010
0000
0100
0000
1000
0010
0100
0001
0000
,
1000
0001
0000
0001
0000
0100
0000
0100
0000
0010
0000
1000
0001
1000
0001
1000
,
0001
0010
0100
1000
0100
0010
0001
0000
1000
0100
0010
0001
0010
0100
1000
0000
,
0001
0100
0010
1000
0010
0100
0001
0000
1000
0010
0100
0001
0100
0010
1000
0000
,
0001
0000
0100
0000
0010
0000
0000
0000
0000
0000
1000
0010
1000
0000
0000
0000
0001
0000
0010
0000
0100
0000
0000
0000
0000
0000
0010
0001
0010
0000
0001
0000
,
1000
0000
0010
0000
0100
0000
0000
0000
0000
0000
0001
0000
1000
0000
0001
0100
0001
0000
0000
0000
0010
0000
0000
0100
0000
0000
1000
0010
1000
0000
0001
0010
,
0001
1000
1100
0000
0001
0010
0011
0000
0100
0001
0101
0000
0010
1000
1010
0000
,
1000
0000
0000
0000
0000
0000
0100
0000
0000
0000
0000
0000
0010
0000
0000
0000
0000
0000
0001
0000
0000
0000
0000
0000
0100
0000
0000
0000
0000
0000
0010
0000
0000
0000
0000
0000
1000
0000
0000
0000
0000
0000
0001
0000
0000
0000
0000
0000
1000
0000
0000
0000
0000
0000
0000
0000
0000
1000
0000
0000
0000
0000
0000
0000
0000
0000
1000
0000
0000
0000
0000
0000
0001
0000
0000
0000
0010
0000
0000
0000
0100
0000
0000
0000
0010
0000
0000
0000
0100
0000
0000
0000
1000
0000
0000
0000
,
0002
0000
0000
0000
,
0203
0000
0000
0000
,
0320
0000
0000
0000
,
2030
0000
0000
0000
,
3001
0010
0200
1000
0000
0310
0200
1000
,
0000
0310
0100
2000
0000
3001
0001
0100
,
0001
1000
0010
0100
0010
1000
0100
0020
,
0000
0000
0031
0000
1000
0001
1000
0000
0010
0000
0100
0000
0001
0000
0010
0000
,
0100
1000
0200
0010
0000
1300
0100
0020
,
0000
0000
0031
0000
0100
0010
0100
0000
0010
0000
1000
0000
0001
0000
0010
0000
,
0001
1000
0020
0100
0000
1030
0010
0100
,
0001
0000
0010
0000
0100
0010
0100
0000
0010
0000
0001
0000
1000
0000
0010
0000
,
1000
0001
0020
0100
0000
0031
0010
0200
,
0000
0000
0310
0000
0001
1000
0001
0000
1000
0000
0001
0000
0100
0000
0010
0000
,
1000
1000
0200
0010
0000
1300
0100
0020
,
0000
0000
0031
0000
1000
0001
1000
0000
0001
0000
0100
0000
0010
0000
1000
0000
,
0001
0000
0010
0000
0100
1000
0001
0000
,
0100
0000
0010
0000
1000
0001
0010
0000
,
0100
0000
1000
0000
0010
1000
0001
0000
,
0100
0000
0000
0000
0001
0000
0000
1000
0000
0000
0100
0000
0010
0000
0001
1000
,
0001
0000
0100
0000
0010
1000
0001
0000
,
0010
0000
0100
0000
1000
0001
0010
0000
,
0100
0000
1000
0000
0010
1000
0001
0000
,
0100
0000
0000
0000
0001
0000
0000
1000
0000
0000
0100
0000
0010
0000
0001
1000
,
0001
0010
0002
0000
1003
0010
2000
0000
,
3001
0100
0002
0000
1003
0100
2000
0000
,
3100
0010
0002
0000
0103
0010
0002
0000
,
1003
0100
0020
0000
1030
0100
0020
0000
,
0130
1000
0100
1000
0001
0100
0001
0100
,
0010
1000
0010
1000
0001
0010
0001
0010
,
0100
1000
0100
0000
0010
0100
0010
0000
0001
0010
0001
0000
1000
0001
1000
0000
,
0020
0030
0000
0000
0000
0000
0000
0000
,
0200
0000
1000
0010
0301
0010
0001
0010
,
1000
0020
1000
0100
0032
0000
0103
0010
,
0200
0000
0001
0010
1300
0100
1000
0100
,
0001
0000
0020
0100
1030
0010
0001
0000
,
0200
0000
0001
0010
1300
0100
1000
0100
,
0001
0020
0001
0100
2030
0000
3010
0001
,
0100
0000
0010
1000
0100
0000
1001
0000
,
1000
0000
0001
0000
0100
0010
0100
0000
0001
0000
1000
0000
0100
0010
0100
0000
,
0020
0000
1000
0100
0031
0100
0001
0100
,
1000
0200
1000
0010
0302
0000
0013
0100
,
0020
0000
0001
0100
1030
0010
1000
0010
,
0001
0000
0200
0010
1300
0100
0001
0000
,
0020
0000
0001
0100
1030
0010
1000
0010
,
0001
0200
0001
0010
2300
0000
3100
0001
,
0010
0010
0100
1000
0010
0010
0100
0001
,
0010
0100
0010
0000
0100
1000
0100
0000
0010
0001
0010
0000
0001
1000
0001
0000
,
1000
0000
0010
0000
1010
0000
0000
0000
1000
0000
0100
0010
0100
0000
0010
0001
,
0010
0000
0001
0000
2000
0000
0000
0000
3001
0000
1000
0100
1000
0100
1000
0000
,
0002
0000
0000
0000
0000
0000
0000
0000
0103
0000
0000
0000
0010
0000
0000
0000
0220
0330
0000
0000
0220
0330
0000
0000
0010
0000
0000
0000
0100
0000
0010
0000
,
0100
0000
0001
0000
0100
0000
0010
1000
0000
0001
1000
0001
1000
0000
0000
0000
,
0002
0000
0000
0000
0000
0000
0000
0000
0013
0000
0001
0010
0100
1000
0100
1000
,
0100
0000
1000
0000
0010
0000
0100
0000
0001
0000
0000
0000
1000
0001
1000
0000
,
0002
0000
1003
0100
0002
0000
0103
1000
,
0001
0000
0100
0000
0010
1000
0100
0000
0010
0000
0001
0000
0100
0001
0010
0000
,
0001
0000
0100
0000
0010
0000
1000
0010
1000
0000
0001
1000
0001
1000
0001
1000
,
0001
0000
1000
0000
0010
0000
0100
0000
0001
0000
1000
0001
1000
0100
1000
0100
,
2000
0000
0000
0000
0000
0000
0000
0000
3100
0000
0000
0000
0010
0000
0000
0000
0022
0033
0000
0000
0202
0303
0000
0000
0001
0000
0100
0000
0001
0000
0100
0000
,
0001
0000
0000
1000
0100
0000
1000
0000
0010
0100
0010
0000
1000
0001
1000
0000
,
0002
0000
0000
0000
0000
0000
0000
0000
0103
0000
0010
1000
0001
1000
0001
0000
,
1000
0100
1000
0010
1000
0000
1000
0000
0200
0000
0000
0000
0310
0000
0010
0001
,
1000
0100
1000
0001
0010
0001
1000
0010
1000
0001
0100
0001
,
0010
0100
1000
0010
0100
0001
1000
0100
0100
0001
0010
0010
,
2000
0000
0000
0000
,
3020
0000
0000
0000
,
0230
0000
0000
0000
,
0302
0000
0000
0000
,
2003
0000
0000
0010
3000
0000
0001
0000
0010
0000
0100
0000
0001
0000
0010
0000
,
0200
0000
0000
0001
0300
0000
0100
0000
1000
0000
0010
0000
0100
0000
1000
0000
,
0002
0000
0000
0010
0003
0000
1000
0000
0100
0000
0010
0000
1000
0000
0001
0000
,
0200
0000
0000
0010
0300
0000
0001
0000
0100
0000
0010
0000
0001
0000
1000
0000
,
0100
0000
0000
0010
1000
0000
0001
0000
0010
0000
1000
0000
0010
0000
0001
0000
,
1000
0000
0000
0001
0100
0000
0001
0000
1000
0000
0100
0000
0001
0000
0100
0000
,
1000
0000
0000
0001
0010
0000
0001
0000
1000
0000
0010
0000
0001
0000
0010
0000
,
1000
0000
0000
0010
0100
0000
0001
0000
0100
0000
1000
0000
0100
0000
0001
0000
,
1000
0100
0000
1000
0100
0000
0010
0000
0001
0000
0010
0000
1000
0000
0010
0000
,
0100
0010
0000
0100
0010
0000
0001
0000
0100
0000
1000
0000
0100
0000
0001
0000
,
0010
0001
0000
0010
0001
0000
1000
0000
0100
0000
0001
0000
0010
0000
0001
0000
,
0100
1000
0000
0100
1000
0000
0010
0000
0001
0000
0100
0000
0001
0000
0010
0000
,
0100
0001
0000
0001
1000
0000
0001
0000
0010
0001
1000
0000
0010
1000
0001
0000
,
0010
0100
0000
0100
1000
0000
0010
0000
0100
0010
1000
0000
0100
0010
0001
0000
,
0010
0001
0000
0001
1000
0000
0010
0000
1000
0001
0100
0000
0001
1000
0100
0000
,
1000
0010
0000
0010
0100
0000
0001
0000
0010
0100
1000
0000
0010
0100
0001
0000
,
1000
0010
1000
0010
0100
0001
0100
0001
0010
0001
0010
0001
1000
0100
1000
0100
,
0010
0001
0010
0001
1000
0010
1000
0010
0100
0001
0100
0001
0010
0001
0010
0001
,
1000
0100
0010
0001
0010
0100
1000
0010
0100
0001
0100
0010
1000
0001
0010
0100
,
1000
0000
0220
0330
,
2002
0000
0000
0000
3003
0000
1000
0100
0010
0000
0001
0010
0000
0001
0100
0001
,
0100
0000
0220
0000
0330
0000
1000
0010
1000
0000
0001
0100
0000
0001
1000
0001
,
1000
0000
0000
0000
1100
0000
0000
0000
0100
0000
0010
0000
0001
0000
0000
0000
0011
0000
0000
0000
0000
0100
0000
0000
,
1010
0000
0101
0000
0001
0010
0001
1000
0010
1000
0100
0010
,
2002
0000
0000
0000
3003
0000
0001
0010
0100
0000
1000
0100
0000
1000
0010
1000
,
0010
0000
0220
0000
0330
0000
0001
0100
0001
0000
1000
0010
0000
1000
0001
1000
,
0002
0000
0000
0000
0003
0000
1000
0010
1000
0000
0001
0100
0000
0000
0001
0000
,
1000
0100
0010
0100
0010
0001
0100
0010
1000
0001
0000
0000
,
2002
0000
0000
0000
3003
0000
0001
0100
1000
0000
0000
0100
0000
0001
1000
0001
,
1000
0000
0200
0000
0300
0000
0001
0100
1000
0000
0000
0001
0000
0010
0001
0100
,
0001
0010
0000
0011
0000
0001
1000
0010
0000
1010
0000
1000
,
0001
0100
0000
0101
0000
0100
0001
1000
0000
1100
0000
0100
,
2000
0000
0000
0000
3000
0000
0001
0100
1000
0000
0000
0100
0000
0001
1000
0001
,
1000
0000
0200
0000
0300
0000
0001
0100
1000
0000
0000
0010
0000
1000
0001
1000
,
0001
0000
0200
0000
0300
0000
1000
0100
0001
0000
0000
0010
0000
0000
0100
0010
,
0001
0100
0010
0001
0010
1000
0001
0010
0100
0001
0100
1000
,
1001
0000
0001
0001
0010
0010
1100
0000
,
1000
0000
1000
0000
0010
0000
0010
0000
0100
0000
0100
0000
0001
1000
0001
1000
,
0001
0000
1000
0010
0001
1000
0100
0001
,
1000
0100
0001
1000
0010
0001
1000
0001
,
1001
0000
0000
0000
1000
0010
1000
1010
,
0000
0000
0100
0000
0001
0000
0101
0000
0000
0000
0001
0000
1000
0100
0010
0001
,
1000
0010
0100
0010
1000
0100
0010
0100
,
1000
0000
0001
0000
0010
0000
0100
0000
0010
0000
0001
0000
0100
0010
1000
0010
,
0100
0010
1000
0001
1000
0100
0010
0011
,
0000
0001
0010
0110
0000
0100
1000
1001
,
0000
0000
1000
0100
0010
0000
0001
0000
1000
0000
0100
0000
1100
0000
1000
0000
,
0001
0000
0100
0000
0101
0000
0001
0000
1000
0010
1000
0010
0100
0010
0100
0010
,
0100
0001
0100
0001
1000
0001
1000
0001
1000
0000
0100
0000
0010
0000
0011
0000
,
0000
0000
0001
0100
0010
0000
1010
0000
0000
0000
1000
0000
0001
0100
0001
0010
,
0001
1000
0010
0100
0001
0010
0001
0011
,
0000
0000
0001
0000
0100
0000
0001
0000
1000
0000
0010
0000
1000
0100
0010
0100
,
1000
0010
0100
0010
1000
0100
0010
0011
,
0000
0000
1000
0000
0100
0000
0110
0000
0000
0000
0001
0000
1000
0010
1000
0010
,
1000
0100
1000
0010
0100
0001
0010
0110
,
0000
0000
1000
0000
0010
0000
0110
0000
0000
0000
0001
0000
1000
0100
0010
0001
,
1000
0010
0100
0001
0020
0000
0000
0000
,
1000
0000
0000
0000
0032
0000
0000
0000
0203
0000
1000
0000
0000
0000
0301
0010
,
0100
0000
0200
0000
,
0001
0000
0000
0000
2300
0000
0000
0000
3020
0000
0001
0000
0000
0000
1030
0100
,
0010
0000
0000
0001
0200
0000
0000
0000
,
1000
0000
0000
0000
0302
0000
0000
0000
0023
0000
1000
0000
0000
0000
0031
0100
,
0010
0000
0020
0000
,
0001
0000
0000
0000
2030
0000
0000
0000
3200
0000
0001
0000
0000
0000
1300
0001
,
0010
0100
1000
0100
0010
0001
0010
0100
1000
0000
0000
0000
0000
0000
0000
0000
1010
0000
0000
0000
0000
0000
0000
0000
0001
0000
0000
0000
0000
0000
0000
0000
,
0011
1000
1100
0001
,
0101
1000
0110
0001
,
0110
0000
1000
0001
0101
0100
0110
0010
,
1010
0000
1000
0001
0011
0000
1000
0010
,
1010
0000
0001
0100
0101
0000
1000
0100
,
1100
0000
0001
1000
0110
0000
1000
0001
,
0110
0000
0000
0000
0000
0000
1000
0000
0000
0001
0000
0000
1001
0000
0000
0000
0000
0000
0001
0000
0100
0000
0001
0000
,
1000
0000
0000
0000
0100
0000
0000
0000
1000
0000
0000
0000
0001
0000
0000
0100
0000
0000
0000
0000
0000
0010
0000
0000
0000
0000
0000
1000
0000
0000
0100
0000
0000
0010
0000
0000
0000
0000
0000
0001
0000
0000
0100
0000
0000
0010
0000
0000
,
0000
1000
0100
0010
0001
1000
0001
0100
0000
0010
1000
0100
0000
0010
0001
0100
,
0000
0010
1000
0010
0100
0001
0010
0001
0000
0010
0100
1000
0000
0001
0100
1000
,
0000
0100
0001
0010
0100
0001
0100
1000
0000
0001
0010
0100
0000
1000
0100
0001
,
0100
0010
0001
0010
0200
1000
0300
1000
0001
0010
0000
0010
0001
0100
0001
0100
,
0020
0030
1000
0000
0010
0000
1000
0000
0001
0000
0010
0000
0000
0000
0010
0000
0100
0000
1000
0000
0010
0000
1000
0000
0002
0003
0100
0000
0001
0000
0100
0000
,
0010
0000
0100
0000
0010
0000
0100
0000
0001
0000
0010
0000
0000
0000
0100
0000
1000
0000
0001
0000
0000
0000
1000
0000
0020
0030
0100
0000
0001
0000
1000
0000
,
0002
0003
0100
0000
0010
0000
1000
0000
0002
0003
0100
0000
0000
0000
0100
0000
1000
0000
0100
0000
1000
0000
0100
0000
0002
0003
0010
0000
0001
0000
0010
0000
,
0200
0300
1000
0000
0100
0000
1000
0000
0000
0000
0000
0000
0000
0000
0000
0000
0000
0000
0000
0000
0000
0000
0000
0000
0000
0000
0000
0000
0000
0000
0000
0000
;
