#TITLE:Heavy Rain;
#SUBTITLE:;
#ARTIST:Amebre Kizami;
#TITLETRANSLIT:;
#SUBTITLETRANSLIT:;
#ARTISTTRANSLIT:;
#GENRE:;
#CREDIT:;
#MUSIC:Heavy Rain.ogg;
#BANNER:Heavy Rain.png;
#BACKGROUND:Heavy Rain-bg.png;
#CDTITLE:./CDTitles/DDR WORLD.png;
#SAMPLESTART:68.966;
#SAMPLELENGTH:15.000;
#SELECTABLE:YES;
#OFFSET:0.000;
#BPMS:0.000=174.000;
#STOPS:;
#BGCHANGES:;
#FGCHANGES:;

//--------------- dance-single - Renzo ----------------
#NOTES:
     dance-single:
     Renzo:
     Challenge:
     17:
     0,0,0,0,0:
0000
0000
0000
0000
,
0000
0000
0000
0000
,
0000
0000
0000
0000
,
0000
0000
0000
0000
,
0000
0000
0000
0000
,
0000
0000
0000
0000
,
0220
0030
0000
0300
0001
0010
0001
0000
1000
0010
1000
0000
0001
0010
0001
0000
,
0220
0300
0000
0030
1000
0010
1000
0000
0001
0010
0001
0000
1000
0010
1000
0000
,
1001
0100
0010
0100
1000
0010
0100
0001
,
0010
2000
3020
0032
0103
0010
1000
0100
,
0110
0000
0000
0000
0001
0100
0001
0000
1000
0100
1000
0000
0001
0100
0001
0000
,
1001
0000
0000
0000
1000
0100
1000
0000
0001
0100
0001
0000
1000
0100
1000
0000
,
1001
0001
0100
0010
0100
0001
0010
1000
,
0010
0001
0100
0010
1000
0001
0010
0100
,
0110
0000
0000
0000
0001
1000
0001
0000
0100
0010
0100
0000
0001
1000
0001
0000
,
1001
0000
1000
0000
0100
0010
0100
0000
1000
0001
1000
0000
0010
0100
0010
0000
,
0100
0100
1001
0100
0010
0010
1001
0100
,
0010
0100
0010
0100
0010
0100
0010
0100
0001
0000
1000
0000
1001
0000
1001
0000
,
0001
0000
0100
0000
0010
0000
1000
0100
1000
0100
0010
0000
0001
0000
1000
0000
,
0010
0000
0100
0000
0001
0000
0010
0100
0010
0100
1000
0000
0010
0000
0100
0000
,
0001
0000
0010
0000
0100
0000
0010
0001
0010
0001
1000
0000
0010
0000
0100
0000
,
0001
0010
0001
0000
0100
0000
0001
0010
0001
0000
0100
0000
0001
0010
0001
0010
,
0100
0000
1000
0000
0010
0000
0100
0010
0100
0010
1000
0000
0100
0000
0010
0000
,
0001
0000
1000
0000
0010
0000
0100
0001
0100
0001
0010
0000
0100
0000
1000
0000
,
0010
0100
0010
0000
1000
0000
0100
0010
0100
0000
1000
0000
0010
0100
0010
0000
,
1000
0001
1000
0000
0110
0000
0110
0000
1000
0100
0010
0001
1000
0000
0010
0000
,
0110
0000
0010
0000
0100
0000
0001
0010
0001
0010
0100
0000
1000
0000
0001
0000
,
0100
0000
0010
0000
1000
0000
0100
0010
0100
0010
0001
0000
0100
0000
0010
0000
,
1000
0000
0100
0000
0010
0000
0100
1000
0100
1000
0001
0000
0100
0000
0010
0000
,
1000
0100
1000
0000
0010
0000
1000
0100
1000
0000
0010
0000
1000
0100
1000
0100
,
0010
0000
0001
0000
0100
0000
0010
0100
0010
0100
0001
0000
0010
0000
0100
0000
,
1000
0000
0001
0000
0100
0000
0010
1000
0010
1000
0100
0000
0010
0000
0001
0000
,
0100
0010
0100
0000
0001
0000
0010
0100
0010
0000
0001
0000
0100
0010
0100
0000
,
0001
1000
0001
0000
0010
0000
0001
0100
0010
1000
0001
0000
0110
0000
0010
0000
,
2001
0000
3200
0000
,
0320
0000
0032
2003
,
3020
0000
2030
0000
3200
0000
0010
0010
,
0000
0001
0000
1300
0000
0000
0000
0000
,
1002
0000
0203
0000
,
0320
0000
0000
2030
,
3002
0000
0023
0000
0100
0130
1000
0020
,
0000
0000
0001
0000
0000
0000
1030
0000
0100
0000
0010
0000
0001
0000
0100
0010
,
0200
0000
1300
0100
0001
0010
2000
0000
,
3001
0100
1000
0010
0002
0000
1003
0100
,
0000
0000
0101
0000
0021
0000
1030
0010
,
0001
0000
0120
0000
1030
0100
0002
0000
,
0000
0000
1003
0010
0001
0100
2000
0000
,
3001
0010
1000
0100
0001
0000
0110
0000
,
1000
0100
1000
0100
0010
0001
0010
0001
0100
0010
0100
0010
1000
0001
1000
0001
,
0010
0100
1000
0010
0100
0000
0110
0000
0010
1000
0001
0010
0100
0000
0000
0000
,
1001
0000
1000
0000
0001
0000
0010
0100
1000
0100
1000
0000
0010
0000
0100
0000
,
0001
0000
0010
0000
0100
0000
1000
0010
0100
0010
0100
0000
0001
0000
0010
0000
,
0100
0000
1000
0000
0001
0100
0001
0000
1000
0010
1000
0000
0100
0000
0010
0000
,
0001
0010
0001
0000
1000
0100
1000
0000
0010
0100
0010
0100
0001
0000
0010
0000
,
0110
0000
0100
0000
0010
0000
0001
0100
0010
0100
0010
0000
1000
0000
0001
0000
,
0010
0000
0100
0000
1000
0000
0010
0100
0001
0100
0001
0000
0010
0000
0001
0000
,
1000
0000
0010
0000
0100
0001
0100
0000
0010
1000
0010
0000
1000
0000
0100
0000
,
0010
0001
0010
0000
0100
1000
0100
0000
1000
0010
1000
0010
0100
0000
0001
0000
,
0010
0100
1000
0000
0010
0000
0100
0001
0010
0001
0010
0000
0100
0000
0010
0000
,
0001
0100
0010
0000
1000
0000
0010
1000
0100
1000
0100
0000
0010
0000
0001
0000
,
0100
0001
0010
0000
0100
1000
0001
0000
0100
0001
1000
0000
0010
0000
0100
0000
,
0010
1000
0001
0000
0010
0001
1000
0000
0010
0100
0010
0100
0001
0000
1000
0000
,
0100
0010
0001
0000
0100
0000
0010
1000
0100
1000
0100
0000
0010
0000
0100
0000
,
1000
0010
0100
0000
0001
0000
0100
0001
0010
0001
0010
0000
0100
0000
1000
0000
,
0010
1000
0100
0000
0010
0001
1000
0000
0010
1000
0001
0000
0100
0000
0010
0000
,
0100
0001
1000
0000
0100
1000
0001
0000
0100
0001
1000
0100
1000
0001
0100
0001
,
2000
0000
0000
0000
3010
1000
0100
0000
0010
0001
0100
0000
0010
1000
0100
0000
,
0020
0000
0000
0000
0130
1000
0010
0000
0100
0001
0010
0000
0100
1000
0010
0000
,
0100
0001
0100
0000
0010
0000
1000
0100
1000
0000
0010
0000
0100
0001
0100
0000
,
0010
0000
1000
0100
1000
0000
0010
0000
0100
0001
0100
0001
0010
0000
0100
0000
,
1000
0000
0010
0000
0100
0001
0010
0000
0100
1000
0010
0000
0100
0001
0010
0000
,
0200
0000
0000
0000
0310
0001
0100
0000
0010
1000
0100
0000
0010
0001
0100
0000
,
0010
1000
0010
0000
0100
0000
0001
0010
0001
0000
0100
0000
0010
1000
0010
0000
,
0100
0000
0001
0010
0001
0000
0100
0000
0100
0000
0001
0010
0100
0000
0110
0000
,
1001
0000
0001
0000
1000
0100
0010
0000
0001
0100
0010
0000
1000
0100
0010
0000
,
0002
0000
0000
0000
1003
0010
0100
0000
0001
0010
0100
0000
1000
0010
0100
0000
,
0001
1000
0001
0000
0010
0000
0001
1000
0001
0000
0100
0000
0010
0100
0010
0000
,
1000
0000
0100
0010
0100
0000
1000
0000
0010
0100
0010
0100
0001
0000
0010
0000
,
0100
0000
1000
0000
0001
0100
0010
0000
1000
0100
0010
0000
0001
0100
0010
0000
,
2000
0000
0000
0000
3001
0010
0100
0000
1000
0010
0100
0000
0001
0010
0100
0000
,
0010
0001
0100
0000
0110
0000
0010
1000
0100
0000
0110
0000
0001
0100
1000
0000
,
1001
0000
1000
0010
0001
0000
0110
0000
0001
0100
1000
0100
0001
0000
0000
0000
,
1001
0000
0000
0000
;

//--------------- dance-double - ----------------
#NOTES:
     dance-double:
     :
     Easy:
     7:
     0,0,0,0,0:
00000000
00000000
00000000
00000000
,
00000000
00000000
00000000
00000000
,
00000000
00000000
00000000
00000000
,
00000000
00000000
00000000
00000000
,
00000000
00000000
00000000
00000000
,
00000000
00000000
00000000
00000000
,
00010000
01000000
00100000
00000000
,
10000000
00010000
00100000
00000000
,
00001000
00010000
00001000
00010000
,
00000010
00001000
00000100
00000010
,
00000001
00001000
00000100
00000000
,
00001000
00000010
00010000
00000000
,
00001000
00010000
00001000
01000000
,
00010000
10000000
01000000
00100000
,
00010000
10000000
10010000
00000000
,
00010000
01000000
01001000
00000000
,
00001000
00010000
00001000
00010000
,
00000010
00001000
00000100
00000100
,
00001000
00000001
00000100
00000010
,
00001000
00000010
00010000
00001000
,
00100000
00100000
00010000
00010000
,
10000000
00100000
01000000
01100000
,
10000000
00100000
01000000
00100000
,
10000000
00010000
00100000
00001000
,
00010000
00010000
00000100
00000100
,
00001000
00000010
00000100
00000110
,
00000001
00001000
00000100
00010000
,
00001000
01000000
00010000
01000000
,
00100000
00100000
10000000
10000000
,
00010000
00100000
00001000
00011000
,
00010000
00000100
00001000
00000001
,
00000010
00000100
00001000
00000001
,
00001000
00001000
00000100
00000100
,
00010000
00001000
00010000
00011000
,
00002000
00000000
00000000
00000000
,
02003000
00000000
00000000
00000000
,
03010000
00000000
10000000
00000000
,
00020000
00000000
00000000
00000000
,
00230000
00000000
00000000
00000000
,
00302000
00000000
00000000
00000000
,
00013000
00000000
00000100
00000000
,
00001000
00000000
00000000
00000000
,
00000002
00000000
00000000
00000000
,
00002003
00000000
00000000
00000000
,
00003010
00000000
00010000
00000000
,
00002000
00000000
00000000
00000000
,
00103000
00000000
00010000
00000000
,
01000000
00000000
00000000
00000000
,
10010000
00000000
00000000
00000000
,
00000000
00000000
00000000
00000000
,
00010000
10000000
01000000
00100000
,
00010000
00100000
00001000
00010000
,
00000100
00001000
00001000
00000100
,
00000010
00000001
00001000
00000001
,
00001000
00000001
00000010
00000100
,
00001000
00000100
00010000
00001000
,
00100000
00010000
00010000
00100000
,
01000000
10000000
00010000
10000000
,
00010000
10000000
00100000
01000000
,
00010000
01000000
00001000
00010000
,
00000010
00001000
00001000
00000010
,
00000100
00000001
00001000
00000001
,
00001000
00000001
00000100
00000010
,
00001000
00000010
00010000
00001000
,
01000000
00010000
00010000
01000000
,
00100000
10000000
00010000
10000000
,
01000000
00010000
00001000
00000000
,
00010000
00001000
00000010
00000000
,
00000001
00000001
00001000
00000100
,
00000010
00000010
00000001
00001000
,
00000001
00000100
00001000
00000000
,
00000100
00001000
00010000
00000000
,
00100000
00000000
00000000
00100000
00000000
00000000
10000000
00000000
,
00010000
01000000
00001000
00010000
,
00001000
00000010
00000001
00000000
,
00000010
00001000
00010000
00000000
,
00001000
00001000
01000000
00010000
,
10000000
10000000
01000000
00100000
,
00010000
01000000
00001000
00000000
,
00010000
00000010
00001000
00000000
,
00000100
00000000
00000000
00000100
00000000
00000000
00001000
00000000
,
00000100
00010000
00001000
01000000
,
01100000
00000000
00000000
00000000
;

//--------------- dance-double - ----------------
#NOTES:
     dance-double:
     :
     Medium:
     10:
     0,0,0,0,0:
00000000
00000000
00000000
00000000
,
00000000
00000000
00000000
00000000
,
00000000
00000000
00000000
00000000
,
00000000
00000000
00000000
00000000
,
00000000
00000000
00000000
00000000
,
00000000
00000000
00000000
00000000
,
00000001
00001001
00001100
00000000
,
00000100
00010100
00011000
00000000
,
00000000
00001000
00000000
00100000
00000000
00010000
00000000
10000000
,
00000000
01000000
00100000
01000000
00000000
10000000
01000000
00100000
,
00010000
00110000
00101000
00000000
,
00001000
00011000
00010010
00000000
,
00000000
00000010
00000000
00001000
00000000
00000001
00000000
00000100
,
00000000
00000010
00001000
00000010
00000000
00010000
00001000
01000000
,
00010000
10010000
11000000
00000000
,
00010000
01010000
01001000
00000000
,
00001000
00010000
00001000
00000000
00010000
00000100
00010000
00000000
,
00000100
00001000
00000100
00001000
00000001
00000010
00000001
00000000
,
00001000
00000000
00000010
00000000
00010000
00000000
00001000
00010000
,
00000000
00001000
00000000
00000000
00100000
00010000
00000000
00000000
,
00000000
10000000
00100000
10000000
00000000
00010000
00100000
00010000
,
00000000
00000000
00100000
00001000
00000000
00010000
00000100
00001000
,
00000100
00000000
00000010
00000000
00000001
00000000
00001000
00000010
,
00000000
00010000
00001000
00000000
01000000
00010000
01000000
00000000
,
00000000
00100000
10000000
00100000
00000000
01000000
00010000
01000000
,
00000000
00001000
00010000
00000010
00000000
00001000
00000001
00000000
,
00000100
00000000
00000010
00000000
00001000
00000000
00000001
00000100
,
00000000
00001000
00000000
00010000
00001000
00000000
00100000
00000000
,
00000000
00010000
00100000
00010000
00000000
10000000
01000000
10000000
,
00000000
00010000
00000000
01000000
00000000
00100000
01000000
00000000
,
00010000
00000000
10000000
00000000
00100000
00000000
00010000
00001000
,
00000000
00010000
00000000
00001000
00000100
00000000
00000001
00000000
,
00000000
00001000
00000100
00001000
00000000
00000001
00000010
00000001
,
00000000
00001000
00000000
00000100
00000000
00010000
00001000
00000000
,
02000000
00000000
03020000
00000000
,
20030000
00000000
31000000
00100000
,
00010000
00000000
10000000
00000000
00010000
00000000
00100000
00001000
,
00000000
00010000
00000000
00001000
00000000
00000000
00000000
00000000
,
00000020
00000000
00000032
00000000
,
00002003
00000000
00003000
00000010
,
00001000
00000000
00000010
00000000
00010000
00001000
00010000
00001000
,
00000000
00100000
00000000
00010000
00000000
00000000
00000000
00000000
,
20000000
00000000
32000000
00000000
,
03200000
00000000
00310000
00001000
,
00000100
00000000
00000010
00000000
00000100
00001000
00000100
00010000
,
00000000
00001000
00000000
00000100
00000001
00000000
00000000
00000000
,
00001000
00000000
00000100
00000000
00010000
00001000
01000000
00010000
,
00000000
10000000
00000000
00100000
01000000
00000000
00010000
00000000
,
20000000
00000000
00000000
00020000
00000000
00000000
00000000
00000000
,
30030000
00000000
00000000
00000000
,
01100000
00000000
00010000
00100000
00010000
00000000
00100000
00000000
,
00001000
00010000
00001000
00000000
00010000
00000000
00000100
00000000
,
00001000
00000000
00000001
00000000
00000001
00000000
00000010
00000100
,
00000010
00000000
00000001
00000000
00000010
00001000
00010000
00000000
,
00011000
00000000
00001000
00100000
00001000
00000000
00100000
00000000
,
00010000
10000000
00010000
00000000
10000000
00000000
00100000
00000000
,
01000000
00000000
00010000
00000000
00010000
00000000
00100000
00001000
,
00010000
00000000
00000010
00000000
00001000
00000100
00000010
00000000
,
00000110
00000000
00000001
00000100
00000001
00000000
00001000
00000000
,
00000100
00010000
00000100
00000000
00001000
00000000
00000100
00010000
,
00001000
00000000
01000000
00000000
01000000
00000000
00010000
01000000
,
00100000
00000000
10000000
00000000
00010000
00100000
01000000
00000000
,
01100000
00000000
10000000
01000000
10000000
00000000
00010000
00000000
,
01000000
00001000
01000000
00000000
00001000
00000000
00010000
00000010
,
00001000
00000000
00000001
00000000
00000001
00000000
00000010
00000100
,
00000010
00000000
00000001
00000000
00000100
00001000
00010000
00000000
,
00001000
00000000
01000000
00000000
00100000
01000000
00100000
00000000
,
10000000
00000000
01000000
00000000
00100000
01000000
00100000
00000000
,
00001000
00000000
00010000
00000000
00000100
00000010
00000100
00000000
,
00001000
00000000
00000001
00000000
00001000
00000100
00010000
00001000
,
00010000
00000000
00000010
00000000
00000100
00000010
00000100
00000000
,
00000001
00000000
00000010
00000000
00000100
00000010
00000100
00000000
,
00001000
00000000
00000100
00000100
00000000
00010000
00010000
00000000
,
00001000
00001000
00000000
00100000
00010000
00100000
00001000
00000000
,
00010000
00000000
00000100
00000000
00000010
00000100
00000010
00000000
,
00000001
00000000
00000100
00000000
00000010
00000100
00000010
00000000
,
00010000
00000000
00001000
00000000
01000000
00100000
01000000
00000000
,
00010000
00000000
10000000
00000000
00010000
01000000
00001000
00010000
,
00001000
00000000
00100000
00000000
01000000
00100000
01000000
00000000
,
10000000
00000000
00100000
00000000
01000000
00100000
01000000
00000000
,
00010000
00000000
01000000
01000000
00000000
00001000
00001000
00000000
,
00010000
00000100
00001000
00000001
00000010
00000100
00001000
00000000
,
00001001
00000000
00000000
00000000
;

//--------------- dance-double - ----------------
#NOTES:
     dance-double:
     :
     Hard:
     13:
     0,0,0,0,0:
00000000
00000000
00000000
00000000
,
00000000
00000000
00000000
00000000
,
00000000
00000000
00000000
00000000
,
00000000
00000000
00000000
00000000
,
00000000
00000000
00000000
00000000
,
00000000
00000000
00000000
00000000
,
10000000
00000000
00100000
00000000
10100000
00000000
10000000
01000000
,
00100000
00000000
00010000
00000000
00110000
00000000
00100000
00001000
,
00010000
00001000
00010000
00000010
00001000
00000010
00001000
00000001
,
00000010
00000001
00000100
00000010
00001000
00000100
00010000
00001000
,
00100000
00000000
00010000
00000000
00110000
00100000
00010000
10000000
,
01000000
00000000
10000000
00000000
10010000
00010000
01000000
00000000
,
00001000
00010000
00001000
00010000
00000100
00001000
00000100
00001000
,
00000001
00000010
00000100
00001000
00000100
00010000
00001000
01000000
,
00010000
00000000
01100000
00000000
10010000
10000000
00100000
01000000
,
00010000
00000000
01001000
00000000
00011000
00001000
00010000
00000010
,
00001000
00001000
00000001
00000100
00000001
00000001
00000010
00000100
,
00001000
00000100
00010000
00001000
01000000
00010000
10000000
00000000
,
00010000
00000000
00110000
00000000
00101000
00000000
00001000
00010000
,
00000100
00001000
00000010
00000100
00000001
00001000
00000100
00000000
,
00000000
00001000
00000100
00000001
00000000
00000001
00000100
00001000
,
00000100
00000000
00010000
00001000
00000000
00100000
00010000
01000000
,
00100000
00000000
10100000
00000000
10010000
00000000
10000000
00100000
,
01000000
00010000
00100000
00000000
00001000
00010000
00000010
00000000
,
00000000
00001000
00000010
00000001
00000000
00000001
00000010
00001000
,
00000001
00001000
00000010
00000010
00001000
00000001
00000100
00000000
,
00000010
00000000
00001010
00000000
00010010
00000000
00010000
00001000
,
00100000
00010000
01000000
00100000
10000000
00010000
00100000
00000000
,
00000000
00010000
00100000
10000000
00000000
10000000
00100000
00010000
,
00100000
00001000
00010000
00001000
00000000
00010000
00000100
00001000
,
00000010
00000000
00001010
00000000
00001001
00000000
00000001
00000100
,
00000010
00001000
00000100
00000000
00010000
00001000
00100000
00000000
,
00000000
00010000
00100000
10000000
00000000
10000000
00100000
00010000
,
00000000
01000000
00010000
00100000
00000000
00001000
00011000
00000000
,
00020000
00030020
00002030
00003200
,
00000302
00000203
00000320
00002030
,
00013000
00000000
01000000
00000000
00010000
00000000
00001000
00010000
,
00000000
00000100
00000000
00001000
00000001
00000100
00001000
00000000
,
00020000
00032000
02003000
03020000
,
00230000
20300000
30200000
02300000
,
03010000
00000000
00001000
00000000
00010000
00000100
00001000
00000001
,
00000000
00000100
00000000
00000010
00001000
00000100
00010000
00000000
,
00011000
00000000
00001000
00010000
00100000
00010000
00001000
00000000
,
00011000
00000000
00010000
00001000
00000100
00001000
00010000
00000000
,
00001000
00000000
01000000
00000000
00010000
00100000
10000000
00100000
,
00000000
01000000
00000000
10000000
00100000
01000000
00010000
00000000
,
01000000
00000000
01001000
00000000
00001000
00010000
00001000
00000010
,
00000000
00000001
00000000
00000010
00001000
00000000
00010000
00000000
,
00000200
00000000
00000000
00002000
00000000
00000000
00000000
00000000
,
00003300
00000000
00000000
00000000
,
00001001
00000000
00001000
00000100
00000001
00000100
00001000
00000000
,
00000001
00000010
00001000
00010000
01000000
00000000
10000000
00010000
,
00100000
00000000
00101000
00000000
00011000
00000000
00010000
00000100
,
00010000
00000000
00001000
00000000
00100000
00010000
01000000
00000000
,
10010000
00000000
00010000
00100000
10000000
00100000
00010000
00000000
,
10000000
01000000
00010000
00001000
00000010
00000000
00000001
00001000
,
00000100
00000000
00010100
00000000
00011000
00000000
00001000
00100000
,
00001000
00000000
00010000
00000000
00000100
00001000
00000010
00000000
,
00000110
00000000
00000001
00000100
00001000
00010000
01000000
00000000
,
10000000
01000000
00010000
00001000
00000100
00000000
00000010
00001000
,
00000100
00000000
00001100
00000000
00000011
00000000
00001000
00000010
,
00010000
00000000
00001000
00000000
01000000
00010000
00100000
00000000
,
01100000
00000000
10000000
00100000
00010000
00001000
00000010
00000000
,
00000001
00000010
00001000
00010000
00100000
00000000
01000000
00010000
,
00100000
00000000
00110000
00000000
11000000
00000000
00010000
00100000
,
00001000
00000000
00010000
00000000
00000100
00001000
00000001
00000000
,
00000010
00000000
00000001
00000100
00000010
00001000
00000010
00000000
,
00010000
00000000
00000000
00000000
00001000
00000000
00100000
00000000
00010000
00000000
01000000
00000000
00010000
01000000
00000000
00000000
,
00100000
00000000
10000000
00010000
01000000
00100000
01000000
00000000
,
00001000
00000000
00000000
00000000
00010000
00000000
00000010
00000000
00001000
00000000
00000001
00000100
00000001
00000000
00000100
00000000
,
00000010
00000000
00001000
00000010
00010000
00001000
01000000
00000000
,
00010000
00000000
00000000
00000000
10000000
00000000
00100000
00000000
01000000
00000000
00010000
00000000
01000000
00010000
00000000
00000000
,
10000000
00000000
00010000
00110000
00000000
01000000
01000000
00000000
,
00001000
00000000
00011000
00000000
00000000
00000000
00001000
00000000
00001000
00000000
01000000
00010000
10000000
00000000
00000000
00000000
,
00100000
00000000
10000000
00100000
01000000
00010000
01000000
00000000
,
00001000
00000000
00000000
00000000
00010000
00000000
00000100
00000000
00001000
00000000
00000010
00000000
00001000
00000010
00000000
00000000
,
00000100
00000000
00000001
00001000
00000010
00000100
00000010
00000000
,
00010000
00000000
00000000
00000000
00001000
00000000
01000000
00000000
00010000
00000000
10000000
00100000
10000000
00000000
00100000
00000000
,
01000000
00000000
00010000
01000000
00001000
00010000
00000010
00000000
,
00001000
00000000
00000000
00000000
00000001
00000000
00000010
00000000
00000100
00000000
00001000
00000000
00000100
00001000
00000000
00000000
,
00000001
00000000
00000000
00000000
00001000
00000000
00001100
00000000
00000000
00000000
00000100
00000000
00010000
00000000
00001000
00010000
,
00001000
00000000
01000000
00000000
00010000
00000000
00100000
00000000
01000000
00100000
01000000
00000000
00010000
00000000
00000000
00000000
,
10010000
00000000
00000000
00000000
;
