#TITLE:Environ [De-SYNC] (feat. lythe);
#SUBTITLE:;
#ARTIST:DV-i;
#TITLETRANSLIT:;
#SUBTITLETRANSLIT:;
#ARTISTTRANSLIT:;
#GENRE:;
#CREDIT:;
#MUSIC:Environ [De-SYNC] (feat. lythe).ogg;
#BANNER:Environ [De-SYNC] (feat. lythe).png;
#BACKGROUND:Environ [De-SYNC] (feat. lythe)-bg.png;
#CDTITLE:./CDTitles/DDR A3.png;
#SAMPLESTART:39.001;
#SAMPLELENGTH:15.000;
#SELECTABLE:YES;
#OFFSET:0.000;
#BPMS:0.000=160.000;
#STOPS:;
#STAGE:15;
#BGCHANGES:;
#FGCHANGES:;

//--------------- dance-single - ----------------
#NOTES:
     dance-single:
     :
     Beginner:
     4:
     0,0,0,0,0:
0000
0000
0000
0000
,
0000
0000
0000
0000
,
0000
0000
0000
0000
,
0000
0000
0000
0000
,
0000
0000
0000
0000
,
0000
0000
0000
0000
,
0001
0000
0010
0000
,
0001
0001
0010
0000
,
0001
0000
0100
0000
,
0010
0000
0000
0000
,
1000
1000
0010
0000
,
1000
1000
0100
0000
,
0010
0000
0000
0000
,
0000
0000
0000
0000
,
0001
0001
0100
0000
,
0001
0001
0010
0000
,
0100
0000
0000
0000
,
0000
0000
0000
0000
,
1000
0000
0010
0000
,
1000
0000
0010
0000
,
0100
0100
1000
0000
,
0100
0000
0000
0000
,
0001
0000
0010
0000
,
0001
0000
0010
0000
,
0100
0100
0001
0000
,
0100
0000
0000
0000
,
0001
0000
0010
0000
,
0100
0100
0001
0000
,
0010
0000
0100
0000
,
1000
0000
0000
0000
,
1001
0000
0000
0000
,
0110
0000
0000
0000
,
1001
0000
0000
0000
,
0000
0000
0000
0000
,
1000
0000
0100
0000
,
0010
0010
1000
0000
,
0100
0000
0010
0000
,
0001
0000
0000
0000
,
1001
0000
0000
0000
,
0110
0000
0000
0000
,
1001
0000
0000
0000
,
0000
0000
0000
0000
,
1000
0000
0010
0000
,
0100
1000
0100
0000
,
1000
0000
0010
0000
,
0100
0000
0001
0000
,
0010
0000
0001
0000
,
0100
0100
0001
0000
,
1001
0000
0000
0000
,
0000
0000
0000
0000
,
0001
0000
0100
0000
,
0010
0001
0010
0000
,
0001
0000
0100
0000
,
0010
0000
1000
0000
,
0100
0000
1000
0000
,
0010
0010
1000
0000
,
0100
0000
0010
0000
,
0001
0000
0001
0000
,
1000
0000
0100
0000
,
0010
0000
0001
0000
,
1001
0000
0000
0000
,
0000
0000
0000
0000
,
1001
0000
0000
0000
;

//--------------- dance-single - ----------------
#NOTES:
     dance-single:
     :
     Easy:
     9:
     0,0,0,0,0:
0000
0000
0000
0000
,
0000
0000
0000
0000
,
0000
0000
0000
0000
,
0000
0000
0000
0000
,
0000
0000
0000
0000
,
0000
0000
0000
0000
,
0001
0000
0100
0000
0010
1000
0010
0000
,
1000
0000
0100
0000
0010
0001
0010
0000
,
0100
1000
0001
0000
0100
0001
1000
0000
,
0010
0100
0110
0000
,
1000
0000
0001
0000
0010
0100
1000
0000
,
0001
0100
0001
0000
,
1000
0000
0100
0000
0010
0001
0100
0000
,
0010
0010
0110
0000
,
0001
0000
1000
0000
0100
0010
0001
0000
,
1000
0010
1000
0000
,
0001
0000
0010
0000
0100
1000
0010
0000
,
0100
0100
0010
0110
,
0001
0100
1000
0100
,
0001
1000
0100
0001
,
0100
1000
0100
0000
1000
0001
1000
0000
,
1001
0000
0000
0000
,
0001
0010
1000
0010
,
0001
1000
0010
0001
,
0010
1000
0010
0000
1000
0001
1000
0000
,
1001
0000
0000
0000
,
0001
0000
0100
0010
0000
1000
0010
0000
,
1000
0100
0001
0100
,
1000
0000
0001
0010
0000
0001
0100
0000
,
0010
1000
0001
0100
,
0001
1000
0100
0010
,
0001
0100
0010
1000
,
0001
0000
0000
0001
0000
0000
0001
0000
0000
0000
0000
0000
0000
0000
0000
0000
,
1000
0000
0000
1000
0000
0000
1000
0000
0000
0000
0000
0000
0000
0000
0000
0000
,
1000
0000
0010
0100
0000
0001
0100
0000
,
0001
0010
1000
0010
,
0001
0000
1000
0100
0000
1000
0010
0000
,
0100
0001
1000
0010
,
1000
0001
0010
0100
,
1000
0010
0100
0001
,
2000
0000
0000
0000
3000
0000
1000
0010
,
0200
0000
0000
0300
,
0001
0000
1000
0100
0000
1000
0010
0000
,
0100
0001
0010
0100
,
1000
0000
0001
0100
0000
0001
0010
0000
,
0100
0000
1000
0000
0010
0100
0001
0000
,
1000
0000
0001
0100
0000
0001
0010
0000
,
0100
1000
0010
0100
,
0001
0000
1000
0100
0000
1000
0010
0000
,
0100
0000
0001
0000
0010
0100
1000
0000
,
0001
0000
0010
1000
0000
0010
0001
0000
,
1000
0100
0010
0000
0001
0000
1000
0000
,
0001
0000
0100
0010
0000
1000
0010
0000
,
0100
0001
0100
0000
0001
1000
0001
0000
,
1000
0000
0100
0001
0000
0100
1000
0000
,
0001
0010
0100
0000
1000
0000
0001
0000
,
1000
0000
0010
0100
0000
0001
0100
0000
,
0010
1000
0010
0000
1000
0001
1000
0000
,
0001
0000
0000
0100
0000
0000
0010
0000
1000
0000
0000
0000
0000
0000
0000
0000
,
1000
0000
0000
0100
0000
0000
0010
0000
0001
0000
0000
0000
0000
0000
0000
0000
,
2002
0000
0000
0000
,
0000
0000
0000
3003
,
1001
0000
0000
0000
;

//--------------- dance-single - ----------------
#NOTES:
     dance-single:
     :
     Medium:
     12:
     0,0,0,0,0:
0000
0000
0000
0000
,
0000
0000
0000
0000
,
0000
0000
0000
0000
,
0000
0000
0000
0000
,
0000
0000
0000
0000
,
0000
0000
0000
0000
,
1000
0010
1000
0010
0100
0001
0100
0000
,
0001
0010
0100
0000
1000
0010
0100
0000
,
0001
0100
0001
0100
0010
1000
0010
0000
,
1000
0000
0000
1000
0000
0000
1000
0000
0001
0000
0000
0001
0000
0000
0001
0000
,
1000
0010
0100
0010
1000
0100
0010
0000
,
0001
0000
0000
1000
0000
0000
0001
0000
1000
0000
0000
0000
0000
0000
0000
0000
,
0001
0000
0100
0000
0001
0010
0000
0001
0000
0000
0000
0000
1000
0000
0001
0000
,
1000
1100
1001
0000
,
1000
0000
0001
0000
0100
0000
0010
0000
0000
0110
0000
0000
1000
0000
0001
0000
,
0010
0000
0000
0100
0000
1000
0000
0000
0100
0000
0000
0000
0000
0000
0000
0000
,
1000
0000
0010
0000
0100
0000
0000
0001
0000
0000
0001
0000
0010
0000
0001
0000
,
0100
0010
1000
1001
,
0002
0000
0203
0000
0320
0000
1030
0001
,
2000
3200
0320
0032
,
1003
0010
1000
0000
1010
0000
0001
0000
,
2002
0000
3003
0000
,
2000
0000
3200
0000
0320
0000
0031
0100
,
0020
2030
3200
2300
,
3001
0011
1000
1100
,
2002
0000
0000
3003
,
0001
0100
0010
0100
0001
0010
0100
1000
,
0010
0100
0010
1000
0100
0010
0100
0010
,
0001
1000
0100
0010
0100
1000
0010
0100
,
0001
1000
0001
0100
0010
1000
0010
0100
,
0002
0023
0230
0320
,
0032
2003
3200
0320
,
0031
0000
0000
0100
0000
0000
0001
0000
1000
0000
0010
0000
0100
0000
0001
0000
,
1000
0000
0000
0010
0000
0000
1000
0000
0100
0000
0010
0000
0001
0000
0000
0000
,
1000
0010
0100
0010
1000
0100
0010
0001
,
0100
0010
0100
0001
0010
0100
0010
0100
,
1000
0001
0010
0100
0010
0001
0100
0010
,
1000
0001
1000
0010
0100
0001
0100
0010
,
2000
3200
0320
0230
,
2300
3002
0023
0230
,
1300
0000
0000
0010
0000
0000
1000
0000
0001
0000
0100
0000
0010
0000
1000
0000
,
0001
0000
0000
0100
0000
0000
0001
0000
0010
0000
0100
0000
1000
0000
0000
0000
,
0001
0100
0010
0100
0001
0010
1000
0010
,
0001
1000
0100
0010
0001
0100
0001
0010
,
0100
1000
0001
0100
0010
1000
0001
0100
,
1000
0100
0001
1000
0010
0100
0001
0000
,
1000
0100
0010
0001
0100
0010
0001
0010
,
1000
0001
0100
0010
1000
0100
0010
0100
,
1000
0001
0010
1000
0010
0100
1000
0001
,
0100
0000
0000
0100
0000
0000
0100
0000
0010
0000
0000
0010
0000
0000
0010
0000
,
1000
0100
0010
0100
1000
0010
0001
0010
,
1000
0001
0100
0010
1000
0100
1000
0010
,
0100
0001
1000
0100
0010
0001
1000
0100
,
0001
0100
1000
0001
0010
0100
1000
0000
,
0001
0100
0010
1000
0100
0010
1000
0010
,
0001
1000
0100
0010
0001
0100
0010
0100
,
0001
1000
0010
0001
0010
0100
0001
1000
,
0100
0000
0000
0100
0000
0000
0100
0000
0010
0000
0000
0010
0000
0000
0010
0000
,
0001
0000
0000
0001
0000
0000
0001
0000
1000
0000
0000
1000
0000
0000
1000
0000
,
0100
0000
0000
1100
0000
0000
1000
0000
0001
0000
0000
0101
0000
0000
0100
0000
,
2002
0000
0000
0000
,
0000
0000
0000
3003
,
1001
0000
0000
0000
;

//--------------- dance-single - ----------------
#NOTES:
     dance-single:
     :
     Hard:
     15:
     0,0,0,0,0:
0000
0000
0000
0000
,
0000
0000
0000
0000
,
0000
0000
0000
0000
,
0000
0000
0000
0000
,
0000
0000
0000
0000
,
0000
0000
0000
0000
,
1001
0000
0000
1000
0100
0010
0000
0001
0000
1000
0001
0000
0100
0000
0010
0000
,
1000
0000
0000
0001
0010
0100
0000
1000
0000
0010
0100
0000
0001
0000
0010
0000
,
0001
0000
0000
0100
0001
0010
0000
0100
0000
1000
0010
0000
0100
0000
0001
0000
,
1000
0000
0000
1000
0000
0000
1000
0000
0001
0000
0000
0001
0000
0000
0001
0000
,
0100
0001
1000
0000
0001
0010
0100
1000
,
0100
0000
0000
0010
0000
0000
0100
0000
0220
0000
0000
0000
0330
0000
0000
0000
,
1000
0000
0001
0000
0100
0001
0000
0010
0000
0000
0000
0000
0001
0000
0001
0000
,
2000
3020
0200
0330
,
1000
0000
0001
0000
1000
0100
0010
0000
0000
0110
0000
0000
0100
0000
0010
0000
,
0001
0000
0000
0100
0000
1000
0000
0000
0200
0000
0000
0000
0300
0000
0000
0000
,
0001
0000
1000
0000
0001
0100
0000
0001
0000
0000
1000
0000
0100
0000
0010
0000
,
0001
0000
0000
0011
0000
0000
0011
0000
1000
0000
1000
0000
0010
0100
0010
0100
,
0002
0000
0203
0000
2300
0000
3100
0001
,
2000
3200
0302
0203
,
1300
0010
1000
0000
0001
0010
0001
0000
,
2002
0000
0000
3003
,
2000
3020
0230
0302
,
0023
0230
0302
0203
,
1300
1010
0001
0011
,
2002
0000
0000
3003
,
0001
0000
1000
0100
1000
0000
0001
0000
1000
0010
1000
0000
0001
0000
0010
0000
,
0100
0000
1000
0001
1000
0000
0100
0000
1000
0010
1000
0000
0001
0000
0100
0000
,
0010
0000
0100
0001
0100
0000
0010
0000
1000
0100
1000
0000
0010
0000
0100
0000
,
0001
0000
1000
0010
1000
0000
0100
0000
0010
0001
0010
0000
0001
0010
0100
1000
,
0001
0000
0010
0001
0100
0000
0010
0000
0100
0001
0010
0000
0100
0000
1000
0000
,
0010
0000
1000
0100
0010
0000
1000
0000
0010
0100
1000
0000
0001
0000
0100
0000
,
0010
0000
0000
1000
0000
0000
0010
0000
0100
0001
0100
0001
0010
0001
0010
0001
,
1000
0000
0000
0100
0000
0000
0010
0000
0001
0010
0001
0010
0100
1000
0100
0000
,
1000
0000
0001
0010
0001
0000
1000
0000
0001
0100
0001
0000
1000
0000
0100
0000
,
0010
0000
0001
1000
0001
0000
0010
0000
0001
0100
0001
0000
1000
0000
0010
0000
,
0100
0000
0010
1000
0010
0000
0100
0000
0001
0010
0001
0000
0100
0000
0010
0000
,
1000
0000
0001
0100
0001
0000
0010
0000
0100
1000
0100
0000
1000
0100
0010
0001
,
1000
0000
0100
1000
0010
0000
0100
0000
0010
1000
0100
0000
0010
0000
0001
0000
,
0100
0000
0001
0010
0100
0000
0001
0000
0100
0010
0001
0000
1000
0000
0010
0000
,
0200
0000
0000
0000
0001
0000
0000
0000
1000
0000
0000
0000
0301
0000
0001
0010
,
0200
0000
0000
0000
1000
0000
0000
0000
0001
0000
0000
0000
1300
0001
1000
0001
,
1000
0000
0000
0001
0100
0010
0000
1000
0000
0010
0100
0010
0100
0000
0001
0000
,
1000
0000
0000
0100
0010
0001
0000
1000
0000
0001
0010
0001
0010
0000
0100
0000
,
1000
0000
0000
0010
0100
0010
0000
1000
0000
0001
0100
0001
0100
0000
0001
0000
,
0010
0000
0001
1000
0000
0001
1000
0000
0010
0000
1000
0001
0000
1000
0001
0000
,
0100
0000
0000
0010
1000
0100
0000
0010
0000
0100
1000
0001
1000
0000
0010
0000
,
0100
0000
0000
0001
0010
0100
0000
0010
0000
0001
0100
0010
0100
0000
0001
0000
,
1000
0000
0000
0001
0010
0100
0000
1000
0000
0010
0100
0001
1000
0000
0100
0000
,
0010
0000
0001
1000
0000
0001
1000
0000
0010
0000
1000
0001
0000
1000
0001
0000
,
1000
0000
0010
0100
0010
0100
0000
0001
0000
1000
0100
0010
0001
0000
0100
0000
,
0001
0000
0010
0100
0010
0100
0000
1000
0000
0001
1000
0010
0100
0000
0001
0000
,
1000
0000
0001
0010
0001
1000
0000
0010
0000
1000
0100
0010
0001
0000
0100
0000
,
0001
0000
0010
0100
0000
0010
0100
0000
1000
0001
0000
1000
0010
0100
0001
0100
,
0010
0000
1000
0001
0100
0001
0000
0010
0000
0100
1000
0010
1000
0000
0010
0000
,
0100
0000
0001
0010
0001
1000
0000
0010
0000
1000
0100
0010
0001
0000
0100
0000
,
0001
0000
0010
0100
1000
0100
0000
1000
0000
0001
0010
0001
0100
0000
0010
0000
,
1000
0000
0001
0100
0000
0010
1000
0000
0001
0010
0000
0001
0100
0001
1000
0010
,
1000
0000
0100
0010
0000
0100
0010
0000
0001
1000
0100
0010
0100
1000
0010
0100
,
0001
0000
0010
1000
0000
0010
0001
0000
1000
0100
0010
0001
0100
0010
1000
0100
,
0020
0000
0000
0000
,
0200
0000
0000
0330
,
0110
0000
0000
0000
;

//--------------- dance-single - Renzo ----------------
#NOTES:
     dance-single:
     Renzo:
     Challenge:
     17:
     0,0,0,0,0:
0000
0000
0000
0000
,
0000
0000
0000
0000
,
0000
0000
0000
0000
,
0000
0000
0000
0000
,
0000
0000
0000
0000
,
0000
0000
0000
0000
,
1001
0000
0010
0100
0010
1000
0000
0001
0000
0010
0100
0010
0001
0000
1000
0000
,
0001
0000
0100
0010
0100
0001
0000
1000
0000
0100
0010
0100
1000
0100
0010
0100
,
1000
0000
0010
0100
0010
1000
0000
0100
0000
1000
0010
0100
0010
0000
1000
0000
,
0001
0000
0010
1000
0000
0010
0001
0000
0110
0000
1001
0000
0010
0001
0100
0001
,
0010
0000
0100
0000
1000
0100
0000
0110
0000
0000
1000
0000
0001
0000
0100
0000
,
0001
0000
0000
0010
0000
0000
0100
0000
1000
0000
0001
0000
0100
0010
0100
0010
,
1000
0000
0001
0000
0010
0100
0000
0110
0000
0000
0010
0000
0001
0000
1000
0000
,
0020
0000
0130
0000
0002
0000
0013
0000
2000
0000
3010
0000
0100
0010
0100
0010
,
0001
0000
0100
0000
0010
1000
0001
0010
0000
0200
0000
0000
0010
0000
0310
0000
,
0001
1000
0000
2001
0000
3100
0000
0100
0010
0000
0100
0000
0010
0001
0010
0001
,
1000
0000
0001
0000
0100
0010
0000
0110
0000
0000
1000
0000
0010
0000
0100
0000
,
0001
0000
0000
0011
0000
0000
1001
0000
0100
0000
0010
0000
1000
0100
1000
0100
,
0020
0031
0200
0310
2000
3100
0020
0031
,
0200
1300
0002
0013
0200
0301
0020
0130
,
2000
3100
0002
0103
0020
0031
0200
0310
,
1000
0100
1000
0100
0010
0001
0010
0001
1000
0100
1000
0100
0010
0001
0010
0001
,
0200
0301
0020
0130
2000
3010
0200
0301
,
0020
1030
0002
0103
0020
0031
0200
0310
,
2000
3010
0002
0013
0200
0301
0020
0130
,
0001
0100
1000
0010
0001
0000
0010
1000
0000
0001
0000
0010
0100
0000
1001
0000
,
0001
0100
0100
1000
0001
0000
0001
0100
0100
1000
0001
0000
0001
0100
0010
0000
,
1000
0100
0100
0001
1000
0000
1000
0100
0100
0001
1000
0000
1000
0100
0010
0000
,
0001
0010
0010
1000
0001
0000
0001
0010
0010
1000
0001
0000
0001
0100
0010
0000
,
1000
0010
0010
0001
1000
0000
1000
0010
0010
0001
1000
0000
1000
0010
0100
0001
,
0010
0000
0100
1000
0010
0000
0001
0010
0100
0000
0001
0010
0100
0000
0001
0100
,
1000
0000
0010
0100
1000
0000
0100
0010
1000
0000
0100
0010
1000
0000
0010
0001
,
2000
0000
0000
0010
0000
0000
3001
0000
0100
0010
0100
0010
1000
0001
1000
0001
,
0020
0000
0000
0001
0000
0000
0130
0000
1000
0001
1000
0001
0100
0010
0100
0010
,
1000
0000
0001
0010
0001
0000
0100
0000
0020
0000
0000
0000
2000
0000
0000
3030
,
1000
0010
0010
0100
1000
0000
1000
0010
0010
0100
1000
0000
1000
0010
0010
0001
,
1000
0000
0100
1000
0100
0000
0010
0000
0002
0000
0000
0000
0020
0000
0000
0033
,
0010
0100
0100
0001
0010
0000
0010
0100
0100
0001
0010
0000
0010
0100
0100
0001
,
1000
0000
0100
1000
0010
0000
1000
0010
0100
0000
1000
0100
0010
0000
1000
0100
,
0010
0000
1000
0010
0001
0000
0100
0010
0001
0000
0010
0100
0001
0000
0010
0001
,
0100
0000
0000
1000
0000
0000
0100
0000
0001
0000
0010
0000
0100
0000
1000
0000
,
0010
0000
0000
0001
0000
0000
0010
0000
1000
0000
0100
0000
0010
0001
1000
0000
,
1001
0000
1000
0010
1000
0001
0100
0001
1000
0100
0010
0001
1000
0010
0100
0010
,
1000
0001
0010
0100
0010
0001
1000
0100
1000
0001
0100
0010
1000
0001
0010
0100
,
0010
0001
0010
0100
1000
0001
1000
0010
0100
0001
1000
0100
0010
0001
1000
0001
,
0010
0000
0010
0100
0000
0100
1000
0000
0110
0000
0100
0001
0000
0001
0010
0000
,
0110
0000
1000
0100
1000
0001
0010
0001
1000
0010
0100
0001
1000
0100
0010
0100
,
1000
0001
0100
0010
0100
0001
1000
0010
1000
0001
0010
0100
1000
0001
0100
0010
,
0100
0001
0100
0010
1000
0001
1000
0100
0010
0001
1000
0010
0100
0001
1000
0001
,
0100
0000
0100
0010
0000
0010
1000
0000
0110
0000
1001
0000
0100
1000
0001
0000
,
1001
0000
0001
0010
0001
1000
0100
1000
0001
0100
0010
1000
0001
0010
0100
0010
,
0001
1000
0010
0100
0010
1000
0001
0100
0001
1000
0100
0010
0001
1000
0010
0100
,
0010
1000
0010
0100
0001
1000
0001
0010
0100
1000
0001
0100
0010
1000
0001
1000
,
0010
0000
0010
0100
0000
0100
0001
0000
1001
0000
0010
0100
0000
0100
1000
0000
,
1001
0000
0001
0100
0001
1000
0010
1000
0001
0010
0100
1000
0001
0100
0010
0100
,
0001
1000
0100
0010
0100
1000
0001
0010
0001
1000
0010
0100
0001
1000
0100
0010
,
0100
1000
0100
0010
0001
1000
0001
0100
0010
1000
0001
0010
0100
1000
0001
1000
,
0100
0000
0000
0000
0000
0000
0100
0000
0000
0010
0000
0000
0000
0000
0000
0010
0000
0000
0001
0000
0000
0000
0000
0000
1000
0000
0010
0000
0100
0000
0001
0000
0000
1000
0000
0000
0100
0000
0000
0010
0000
0000
0100
0000
0000
1000
0000
0000
,
0010
0000
0000
0000
0000
0000
0010
0000
0000
0100
0000
0000
0000
0000
0000
0100
0000
0000
0001
0000
0000
0000
0000
0000
1000
0000
0100
0000
0010
0000
0001
0000
0000
1000
0000
0000
0001
0000
0000
0100
0000
0000
0010
0000
0000
0100
0000
0000
,
0001
0000
0000
0000
0000
0000
0010
0000
0000
1000
0000
0000
0000
0000
0000
0010
0000
0000
0001
0000
0000
0000
0000
0000
1000
0000
0010
0000
0100
0000
0001
0000
0000
0010
0000
0000
0100
0000
0000
1000
0000
0000
0001
0000
0000
0100
0000
0000
,
0020
0000
0000
0000
,
0200
0000
0000
0330
,
0110
0000
0000
0000
;

//--------------- dance-double - ----------------
#NOTES:
     dance-double:
     :
     Easy:
     9:
     0,0,0,0,0:
00000000
00000000
00000000
00000000
,
00000000
00000000
00000000
00000000
,
00000000
00000000
00000000
00000000
,
00000000
00000000
00000000
00000000
,
00000000
00000000
00000000
00000000
,
00000000
00000000
00000000
00000000
,
00010000
00000000
10000000
00000000
01000000
00100000
01000000
00000000
,
10000000
00000000
00010000
00000000
00100000
00001000
00100000
00000000
,
00001000
00010000
00000100
00000000
00001000
00000100
00001000
00000000
,
00000010
00000100
00000110
00000000
,
00000001
00000000
00000100
00000000
00000010
00001000
00000100
00000000
,
00010000
00001000
00010000
00000000
,
00001000
00000000
00100000
00000000
00010000
01000000
00100000
00000000
,
10000000
00010000
10010000
00000000
,
10000000
00000000
01000000
00000000
00100000
00010000
00100000
00000000
,
00001000
00010000
00001000
00000000
,
00010000
00000000
00000100
00000000
00001000
00000010
00000100
00000000
,
00000001
00000001
00001000
00001000
,
00000001
00000010
00000100
00001000
,
00000010
00000100
00001000
00010000
,
00100000
00100000
01000000
01000000
,
01100000
00000000
00000000
00000000
,
10000000
01000000
00100000
00010000
,
01000000
00100000
00010000
00001000
,
00000100
00000100
00000010
00000010
,
00000110
00000000
00000000
00000000
,
00000001
00000000
00000100
00000010
00000000
00001000
00000010
00000000
,
00000100
00001000
00010000
00100000
,
01000000
00000000
00010000
00100000
00000000
00010000
01000000
00000000
,
00010000
10000000
01000000
00100000
,
00001000
00001000
00010000
00010000
,
00000100
00000100
00001000
00001000
,
00000010
00000000
00000000
00000010
00000000
00000000
00000010
00000000
00000000
00000000
00000000
00000000
00000000
00000000
00000000
00000000
,
00000100
00000000
00000000
00000100
00000000
00000000
00000100
00000000
00000000
00000000
00000000
00000000
00000000
00000000
00000000
00000000
,
00000001
00000000
00000010
00000100
00000000
00001000
00000100
00000000
,
00010000
00001000
01000000
00010000
,
00100000
00000000
00001000
00010000
00000000
00100000
10000000
00000000
,
00010000
01000000
00100000
10000000
,
01000000
00100000
00001000
00010000
,
00100000
01000000
00001000
00010000
,
00002000
00000000
00000000
00000000
00003000
00000000
00010000
00001000
,
00020000
00000000
00000000
00030000
,
00001000
00000000
00010000
00000100
00000000
00001000
00000100
00000000
,
00000010
00000001
00000100
00001000
,
00000100
00000000
00000001
00001000
00000000
00000001
00000010
00000000
,
00000100
00000000
00010000
00000000
00001000
00010000
00001000
00000000
,
01000000
00000000
00010000
00100000
00000000
01000000
00100000
00000000
,
00010000
01000000
10000000
01000000
,
00010000
00000000
00100000
01000000
00000000
10000000
00010000
00000000
,
01000000
00010000
00100000
00000000
00010000
01000000
00001000
00000000
,
00010000
00000000
00001000
00100000
00000000
00010000
00100000
00000000
,
01000000
10000000
00100000
00010000
,
00100000
00000000
10000000
00010000
00000000
10000000
01000000
00000000
,
00100000
00000000
00001000
00000000
00010000
00001000
00010000
00000000
,
00000010
00000000
00001000
00000100
00000000
00000010
00000100
00000000
,
00001000
00000010
00000001
00000010
,
00001000
00000000
00000100
00000010
00000000
00000001
00001000
00000000
,
00000010
00000000
00000100
00000000
00000010
00010000
00001000
00000000
,
00100000
00000000
00000000
00010000
00000000
00000000
00100000
00000000
01000000
00000000
00000000
00000000
00000000
00000000
00000000
00000000
,
10000000
00000000
00000000
01000000
00000000
00000000
00100000
00000000
00001000
00000000
00000000
00000000
00000000
00000000
00000000
00000000
,
00022000
00000000
00000000
00000000
,
00000000
00000000
00000000
00033000
,
00011000
00000000
00000000
00000000
;

//--------------- dance-double - ----------------
#NOTES:
     dance-double:
     :
     Medium:
     12:
     0,0,0,0,0:
00000000
00000000
00000000
00000000
,
00000000
00000000
00000000
00000000
,
00000000
00000000
00000000
00000000
,
00000000
00000000
00000000
00000000
,
00000000
00000000
00000000
00000000
,
00000000
00000000
00000000
00000000
,
10000000
01000000
10000000
01000000
00100000
00010000
00100000
00000000
,
00001000
00010000
00001000
00000000
00000010
00000100
00000010
00000000
,
00000001
00000100
00000001
00000100
00000010
00001000
00000010
00000000
,
00010000
00000000
00000000
00010000
00000000
00000000
00010000
00000000
00001000
00000000
00000000
00001000
00000000
00000000
00001000
00000000
,
00100000
00010000
01000000
00010000
00100000
01000000
10000000
00000000
,
00100000
00000000
00000000
01000000
00000000
00000000
00010000
00000000
10000000
00000000
00000000
00000000
00000000
00000000
00000000
00000000
,
10000000
00000000
01000000
00000000
00100000
00010000
00000000
00100000
00000000
00000000
00000000
00000000
00001000
00000000
00010000
00000000
,
00001000
00010010
00001010
00000000
,
00000001
00000000
00000100
00000000
00000010
00000000
00001000
00000000
00000000
00001001
00000000
00000000
00000001
00000000
00000100
00000000
,
00001000
00000000
00000000
00010000
00000000
00100000
00000000
00000000
01000000
00000000
00000000
00000000
00000000
00000000
00000000
00000000
,
00010000
00000000
10000000
00000000
01000000
00000000
00000000
00100000
00000000
00000000
00010000
00000000
00100000
00000000
00001000
00000000
,
00010000
00010000
00001000
00011000
,
00020000
00000000
00030020
00000000
00002030
00000000
00003100
00000010
,
00000002
00000203
00002300
00023000
,
00031000
00010000
00001000
00000000
01001000
00000000
01000000
00000000
,
02020000
00000000
03030000
00000000
,
20000000
00000000
30200000
00000000
02300000
00000000
03010000
00100000
,
00020000
00230000
00302000
00023000
,
00030100
00001100
00000010
00000011
,
00002002
00000000
00000000
00003003
,
00000001
00000010
00000100
00001000
00000010
00000100
00001000
00010000
,
00001000
00000100
00000010
00010000
00000100
00001000
00000010
00010000
,
00001000
00000010
00001000
00010000
00001000
00010000
01000000
00100000
,
00001000
00010000
00000100
00001000
00000010
00000100
00001000
00010000
,
00200000
20300000
30200000
00320000
,
00032000
00023000
02030000
23000000
,
30010000
00000000
00000000
00100000
00000000
00000000
00010000
00000000
01000000
00000000
00001000
00000000
00010000
00000000
00001000
00000000
,
00100000
00000000
00000000
00001000
00000000
00000000
00010000
00000000
01000000
00000000
10000000
00000000
01000000
00000000
00000000
00000000
,
10000000
01000000
00100000
00010000
01000000
00100000
00010000
00001000
,
00010000
00100000
01000000
00001000
00100000
00010000
01000000
00001000
,
00010000
01000000
00010000
00001000
00010000
00001000
00000010
00000100
,
00010000
00001000
00100000
00010000
01000000
00100000
00010000
00001000
,
00000200
00000302
00000203
00002300
,
00023000
00032000
00003020
00000032
,
00001003
00000000
00000000
00000100
00000000
00000000
00001000
00000000
00000010
00000000
00010000
00000000
00001000
00000000
00010000
00000000
,
00000100
00000000
00000000
00010000
00000000
00000000
00001000
00000000
00000010
00000000
00000001
00000000
00000010
00000000
00000000
00000000
,
00000001
00000100
00000001
00000100
00000001
00000010
00000100
00001000
,
00000010
00000100
00000010
00000100
00001000
00010000
00001000
01000000
,
00001000
00010000
00001000
00010000
00001000
00100000
00010000
00100000
,
01000000
10000000
00100000
01000000
00010000
10000000
00010000
00000000
,
10000000
01000000
10000000
01000000
10000000
00100000
01000000
00010000
,
00100000
01000000
00100000
01000000
00010000
00001000
00010000
00000100
,
00010000
00001000
00010000
00001000
00010000
00000010
00001000
00000010
,
00000100
00000001
00000010
00000100
00001000
00000001
00001000
00000000
,
00000001
00000010
00001000
00000010
00000001
00000100
00000010
00001000
,
00000100
00000010
00000100
00010000
00000100
00000010
00000100
00010000
,
00001000
00100000
00001000
00010000
00100000
01000000
00010000
00100000
,
01000000
10000000
00100000
10000000
01000000
00100000
00010000
00000000
,
10000000
01000000
00010000
01000000
10000000
00100000
01000000
00010000
,
00100000
01000000
00100000
00001000
00100000
01000000
00100000
00001000
,
00010000
00000100
00010000
00001000
00000100
00000010
00001000
00000100
,
00000010
00000001
00000100
00000001
00000010
00000100
00001000
00000000
,
00000001
00000100
00000010
00001000
00000100
00000010
00001000
00000000
,
00010000
01000000
00100000
00010000
10000000
01000000
00100000
00000000
,
02200000
00000000
00000000
00000000
,
00000000
00000000
00000000
03300000
,
01100000
00000000
00000000
00000000
;

//--------------- dance-double - ----------------
#NOTES:
     dance-double:
     :
     Hard:
     15:
     0,0,0,0,0:
00000000
00000000
00000000
00000000
,
00000000
00000000
00000000
00000000
,
00000000
00000000
00000000
00000000
,
00000000
00000000
00000000
00000000
,
00000000
00000000
00000000
00000000
,
00000000
00000000
00000000
00000000
,
10000000
00000000
00000000
01000000
00100000
00010000
00000000
00100000
00000000
00001000
00010000
00000000
00001000
00000000
00010000
00000000
,
00000010
00000000
00000000
00001000
00000100
00000010
00000000
00000001
00000000
00000100
00000010
00000000
00001000
00000000
00000001
00000000
,
00000010
00000000
00000000
00000001
00001000
00000100
00000000
00001000
00000000
00000100
00010000
00000000
00001000
00000000
00100000
00000000
,
00010000
00000000
00000000
00010000
00000000
00000000
00010000
00000000
10000000
00000000
00000000
10000000
00000000
00000000
10000000
00000000
,
00100000
10000000
01000000
00000000
00100000
00010000
00100000
00001000
,
00010000
00000000
00000000
00000100
00000000
00000000
00001000
00000000
00000020
00000000
00000000
00000000
00000030
00000000
00000000
00000000
,
00000010
00000000
00001000
00000000
00000001
00000100
00000000
00000001
00000000
00000000
00000000
00000000
00000010
00000000
00000010
00000000
,
00000002
00002003
00000200
00003300
,
00000001
00000000
00000100
00000000
00000010
00001000
00000010
00000000
00000000
00000010
00000000
00000000
00010000
00000000
00001000
00000000
,
00010000
00000000
00000000
00100000
00000000
10000000
00000000
00000000
00020000
00000000
00000000
00000000
00030000
00000000
00000000
00000000
,
10000000
00000000
01000000
00000000
00100000
00010000
00000000
00100000
00000000
00000000
00001000
00000000
00010000
00000000
00000010
00000000
,
00001000
00000000
00000000
00001100
00000000
00000000
00000100
00000000
00000010
00000000
00000001
00000000
00000010
00000001
00000010
00000000
,
00000002
00000000
00000203
00000000
00000320
00000000
00010030
00001000
,
00020000
00230000
20300000
30020000
,
10030000
01000000
00100000
00000000
00001000
00010000
00001000
00000000
,
00022000
00000000
00000000
00033000
,
00020000
00030020
00002030
00003200
,
00000320
00000032
00000203
00002300
,
00013000
00110000
10000000
10100000
,
20020000
00000000
00000000
30030000
,
10000000
00000000
01000000
00100000
01000000
00000000
10000000
00000000
00100000
01000000
00100000
00000000
10000000
00000000
01000000
00000000
,
00100000
00000000
00001000
00010000
00001000
00000000
01000000
00000000
00001000
00010000
00001000
00000000
00100000
00000000
00001000
00000000
,
00010000
00000000
00000010
00001000
00000010
00000000
00000100
00000000
00000010
00001000
00000010
00000000
00001000
00000000
00000100
00000000
,
00000010
00000000
00000001
00001000
00000001
00000000
00000100
00000000
00000001
00001000
00000001
00000000
00000010
00000000
00000100
00000000
,
00001000
00000010
00000100
00001000
00010000
00100000
01000000
00001000
,
00010000
00000100
00000010
00001000
00010000
01000000
00100000
00001000
,
00010000
00000000
00000000
00000100
00000000
00000000
00001000
00000000
00000010
00010000
00000010
00010000
00001000
00010000
00001000
00000000
,
00100000
00000000
00000000
01000000
00000000
00000000
00010000
00000000
00001000
00000010
00000100
00000000
00001000
00000010
00000100
00000000
,
00000001
00000000
00000010
00000100
00000010
00000000
00000001
00000000
00000100
00000010
00000100
00000000
00000001
00000000
00000010
00000000
,
00000100
00000000
00010000
00001000
00010000
00000000
00000010
00000000
00010000
00001000
00010000
00000000
00000100
00000000
00010000
00000000
,
00001000
00000000
01000000
00010000
01000000
00000000
00100000
00000000
01000000
00010000
01000000
00000000
00010000
00000000
00100000
00000000
,
01000000
00000000
10000000
00010000
10000000
00000000
00100000
00000000
10000000
00010000
10000000
00000000
01000000
00000000
00100000
00000000
,
00010000
01000000
00100000
00010000
00001000
00000100
00000010
00010000
,
00001000
00100000
01000000
00010000
00001000
00000010
00000100
00010000
,
00002000
00000000
00000000
00000000
00000100
00000000
00000000
00000000
00010000
00000000
00000000
00000000
01003000
00000000
01000000
00001000
,
00020000
00000000
00000000
00000000
01000000
00000000
00000000
00000000
00001000
00000000
00000000
00000000
00030100
00001000
00000100
00001000
,
00000100
00000000
00000000
00000010
00000001
00000010
00000000
00000100
00000000
00001000
00000010
00001000
00000010
00000000
00010000
00000000
,
00001000
00000000
00000000
01000000
00010000
01000000
00000000
00010000
00000000
00100000
01000000
00100000
01000000
00000000
10000000
00000000
,
00010000
00000000
00000000
01000000
00010000
01000000
00000000
00001000
00000000
00010000
00001000
00010000
00001000
00000000
00000010
00000000
,
00000001
00000000
00001000
00000001
00000000
00001000
00000001
00000000
00000010
00000000
00000001
00001000
00000000
00000001
00001000
00000000
,
00000010
00000000
00000000
00000100
00000001
00000100
00000000
00000010
00000000
00001000
00000100
00001000
00000100
00000000
00010000
00000000
,
00001000
00000000
00000000
00100000
00010000
00100000
00000000
00010000
00000000
01000000
00100000
01000000
00100000
00000000
10000000
00000000
,
00010000
00000000
00000000
00100000
00010000
00100000
00000000
00001000
00000000
00010000
00001000
00010000
00001000
00000000
00000100
00000000
,
00000001
00000000
00001000
00000001
00000000
00001000
00000001
00000000
00000100
00000000
00000001
00001000
00000000
00000001
00001000
00000000
,
00000100
00000000
00000010
00000001
00000010
00000001
00000000
00001000
00000000
00000100
00010000
00001000
00010000
00000000
00001000
00000000
,
01000000
00000000
00010000
00100000
00010000
00100000
00000000
01000000
00000000
10000000
00100000
01000000
00100000
00000000
10000000
00000000
,
00010000
00000000
00100000
00001000
00010000
00001000
00000000
00010000
00000000
00000010
00001000
00000010
00001000
00000000
00000100
00000000
,
00000010
00000000
00000001
00001000
00000000
00000010
00000100
00000000
00000001
00001000
00000000
00000100
00000010
00000001
00000010
00000100
,
00000010
00000000
00000001
00001000
00000100
00001000
00000000
00000100
00000000
00010000
00001000
00010000
00001000
00000000
01000000
00000000
,
00010000
00000000
00100000
01000000
00100000
00010000
00000000
10000000
00000000
01000000
00100000
01000000
00100000
00000000
00001000
00000000
,
00010000
00000000
00000010
00001000
00000010
00000100
00000000
00000001
00000000
00000010
00000001
00001000
00000100
00000000
00000010
00000000
,
00000001
00000000
00000100
00000010
00000000
00000100
00000010
00000000
00010000
00000000
00001000
00010000
00000000
00001000
00010000
00000000
,
00100000
00000000
10000000
00100000
00000000
10000000
01000000
10000000
01000000
00000000
00100000
00010000
00000000
00100000
00001000
00010000
,
00001000
00000000
00010000
00000100
00000000
00001000
00000100
00001000
00000010
00000000
00000100
00000001
00000000
00000010
00000001
00001000
,
00000002
00000000
00000000
00000000
,
00002000
00000000
00000000
00003003
,
00001001
00000000
00000000
00000000
;
