#VERSION:0.81;
#TITLE:¡Viva!;
#SUBTITLE:;
#ARTIST:Ryu*;
#TITLETRANSLIT:Viva!;
#SUBTITLETRANSLIT:;
#ARTISTTRANSLIT:;
#GENRE:;
#ORIGIN:;
#CREDIT:;
#BANNER:¡Viva!-bn.png;
#BACKGROUND:¡Viva!-jacket.png;
#PREVIEWVID:;
#JACKET:¡Viva!-jacket.png;
#CDIMAGE:;
#DISCIMAGE:;
#LYRICSPATH:;
#CDTITLE:;
#MUSIC:¡Viva!.mp3;
#OFFSET:-0.420;
#SAMPLESTART:51.040;
#SAMPLELENGTH:14.240;
#SELECTABLE:YES;
#BPMS:0.000=135.000;
#STOPS:;
#DELAYS:;
#WARPS:;
#TIMESIGNATURES:0.000=4=4;
#TICKCOUNTS:0.000=4;
#COMBOS:0.000=1;
#SPEEDS:0.000=1.000=0.000=0;
#SCROLLS:0.000=1.000;
#FAKES:;
#LABELS:0.000=Song Start;
#BGCHANGES:0.000=Viva!.avi=1.000=1=0=1===CrossFade==,
99999=-nosongbg-=1.000=0=0=0 // don't automatically add -songbackground-
;
#KEYSOUNDS:;
#ATTACKS:
;

//---------------dance-single - ----------------
#NOTEDATA:;
#CHARTNAME:;
#STEPSTYPE:dance-single;
#DESCRIPTION:;
#CHARTSTYLE:;
#DIFFICULTY:Hard;
#METER:12;
#RADARVALUES:0.513,0.507,0.133,0.062,0.265,384.000,15.000,7.000,0.000,0.000,0.000,0.000,0.000,0.513,0.507,0.133,0.062,0.265,384.000,15.000,7.000,0.000,0.000,0.000,0.000,0.000;
#CREDIT:;
#NOTES:
// measure 0
0000
0000
0000
0000
,  // measure 1
0000
0000
0000
0000
,  // measure 2
0000
0000
0000
0000
,  // measure 3
0000
0000
0000
0000
,  // measure 4
0000
0000
0000
0000
1000
0100
0001
0100
,  // measure 5
1000
0010
0100
0001
0010
0100
0001
1000
,  // measure 6
0001
1000
0001
0000
0100
1000
0100
0010
,  // measure 7
0001
1000
0001
1000
0100
0001
0010
0001
,  // measure 8
1000
0100
1000
0000
0001
0010
1000
0010
,  // measure 9
1000
0100
0001
0100
1000
0001
0100
0010
,  // measure 10
0001
1000
0001
0000
0100
0100
0001
0001
,  // measure 11
0010
0010
1000
1000
0100
0001
0100
1000
,  // measure 12
0100
0000
0001
0000
0001
0000
0000
0000
1000
0000
0000
0100
1000
0000
0001
0000
,  // measure 13
0100
0000
0000
0001
0010
0000
0001
0000
1000
0000
0000
0010
1000
0000
0010
0000
,  // measure 14
0010
0000
0000
0100
1000
0000
0100
0000
0010
0000
0000
0001
0010
0000
0100
0000
,  // measure 15
1000
0000
0000
0000
0000
0000
0000
0000
0000
0001
0000
0000
0100
0000
0000
0000
0000
0000
0001
0000
0000
0000
0000
0000
1000
0000
0000
0000
0000
0000
0000
0000
0000
0001
0000
0000
0100
0000
0000
0000
0001
0000
0000
0000
1000
0000
0000
0000
,  // measure 16
0001
0000
0000
0000
0100
0000
0000
0000
0010
0000
0000
0000
0100
0000
0000
0000
0000
0000
0000
0000
0000
0000
0000
0000
1000
0000
0000
0000
0000
0000
0001
0000
0000
0000
0000
0000
0100
0000
0000
0000
0000
0000
0010
0000
0000
0100
0000
0000
,  // measure 17
0010
0000
0000
0000
0000
0000
0010
0000
0000
0000
0000
0000
1000
0000
0000
0000
0000
0000
0001
0000
0000
0100
0000
0000
0001
0000
0000
0000
0000
0000
0000
0000
1000
0000
0000
0000
0000
0000
0000
0000
0010
0000
0000
0000
0000
0000
0000
0000
,  // measure 18
0001
0000
0000
0000
1000
0000
0000
0000
0100
0000
0000
0000
0001
0000
0100
0000
0001
0000
1000
0000
0000
0001
0000
0000
,  // measure 19
0100
0000
0010
0000
0100
0000
0001
0000
0000
0100
0000
0000
1000
0000
0100
0000
0010
0000
0001
0000
0010
0000
0100
0000
,  // measure 20
1000
0000
0000
0000
0000
0000
0000
0000
1000
0000
0100
0000
0010
0001
0000
0010
,  // measure 21
0001
1000
0100
1000
0001
0100
1000
0001
,  // measure 22
0100
0000
0001
0000
0010
0000
0100
0000
0001
0000
1000
0000
0001
0100
0000
0001
,  // measure 23
1000
0001
1000
0010
0100
1000
0001
0100
,  // measure 24
1000
0000
0001
0000
1001
0000
0000
0000
1000
0000
0100
0000
0001
1000
0000
0001
,  // measure 25
1000
0000
0010
0000
0100
0000
1000
0000
0100
0000
0010
0000
0100
0010
0000
0100
,  // measure 26
0010
0000
0100
0000
1000
0000
0001
0000
0100
0000
0001
0000
1000
0001
0000
1000
,  // measure 27
0001
0100
1000
0001
0100
0001
0010
0100
,  // measure 28
1000
0000
0000
0000
0100
0000
0000
0000
0010
0000
0000
0000
0001
0000
0000
0000
0000
0000
0000
0000
0000
0000
0000
0000
1000
0000
0000
0000
0000
0000
1000
0000
0000
0000
0000
0000
0100
0000
0000
0000
0000
0000
1000
0000
0000
0100
0000
0000
,  // measure 29
0000
0000
0010
0000
0001
0000
1000
0001
0000
0000
1000
0000
0100
0000
0100
0010
,  // measure 30
0000
0000
0001
0000
1000
0000
0010
1000
0000
0000
0001
0000
0010
0000
0100
0010
,  // measure 31
0000
0000
0100
0000
1000
0000
0001
0100
0000
0000
0001
0000
0010
0000
0001
0010
,  // measure 32
0000
0001
1000
0000
1000
1100
0000
0000
,  // measure 33
0001
0101
0000
1000
0100
0010
0001
0010
,  // measure 34
0011
0000
0000
0000
0001
0101
0000
0000
,  // measure 35
1000
1010
0000
0001
0010
0100
1000
1000
,  // measure 36
1100
0000
0000
0000
0000
0000
0000
0000
0001
0000
0000
0100
0000
0000
0001
0000
,  // measure 37
1000
0000
0000
0010
0000
0000
1000
0000
0001
0000
0000
0010
0000
0000
1000
0000
,  // measure 38
0100
0000
0000
1000
0000
0000
0010
0000
0001
0000
0000
0001
0000
0000
1000
0000
,  // measure 39
1000
0000
0000
0010
0000
0000
0100
0000
1000
0000
0000
0100
0000
0000
0010
0000
,  // measure 40
0001
0000
0000
0010
0000
0000
0001
0000
1000
0000
1000
0000
0000
0000
0001
0000
,  // measure 41
0001
1000
0000
1000
1000
0010
0000
0010
,  // measure 42
0010
0100
0000
0100
0001
0001
0000
0001
,  // measure 43
0010
0010
0000
1000
0100
0010
0001
0010
,  // measure 44
0100
0000
0010
0000
0100
0000
0010
0000
0000
0000
0000
0000
1000
0000
0000
0100
0000
0000
0010
0000
0000
0001
0000
0000
,  // measure 45
1000
0000
0100
1000
0100
0000
0010
0000
0001
0000
0100
0000
0010
0000
0100
0000
,  // measure 46
1000
0000
0001
0100
0001
0000
1000
0000
0100
0000
0010
0000
0100
0000
1000
0000
,  // measure 47
0001
0000
0100
0010
0100
0000
0001
0000
1000
0000
0100
0000
0001
0000
1000
0000
,  // measure 48
0100
0000
0010
0100
0010
0000
1000
0000
0100
0000
1100
0000
0000
0000
0001
0000
,  // measure 49
0100
0101
0000
0001
0010
0011
0000
1000
,  // measure 50
0010
1010
0000
1000
0001
1001
0000
0010
,  // measure 51
0100
0110
0000
1000
0100
0001
0100
1000
,  // measure 52
0010
0100
0010
0110
0000
0000
2000
0000
0000
0000
0000
0000
,  // measure 53
0200
0000
0300
0000
0001
0001
0001
0000
,  // measure 54
3001
0000
0002
0000
,  // measure 55
0020
0000
0030
0000
0100
0100
0100
0000
,  // measure 56
0100
0003
0000
0000
0020
0000
0000
0000
,  // measure 57
2000
0000
3000
0000
0100
0100
0100
0000
,  // measure 58
0001
0030
0000
0000
0200
0000
0000
0000
,  // measure 59
0010
0000
0000
0000
0001
0001
0301
0000
,  // measure 60
1000
0100
0001
1001
0000
0000
0000
0000
;

//---------------dance-single - ----------------
#NOTEDATA:;
#CHARTNAME:;
#STEPSTYPE:dance-single;
#DESCRIPTION:;
#CHARTSTYLE:;
#DIFFICULTY:Easy;
#METER:4;
#RADARVALUES:0.206,0.213,0.018,0.141,0.000,145.000,2.000,16.000,0.000,0.000,0.000,0.000,0.000,0.206,0.213,0.018,0.141,0.000,145.000,2.000,16.000,0.000,0.000,0.000,0.000,0.000;
#CREDIT:;
#NOTES:
0000
0000
0000
0000
,
0000
0000
0000
0000
,
0000
0000
0000
0000
,
0000
0000
0000
0000
,
0000
0000
1000
0000
,
1000
0000
0001
0000
,
0001
0000
2000
0000
,
3000
0000
0002
0000
,
0003
0000
0010
0000
,
0010
0000
0100
0000
,
0100
0000
0020
0000
,
0030
0000
0200
0000
,
0300
0000
1000
0000
,
0100
0000
0001
0000
,
0100
0000
1000
0000
,
0010
0000
0001
0000
,
0010
0000
1000
0000
,
1000
0000
0001
0000
,
0001
0000
2000
0000
,
0000
3000
0002
0000
,
0000
0003
0020
0030
,
0020
0030
0200
0300
,
0200
0300
0002
0003
,
0002
0003
2000
3000
,
2000
3000
0010
0010
,
0010
0000
0001
0001
,
0001
0000
1000
1000
,
1000
0000
0100
0100
,
0100
0000
1000
0000
,
0100
0000
1000
0000
,
0010
0000
0001
0000
,
0100
0000
0001
0000
,
0010
0000
2000
0000
,
0001
0000
0010
0010
,
3010
0000
0002
0000
,
0100
0000
1000
1000
,
1003
0000
0100
0100
,
0100
0100
0010
0010
,
0010
0010
1000
1000
,
1000
1000
0001
0001
,
0001
0001
1000
0000
,
0100
0000
0001
0100
,
1000
0000
1000
0000
,
0010
0000
0001
0010
,
1000
0000
1000
0100
,
1000
0100
0001
0100
,
0001
0000
1000
0010
,
1000
0010
0001
0010
,
0001
0000
1000
0001
,
1000
0001
0100
0010
,
0100
0000
0001
1000
,
0001
1000
0010
0100
,
0010
0000
1000
0010
,
0001
0010
1000
0100
,
0001
0000
0001
0100
,
1000
0100
0001
0010
,
1000
0000
1000
0100
,
0001
0100
1000
0010
,
0001
0000
1000
0000
,
0100
0000
0001
1000
,
1001
1001
0000
0000
;

//---------------dance-single - ----------------
#NOTEDATA:;
#CHARTNAME:;
#STEPSTYPE:dance-single;
#DESCRIPTION:;
#CHARTSTYLE:;
#DIFFICULTY:Medium;
#METER:8;
#RADARVALUES:0.373,0.373,0.133,0.000,0.000,280.000,15.000,0.000,0.000,0.000,0.000,0.000,0.000,0.373,0.373,0.133,0.000,0.000,280.000,15.000,0.000,0.000,0.000,0.000,0.000,0.000;
#CREDIT:;
#NOTES:
0000
0000
0000
0000
,
0000
0000
0000
0000
,
0000
0000
0000
0000
,
0000
0000
0000
0000
,
0000
0000
1000
1000
,
0100
0100
1000
0100
,
1000
0100
1000
0000
0001
0000
0001
0000
,
0010
0010
0001
0010
,
0001
0010
0001
0000
1000
0000
1000
0000
,
0010
0010
1000
0010
,
1000
0010
1000
0000
0001
0000
0001
0000
,
0100
0100
0001
0100
,
0001
0100
0001
0000
1000
0000
0100
0000
,
0001
0100
1000
0010
,
0001
0010
1000
0100
,
0001
0010
1000
0010
,
0001
1001
0001
0100
,
1000
0010
0001
0010
,
1000
0100
0001
0001
,
1000
0000
1000
0000
1000
0100
0001
0100
,
1000
0100
0001
0000
1000
0000
1000
0000
,
0001
0001
1000
0100
,
0001
0100
0010
0010
,
0100
0100
0010
1000
,
0001
0100
0010
0010
,
0001
0001
0100
0100
,
1000
1000
1000
0000
0100
0000
0001
0000
,
0100
1000
0010
0001
,
0100
0100
0100
0000
1000
0000
0100
0000
,
0001
0000
0100
0000
1000
0100
0001
0000
,
0001
0100
1000
0000
0001
0000
0010
0000
,
1000
0000
0010
0000
0001
0010
1000
0000
,
1000
0010
0001
0000
1000
1000
0000
0000
,
0001
0001
0000
1000
0100
0010
0001
0000
,
1001
0000
0000
0000
0001
0001
0000
0000
,
1000
1000
0000
0001
0010
0100
1000
0000
,
1001
0000
0000
0000
0100
1000
0100
0000
,
0010
0001
0010
0000
0100
1000
0001
0010
,
0001
0000
1001
0000
0010
1000
0010
0000
,
0100
0001
0100
0000
0010
1000
0100
1000
,
0001
0000
0000
0000
1000
0100
0001
0000
,
0001
0100
1000
0000
1000
0010
0001
0000
,
0001
0010
1000
0000
1000
1000
0001
0000
,
0001
0001
1000
0000
0010
0100
0010
0100
,
0010
0000
1001
0000
1000
0100
1000
0000
,
0001
0100
0001
0000
1000
0001
1000
0000
,
0001
1000
0001
0000
0001
0010
0001
0000
,
1000
0010
1000
0000
0010
0100
0010
0000
,
0100
0010
0100
0000
1000
0100
0100
0000
,
0001
0100
0100
0000
1000
0010
0010
0000
,
0001
0010
0010
0000
1000
1000
0001
0000
,
0001
0001
1000
0000
0010
0010
0100
0100
,
0010
0100
0110
0000
1000
0000
1100
0000
,
0001
0000
0101
0000
0001
0010
0100
1000
,
1100
0000
1000
1010
,
0001
0000
0011
0000
1000
0010
0100
0001
,
0011
0000
0000
0000
1000
1000
0000
0000
,
0001
0001
0000
1000
0100
0001
0100
1000
,
1001
0000
0000
0000
1000
0100
0010
0001
,
0010
0100
1000
0001
0100
0000
1001
0000
,
1000
0100
1001
0000
0000
0000
0000
0000
;

//---------------dance-single - ----------------
#NOTEDATA:;
#CHARTNAME:;
#STEPSTYPE:dance-single;
#DESCRIPTION:;
#CHARTSTYLE:;
#DIFFICULTY:Beginner;
#METER:2;
#RADARVALUES:0.153,0.159,0.018,0.106,0.000,107.000,2.000,12.000,0.000,0.000,0.000,0.000,0.000,0.153,0.159,0.018,0.106,0.000,107.000,2.000,12.000,0.000,0.000,0.000,0.000,0.000;
#CREDIT:;
#NOTES:
0000
0000
0000
0000
,
0000
0000
0000
0000
,
0000
0000
0000
0000
,
0000
0000
0000
0000
,
0000
0000
2000
0000
,
0000
3000
0000
0000
,
0000
0000
0200
0000
,
0000
0300
0000
0000
,
0000
0000
0002
0000
,
0000
0003
0000
0000
,
0000
0000
0020
0000
,
0000
0030
0000
0000
,
0000
0000
1000
0000
,
1000
0000
1000
0000
,
1000
0000
0001
0000
,
0001
0000
0001
0000
,
0001
0000
0010
0000
,
0010
0000
0010
0000
,
0010
0000
0100
0000
,
0100
0000
0100
0000
,
0100
0000
1000
1000
,
1000
0000
0010
0010
,
0010
0000
0001
0001
,
0001
0000
0100
0100
,
0100
0000
2000
0000
,
0000
3000
0020
0000
,
0000
0030
2000
0000
,
0000
3000
0200
0000
,
0000
0300
0002
0000
,
0000
0003
0020
0000
,
0000
0030
0002
0000
,
0000
0003
0200
0000
,
0000
0300
1000
0000
,
1000
0000
0001
0001
,
0001
0000
0001
0000
,
0001
0000
1000
1000
,
1000
0000
0010
0000
,
0010
0000
0100
0100
,
0100
0000
0100
0000
,
0100
0000
0010
0010
,
0010
0000
1000
0000
,
0001
0000
1000
0000
,
0001
0000
1000
0000
,
0001
0000
0010
0010
,
0010
0000
0100
0000
,
0100
0000
0100
0100
,
0100
0000
0001
0000
,
0001
0000
0001
0001
,
0001
0000
1000
0000
,
1000
0000
1000
1000
,
1000
0000
0010
0000
,
0010
0000
0010
0010
,
0010
0000
1000
0000
,
0010
0000
0001
0000
,
1001
0000
0001
0000
,
0100
0000
1000
0000
,
1001
0000
0010
0000
,
0001
0000
0100
0000
,
1000
0000
0010
0010
,
0010
0000
0100
0100
,
0100
0000
0000
0000
;
