#TITLE:Ultra Hardcore;
#SUBTITLE:(P*Light Remix);
#ARTIST:kors k;
#TITLETRANSLIT:;
#SUBTITLETRANSLIT:;
#ARTISTTRANSLIT:;
#CREDIT:;
#BANNER:;
#BACKGROUND:;
#LYRICSPATH:;
#CDTITLE:;
#MUSIC:Ultra Hardcore (PLight Remix).mp3;
#OFFSET:-11.873;
#SAMPLESTART:45.020;
#SAMPLELENGTH:12.000;
#SELECTABLE:YES;
#BPMS:0.000=85.000,30.500=170.000;
#STOPS:14.000=1.100
,58.500=1.220
,119.000=1.060
,180.000=0.260
,180.250=0.260
,180.500=0.260
,180.750=0.260
,241.000=0.260
,241.250=0.260
,241.500=0.260
,241.750=0.260
;
#BGCHANGES:;

//---------------dance-single - ----------------
#NOTES:
     dance-single:
     :
     Hard:
     13:
     0.562,0.735,0.381,0.049,0.154:
0100
0000
1000
0000
0001
0100
0001
0000
0010
0000
0100
0000
0010
0100
0010
0000
,
0100
0000
1000
0000
1000
0100
1000
0000
0001
0000
0010
0000
1000
0100
1000
0000
,
0001
0100
1000
0000
1000
0100
0001
0000
0001
0010
1000
0000
1000
0010
0001
0000
,
1000
0000
0000
0000
0100
0000
0000
0000
0010
0000
0000
0000
0001
0000
0000
0000
0010
0000
0000
0000
0100
0000
0000
0000
1000
0000
0000
0000
0001
0000
0000
0000
2002
3003
0000
0000
0000
0000
0000
0000
1001
0000
0000
0000
0000
0000
0000
0000
0100
0000
0000
0000
1000
0000
0000
0000
0000
0000
0000
0000
0100
0000
0000
0000
,
0001
0000
1000
0100
0010
0001
0010
0100
1000
0000
0001
0010
0100
1000
0000
0100
,
1000
0000
0100
0010
0100
0010
0001
1000
0001
0000
1000
0100
0010
0001
0000
0001
,
0010
0000
0100
0010
0100
1000
0001
0100
0001
0000
1000
0000
0000
1001
0000
0000
,
0001
0000
0000
1001
0000
0000
1000
0000
1100
0000
1001
0000
0100
0000
1000
0000
,
0000
0110
1000
0001
0000
1100
0001
0100
,
0000
0011
0001
0010
0000
1010
0010
0010
,
0000
0101
0001
0010
0000
1001
1000
0001
,
0000
0110
0010
0100
0000
1000
1000
0001
,
0001
0010
0010
0100
0100
1000
1000
0100
,
0100
0001
0001
0010
0010
1000
0100
0001
,
0010
0000
0000
0000
0000
0000
0000
0000
0001
0000
0000
0000
0000
0000
0000
0000
0100
0000
0000
0000
0000
0000
0000
0000
1000
0000
0000
0000
0000
0000
0000
0000
0001
0000
0000
0000
0000
0000
0000
0000
2002
3003
0000
0000
0000
0000
0000
0000
0110
0000
0000
0000
0000
0000
0000
0000
0000
0000
0000
0000
0000
0000
0000
0000
,
1000
0100
1000
0000
0001
0100
0001
0000
,
0001
0010
0100
1000
0100
0010
0001
0000
,
1000
0100
0010
0001
0010
0100
1000
0000
,
0100
1000
0001
0001
0100
0000
1000
0010
,
0100
0010
1000
0000
0001
0010
0100
0010
,
0001
0000
0100
0010
0100
0010
1000
0000
,
0010
0100
0010
0100
0001
0000
1000
0100
,
0001
0100
1000
0000
1001
0000
1000
0100
,
1000
0100
1000
0100
1000
0000
0001
0100
,
0001
0100
0001
0100
0001
0000
1000
0010
,
1000
0010
1000
0010
1000
0000
0001
0010
,
0001
0010
0001
0010
0001
0000
0110
0000
,
1010
0110
0011
0110
,
1010
0000
0110
0000
0011
0000
1000
0100
,
0010
0000
0000
0000
0000
0000
0000
0000
0001
0000
0000
0000
0000
0000
0000
0000
0010
0000
0000
0000
0000
0000
0000
0000
0100
0000
0000
0000
0000
0000
0000
0000
1000
0000
0000
0000
0000
0000
0000
0000
0001
0000
0000
0000
0000
0000
0000
0000
0220
0330
0000
0000
0000
0000
0000
0000
0000
0000
0000
0000
0000
0000
0000
0000
,
1100
0000
0100
0100
0100
0000
0001
0001
,
0001
0000
0010
1000
0010
0001
0010
1000
,
0100
0000
0010
0010
0010
0000
1000
1000
,
1000
0000
0100
1000
0001
1000
0100
0010
,
0001
0000
1000
1000
0100
0000
0001
0001
,
0100
0000
1000
0001
0100
0001
0100
0010
,
1000
0000
0100
0001
0100
0010
1000
0100
,
1000
0001
0010
0100
1000
0001
0100
0000
,
1000
1000
1001
0000
0001
0001
1001
0000
,
0010
0010
0110
0000
0100
0100
0110
0000
,
1000
0100
1100
0000
0001
0100
0101
0000
,
0001
0010
0011
0000
1000
0010
1010
0000
,
1000
0100
0010
0100
1000
0100
0010
0100
,
0010
0001
0010
0100
0010
0001
0010
0100
,
1000
0100
0001
0100
1000
0100
0001
0100
,
1100
1001
0101
1001
0100
0000
1000
0000
0100
0000
0001
0000
0000
0000
1000
0000
,
0100
0001
0000
0001
0100
1000
0010
0001
,
0001
0000
1000
0100
1000
0000
0001
0100
,
0001
0000
0010
0100
0100
0100
0000
1000
,
0001
0000
0100
1000
0100
1000
0000
0001
,
0100
0001
0000
0010
0100
1000
0100
0000
,
0001
0000
0000
0000
1100
0000
0000
0000
1001
0000
0000
0000
0100
0000
0000
0001
,
0000
1000
0001
0100
1000
0000
1100
0000
,
0101
0000
0001
0010
0100
0010
0100
1000
,
0100
0000
1000
0100
0010
0001
0010
0100
,
1000
0000
0001
0100
1000
0000
1000
0100
,
0001
0000
0001
0010
1000
0010
0001
0010
,
1000
0000
1000
0100
0001
0000
0001
0100
,
1000
0000
1000
0010
0001
0000
0001
0010
,
1000
0000
0000
0000
1000
0000
0000
0100
0000
0000
0001
0000
0100
0000
0000
1000
,
0000
0000
0010
0000
1010
0110
0101
0110
1001
0000
0000
0000
0000
0000
0000
0000
;

//---------------dance-single - ----------------
#NOTES:
     dance-single:
     :
     Medium:
     8:
     0.359,0.367,0.113,0.000,0.016:
1000
0100
0001
0000
0001
0100
1000
0000
,
1000
0010
0001
0000
0001
0010
1000
0000
,
1000
1000
1000
0000
0001
0001
0001
0000
,
0100
1000
0001
0000
0110
1100
0000
0001
,
0100
0000
0000
1000
0100
0000
0000
0001
,
0010
0000
0000
1000
0010
0001
0000
1000
,
1000
0001
0001
1000
0000
0100
0100
0010
,
0000
0010
0010
0100
0000
1000
0000
1000
,
0000
0001
0000
0001
0000
0100
0000
0100
,
0000
0010
0000
0010
0000
1000
0000
1000
,
0000
0010
0000
0010
0000
0001
0000
0001
,
0000
0100
0000
0100
0000
1000
0000
1000
,
0000
0001
0000
0001
0000
1000
0000
1000
,
0000
0001
0000
0001
0000
0010
0010
0010
,
0000
0100
0100
0100
0000
0110
1000
0000
,
0100
1000
0100
0000
0001
0100
0001
0000
,
0001
0010
0001
0000
1000
0000
0100
0000
,
0010
0100
0010
0000
1000
0100
1000
0000
,
0001
0100
0001
0000
1001
0000
1000
0000
,
1000
0001
0001
0100
,
0100
0000
0010
0000
0010
0000
1000
0100
,
1000
0000
1001
0000
0000
0000
0001
0100
,
0001
1001
0000
0010
,
0010
0000
0100
0000
0100
0000
1000
0001
,
1000
0001
0010
0100
,
1000
0100
0001
0100
,
1000
0010
0001
1000
,
1000
1100
0000
0001
,
0001
0000
0101
0000
0000
0000
1000
0010
,
1000
0000
0001
1000
0010
0000
1001
0000
,
0110
0100
0100
0100
,
1001
0001
0001
0001
,
1010
1000
1000
1000
,
0101
0100
0100
0100
,
1000
0100
0001
0000
0001
0000
0001
0000
,
0001
0100
1000
0000
1000
0000
1000
0000
,
0001
0010
1000
0000
1000
0000
1000
0000
,
1000
0010
0001
0000
0001
0000
0001
0000
,
1000
1000
1000
0000
0100
0000
0100
0000
,
0001
0001
0001
0000
0010
0000
0010
0000
,
1000
0000
1000
0000
0010
0010
0010
0000
,
0001
0000
0001
0000
0100
0100
0100
0000
,
1000
0100
1000
0000
0001
0100
0001
0000
,
0001
0010
0001
0000
1000
0010
1000
0000
,
0100
1000
0001
0010
,
1000
0100
0010
0001
1000
0000
0100
0000
1000
0000
0000
0000
0001
0000
0100
0000
,
0001
0001
0010
0100
,
1000
0000
0100
0010
0100
0000
0010
0100
,
0010
1000
0100
0010
,
0001
0000
1000
1000
1000
0000
0001
0001
,
0001
0010
0010
0100
,
0100
0000
0100
0100
0100
0000
0010
0010
,
0010
1000
0100
0001
,
0100
0000
1000
0010
0001
0000
0100
0000
,
0100
0000
0001
0010
1000
0000
0010
0000
,
0010
0000
1000
0001
0100
0000
0001
0100
,
1000
0000
0010
0000
1000
0000
0001
1000
,
0100
0100
1000
0001
,
0100
0010
1000
0001
,
0100
1000
0001
0001
,
1000
0000
0000
0000
0100
0100
0100
0100
1001
0000
0000
0000
0000
0000
0000
0000
;

//---------------dance-single - ----------------
#NOTES:
     dance-single:
     :
     Easy:
     3:
     0.235,0.294,0.073,0.016,0.016: // measure 1
1000
1000
0000
0000
,  // measure 2
0001
0001
0000
0000
,  // measure 3
0010
0010
0000
0000
,  // measure 4
0100
0100
1001
0000
,  // measure 5
0000
0000
0000
0000
0000
0100
0000
0100
,  // measure 6
0000
0001
0000
0000
0000
0010
0000
0010
,  // measure 7
0000
1000
0000
0000
0000
1001
0000
0000
,  // measure 8
0000
0110
0000
0000
0000
2002
0000
0000
,  // measure 9
0000
0000
0000
0000
,  // measure 10
0000
0000
0000
0000
,  // measure 11
0000
0000
0000
0000
,  // measure 12
0000
0000
0000
3003
0000
0100
0000
0100
,  // measure 13
0000
0010
0000
0010
0000
0100
0000
0100
,  // measure 14
0000
0010
0000
0010
0000
1000
0000
0001
,  // measure 15
0000
1000
0000
0001
0000
1001
0100
0000
,  // measure 16
1000
0100
1000
0001
,  // measure 17
0100
0001
0000
0001
,  // measure 18
0010
0001
0010
1000
,  // measure 19
0010
1000
0000
1000
,  // measure 20
0001
1000
0001
1000
,  // measure 21
0001
1000
0000
0010
,  // measure 22
0100
0010
0100
0010
,  // measure 23
0100
0010
0000
1000
,  // measure 24
1000
1000
0001
0001
,  // measure 25
0001
1001
0000
0010
,  // measure 26
0010
0010
0100
0100
,  // measure 27
0100
0110
0000
1000
,  // measure 28
0100
0001
0100
1000
,  // measure 29
0010
0001
0000
0001
,  // measure 30
0010
1000
0100
1001
,  // measure 31
0100
0100
0100
0000
,  // measure 32
0010
0010
0010
0000
,  // measure 33
0100
0100
0100
0000
,  // measure 34
0010
0010
0010
0000
,  // measure 35
1000
1000
0001
0001
,  // measure 36
1000
1000
0001
0001
,  // measure 37
0010
0010
0100
0100
,  // measure 38
1000
1000
0001
0001
,  // measure 39
1000
0000
1000
0000
,  // measure 40
0001
0000
0001
0000
,  // measure 41
0100
0000
0100
0000
,  // measure 42
0010
0000
0010
0000
,  // measure 43
1000
0100
0001
0100
,  // measure 44
1000
0010
0001
0010
,  // measure 45
1000
0100
0001
0010
,  // measure 46
1000
1000
1000
1000
0001
0000
0000
0000
0001
0000
0000
0000
0001
0000
0000
0000
,  // measure 47
0001
1000
1000
1000
,  // measure 48
1000
0010
0010
0010
,  // measure 49
0010
0001
0001
0001
,  // measure 50
0001
1000
1000
1000
,  // measure 51
1000
0100
0100
0100
,  // measure 52
0100
0001
0001
0001
,  // measure 53
0001
0100
0100
0100
,  // measure 54
0100
1000
0000
1000
,  // measure 55
0000
0001
0000
0001
,  // measure 56
0000
0010
0010
1000
,  // measure 57
1000
0100
0100
0001
,  // measure 58
0001
0100
0000
0001
,  // measure 59
0000
0010
0000
1000
,  // measure 60
0000
0100
0000
0001
,  // measure 61
0000
0000
0000
0000
0001
0001
0001
0001
1001
0000
0000
0000
0000
0000
0000
0000
;

//---------------dance-single - ----------------
#NOTES:
     dance-single:
     :
     Beginner:
     2:
     0.150,0.171,0.057,0.081,0.000: // measure 1
2000
0000
0000
3000
,  // measure 2
0002
0000
0000
0003
,  // measure 3
0020
0000
0000
0030
,  // measure 4
0200
0000
0300
0000
1001
0100
0000
0000
,  // measure 5
0000
0100
0000
0000
0000
0010
0000
0000
,  // measure 6
0000
0010
0000
0000
0000
0001
0000
0000
,  // measure 7
0000
0001
0000
0000
0000
1000
0000
0000
,  // measure 8
0000
1000
0000
0000
0000
0001
0000
0001
,  // measure 9
0000
0001
0000
0000
0000
1000
0000
1000
,  // measure 10
0000
1000
0000
0000
0000
0010
0000
0010
,  // measure 11
0000
0010
0000
0000
0000
0100
0000
0100
,  // measure 12
0000
0100
0000
0000
0000
1000
0000
0000
,  // measure 13
0000
1000
0000
0000
0000
0100
0000
0000
,  // measure 14
0000
0100
0000
0000
0000
0001
0000
0000
,  // measure 15
0000
0001
0000
0000
0000
0010
0010
0000
,  // measure 16
0000
1000
0000
1000
,  // measure 17
0000
0100
0000
0100
,  // measure 18
0000
0001
0000
0001
,  // measure 19
0000
0100
0000
0100
,  // measure 20
0000
1000
0000
1000
,  // measure 21
0000
0010
0000
0010
,  // measure 22
0000
0001
0000
0001
,  // measure 23
0000
0000
0000
1001
,  // measure 24
0000
0000
0000
0000
,  // measure 25
0000
0000
0000
1001
,  // measure 26
0000
0000
0000
0000
,  // measure 27
0000
0000
0000
0110
,  // measure 28
0000
0000
0000
0000
,  // measure 29
0000
0000
0000
0110
,  // measure 30
0000
0000
0000
0110
,  // measure 31
0100
0000
0100
0000
,  // measure 32
0010
0000
0010
0000
,  // measure 33
0001
0000
0001
0000
,  // measure 34
1000
0000
1000
0000
,  // measure 35
0100
0000
0100
0000
,  // measure 36
0001
0000
0001
0000
,  // measure 37
0010
0000
0010
0000
,  // measure 38
1000
0000
1000
0000
,  // measure 39
0200
0000
0000
0300
,  // measure 40
0020
0000
0000
0030
,  // measure 41
2000
0000
0000
3000
,  // measure 42
0002
0000
0000
0003
,  // measure 43
1000
0000
1000
0000
,  // measure 44
0001
0000
0001
0000
,  // measure 45
0010
0010
0010
0000
,  // measure 46
0200
0300
0100
0000
0000
0000
0100
0000
,  // measure 47
0000
0010
0000
0010
,  // measure 48
0000
1000
0000
1000
,  // measure 49
0000
0001
0000
0001
,  // measure 50
0000
1000
0000
0100
,  // measure 51
0000
0001
0000
0100
,  // measure 52
0000
1000
0000
0001
,  // measure 53
0000
1000
0000
0010
,  // measure 54
0010
0010
0000
0100
,  // measure 55
0000
0001
0000
0100
,  // measure 56
0000
0010
0000
1000
,  // measure 57
0000
0100
0000
0010
,  // measure 58
0000
0100
0000
0001
,  // measure 59
0000
0010
0000
0100
,  // measure 60
0000
1000
0000
0100
,  // measure 61
0000
0000
0002
0003
1001
0000
0000
0000
;
