#TITLE:Realize Maze;
#SUBTITLE:;
#ARTIST:movies (moimoi x Xceon x Dai.);
#TITLETRANSLIT:;
#SUBTITLETRANSLIT:;
#ARTISTTRANSLIT:;
#CREDIT:;
#BANNER:Realize Maze-bn.png;
#BACKGROUND:Realize Maze-bg.PNG;
#LYRICSPATH:;
#CDTITLE:;
#MUSIC:Realize Maze.mp3;
#OFFSET:-8.540;
#SAMPLESTART:15.740;
#SAMPLELENGTH:13.700;
#SELECTABLE:YES;
#BPMS:0.000=149.000;
#STOPS:;
#BGCHANGES:;

//---------------dance-single - ----------------
#NOTES:
     dance-single:
     :
     Hard:
     11:
     0.485,0.495,0.260,0.176,0.222: // measure 1
0000
0000
0000
0000
,  // measure 2
0000
0000
0000
0000
,  // measure 3
0000
0000
0000
0000
,  // measure 4
0000
0000
0000
0000
,  // measure 5
0000
0000
1100
0101
,  // measure 6
1001
0000
0000
0000
1000
0000
0100
0000
0001
0000
1000
0100
0000
0000
1000
0000
,  // measure 7
0001
0000
0100
0000
0001
0000
0010
0000
0100
0000
1000
0100
0000
0000
0001
0000
,  // measure 8
0100
0010
0100
1000
0000
0101
0000
0011
,  // measure 9
0000
0000
1000
0100
0010
0001
0010
0100
,  // measure 10
1100
0000
0000
0000
0001
0000
0010
0000
0100
0000
1000
0100
0000
0000
0010
0000
,  // measure 11
0001
0000
1000
0000
0010
0000
0100
0000
0010
0000
0100
0010
0000
0000
0001
0000
,  // measure 12
1000
0000
0000
1100
0000
0000
0001
0000
0101
0000
0000
0001
0000
0000
0010
0000
,  // measure 13
1001
0000
1000
0100
0001
0100
1000
0000
,  // measure 14
0100
0000
1000
0000
0100
0000
1000
0000
0001
0000
0000
0100
0000
0000
1000
0000
,  // measure 15
0010
0000
0001
0000
0010
0000
0001
0000
1000
0000
0000
0100
0000
0000
0001
0000
,  // measure 16
0010
0000
0100
0000
1000
0000
0001
0000
1000
0000
0000
0001
0000
0000
0001
0000
,  // measure 17
0010
0000
0000
0100
0000
0000
1000
0000
2002
0000
0000
0000
3003
0000
0000
0000
,  // measure 18
1000
0000
0100
0000
1000
0000
0001
0000
0100
0000
0000
0100
0000
0000
0010
0000
,  // measure 19
1000
0000
0100
0000
0001
0000
0100
0000
0010
0000
0000
0010
0000
0000
1000
0000
,  // measure 20
0100
0000
0000
0001
0000
0000
1000
0000
0000
0000
0000
0000
0100
0000
1000
0000
,  // measure 21
0001
0000
0000
0100
0000
0000
0020
0000
0000
0000
0000
0000
0000
0000
0000
0000
,  // measure 22
0032
0000
0000
0000
0000
0000
0003
0000
1000
0000
0000
0100
0000
0000
0001
0000
,  // measure 23
2000
0000
0000
0000
0000
0000
3000
0000
0001
0000
0000
0100
0000
0000
1000
0000
,  // measure 24
0010
0000
0000
0100
0000
0000
1000
0000
0001
0000
0000
1000
0000
0000
0100
0000
,  // measure 25
0020
0000
0000
0000
0030
0000
1000
0001
1000
0000
0001
0000
0100
0000
1000
0000
,  // measure 26
0020
0000
0000
0000
0000
0000
0030
0000
1000
0000
0000
0100
0000
0000
0001
0000
,  // measure 27
2000
0000
0000
0000
0000
0000
3000
0000
0001
0000
0000
0100
0000
0000
1000
0000
,  // measure 28
0001
0000
0000
0001
0000
0000
0001
0000
1000
0000
0000
1000
0000
0000
1000
0000
,  // measure 29
2002
0000
0000
3003
,  // measure 30
1000
0100
0010
0001
0010
0100
1000
0000
,  // measure 31
0001
0000
0100
0000
1000
0000
0100
0000
0001
0000
1000
0100
0000
0000
0001
0000
,  // measure 32
0100
0000
0001
0000
1000
0000
0010
0000
0001
0000
0010
0001
0000
0000
1000
0000
,  // measure 33
0010
0100
1000
0001
0000
0101
0001
0010
,  // measure 34
0000
0000
1000
0010
1000
0100
0001
0100
,  // measure 35
0011
0000
0000
0000
1000
0000
0100
0000
1000
0000
0001
0100
0000
0000
0001
0000
,  // measure 36
1000
0000
0010
0000
0100
0000
1000
0000
0001
0000
0100
0010
0000
0000
1000
0000
,  // measure 37
1100
0000
0000
0001
0000
0000
0001
0000
0101
0000
0000
0010
0000
0000
0001
0000
,  // measure 38
0011
0000
1000
0010
1000
0100
0001
1000
,  // measure 39
0100
0000
0000
0000
0000
0000
0100
0000
0100
0000
1000
0001
0000
0000
0100
0000
,  // measure 40
0010
0000
0000
0000
0000
0000
0010
0000
0010
0000
1000
0100
0000
0000
0001
0000
,  // measure 41
0010
0000
0000
0100
0000
0000
1000
0000
0100
0000
0000
0001
0000
0000
0100
0000
,  // measure 42
2002
0000
0000
3003
,  // measure 43
0200
0000
0000
0000
0000
0000
0300
0000
0001
0000
0000
0010
0000
0000
0100
0000
,  // measure 44
2000
0000
0000
0000
0000
0000
3000
0000
0001
0000
0000
0100
0000
0000
0010
0000
,  // measure 45
1000
0000
0000
0100
0000
0000
0001
0000
0100
0000
0000
0001
0000
0000
1000
0000
,  // measure 46
0002
0000
0000
0000
0003
0000
0100
0010
0100
0000
0001
0000
1000
0000
0100
0000
,  // measure 47
2000
0000
0000
0000
0000
0000
3000
0000
0100
0000
0000
0010
0000
0000
0100
0000
,  // measure 48
2000
0000
0000
0000
0000
0000
3000
0000
0010
0000
0000
0100
0000
0000
1000
0000
,  // measure 49
1100
0000
0000
0001
0000
0000
0100
0000
0101
0000
0000
0001
0000
0000
0010
0000
,  // measure 50
2002
0000
0000
0000
,  // measure 51
3003
0000
0000
0000
,  // measure 52
0220
0000
0000
0330
,  // measure 53
1000
0000
0000
0000
0001
0000
0100
0000
1000
0000
0100
1000
0000
0000
0001
0000
,  // measure 54
0010
0000
0100
0000
1000
0000
0001
0000
0100
0000
0100
0010
0000
0000
1000
0000
,  // measure 55
0100
0001
0100
0001
0000
1100
0000
0101
,  // measure 56
0000
0000
0001
0010
0000
1000
0100
0010
,  // measure 57
0001
0000
0000
0000
1000
0000
0100
0000
0010
0000
0001
0001
0000
0000
1000
0000
,  // measure 58
0100
0000
0001
0000
0100
0000
0010
0000
1000
0000
1000
1000
0000
0000
0100
0000
,  // measure 59
1100
0000
0000
0001
0000
0000
0100
0000
0011
0000
0000
0010
0000
0000
0010
0000
,  // measure 60
1010
0000
0010
1000
0100
1000
0001
1000
,  // measure 61
1001
0000
0000
0000
0000
0000
1000
0000
0100
0000
1000
0100
0000
0000
0010
0000
,  // measure 62
0001
0000
0010
0000
0100
0000
1000
0000
0001
0000
0100
0010
0000
0000
1000
0000
,  // measure 63
0100
0000
0001
1000
0000
1100
0000
0101
,  // measure 64
0000
0000
0010
0100
1000
0100
0010
0001
,  // measure 65
0010
0000
0000
0000
1000
0000
0001
0000
0100
0000
0100
0010
0000
0000
0100
0000
,  // measure 66
1000
0000
0001
0000
0100
0000
0010
0000
1000
0000
0100
0100
0000
0000
1000
0000
,  // measure 67
1100
0000
0000
0001
0000
0000
0100
0000
0011
0000
0000
0010
0000
0000
0010
0000
,  // measure 68
1010
0000
0010
0100
1000
0100
0001
0000
,  // measure 69
1001
0000
0000
0000
1000
0000
0100
0000
0001
0000
0100
1000
0000
0000
0010
0000
,  // measure 70
1000
0000
0100
0000
0001
0000
1000
0000
0010
0000
0010
0010
0000
0000
1000
0000
,  // measure 71
0100
0000
0000
0001
0000
0000
0100
0000
1000
0000
0000
0100
0000
0000
0001
0000
,  // measure 72
2200
0000
0000
0000
,  // measure 73
3300
0000
0000
0000
;

//---------------dance-single - ----------------
#NOTES:
     dance-single:
     :
     Medium:
     8:
     0.314,0.358,0.069,0.160,0.095:
0000
0000
0000
0000
,
0000
0000
0000
0000
,
0000
0000
0000
0000
,
0000
0000
0000
0000
,
0000
0000
1000
0001
,
1001
0000
1000
0100
0001
0000
0001
0100
,
1000
0000
1000
0010
0001
0000
0001
0010
,
1000
0000
1000
0100
0000
0001
0000
0101
,
0000
0100
1000
0100
,
0001
0010
0001
0000
1000
0010
1000
0000
,
0100
1000
0100
0000
0001
0100
0001
0000
,
1000
0000
0000
1000
0000
0000
1000
0000
0001
0000
0000
0001
0000
0000
0001
0000
,
0020
0000
0000
0030
,
1000
1000
0001
0001
,
1000
1000
0001
0001
,
0100
0100
0010
0010
,
0100
0000
0000
0100
0000
0000
0010
0000
0010
0000
0000
0000
0000
0000
0000
0000
,
1000
0100
1000
0000
1000
0000
1000
0000
,
0001
0100
0001
0000
0001
0000
0001
0000
,
0010
0000
0000
0010
0000
0000
0010
0000
0000
0000
0000
0000
0000
0000
0000
0000
,
0100
0000
0000
0100
0000
0000
0100
0000
0000
0000
0000
0000
0000
0000
0000
0000
,
1002
0000
0100
0003
,
0200
0000
0010
0300
,
0020
0000
2030
0000
,
3200
0000
0001
0300
,
0220
0000
0000
0330
,
0002
0000
1000
0003
,
1000
0000
0000
1000
0000
0000
1000
0000
0001
0000
0000
0001
0000
0000
0001
0000
,
0020
0000
0000
0000
,
0230
0000
0000
0300
,
0100
1000
0100
0000
0100
0000
0100
0000
,
0010
0001
0010
0000
0010
0000
0010
0000
,
1001
0000
0000
1000
0000
0001
0000
1000
,
0000
0100
0010
0100
,
1000
0100
1000
0000
0001
0100
0001
0000
,
0001
0010
0001
0000
1000
0010
1000
0000
,
1000
0000
0000
1000
0000
0000
1000
0000
0010
0000
0000
0010
0000
0000
0010
0000
,
0002
0000
0000
0003
,
2000
0000
0000
0000
,
3002
0000
0000
0000
,
0203
0000
0000
0000
,
2300
0000
0000
3000
,
0001
0000
0000
0000
0100
0000
0000
0000
0010
0000
0000
0010
0000
0000
0010
0000
,
1000
0000
0000
0000
0001
0000
0000
0000
0100
0000
0000
0100
0000
0000
0100
0000
,
1000
0000
0000
1000
0000
0000
1000
0000
0001
0000
0000
0001
0000
0000
0001
0000
,
0020
0000
0000
0030
,
1000
0000
0000
0000
0100
0000
0000
0000
0001
0000
0000
0001
0000
0000
0001
0000
,
0200
0000
0000
0000
0300
0000
0000
0000
1000
0000
0000
1000
0000
0000
1000
0000
,
0010
0000
0000
0010
0000
0000
0010
0000
0100
0000
0000
0100
0000
0000
0100
0000
,
0002
0000
0000
0000
,
0000
0000
0000
0000
,
0003
0000
0000
0000
,
1000
0100
1000
0000
0001
0100
0001
0000
,
0001
0010
0001
0000
1000
0010
1000
0000
,
0100
0000
0010
0100
0000
0100
0000
0200
,
0000
0000
0000
0300
,
1000
0000
0100
0000
1000
0000
0000
0000
0001
0000
0000
0001
0000
0000
0001
0000
,
0010
0000
0100
0000
1000
0000
0000
0000
0001
0000
0000
0010
0000
0000
0001
0000
,
1000
0000
0000
0100
0000
0000
1000
0000
0001
0000
0000
0100
0000
0000
0001
0000
,
1000
0000
1100
1100
,
0010
0100
0010
0000
0100
0010
0100
0000
,
1000
0001
1000
0000
0001
1000
0001
0000
,
1000
0000
1000
0100
0000
0001
0000
0010
,
0000
0000
1000
0100
0000
0001
0100
1000
,
0001
0000
1000
0100
1000
0000
0001
0010
,
0001
1000
0100
0001
,
0010
0000
0000
0010
0000
0000
0010
0000
0100
0000
0000
0100
0000
0000
0100
0000
,
1001
0000
1000
0001
,
1001
0000
0100
0100
,
0010
0010
0100
0001
,
1000
0000
0000
0100
0000
0000
0001
0000
0100
0000
0000
1000
0000
0000
0010
0000
,
0002
0000
0000
0000
,
0003
0000
0000
0000
;

//---------------dance-single - ----------------
#NOTES:
     dance-single:
     :
     Easy:
     3:
     0.244,0.248,0.046,0.222,0.000:
0000
0000
0000
0000
,
0000
0000
0000
0000
,
0000
0000
0000
0000
,
0000
0000
0000
0000
,
0000
0000
0000
0000
,
1000
1000
0100
0100
,
0001
0000
0001
0001
,
0100
0100
1000
1000
,
0010
0000
0100
0100
,
0010
0010
0100
0001
,
1000
0000
0100
0001
,
1000
0010
0001
1000
,
1001
0000
0000
0000
,
1000
1000
1000
1000
,
0001
0001
0001
0001
,
1000
0001
1000
0001
,
0010
0010
0200
0300
,
0100
0100
0010
0010
,
0100
0010
0001
1000
,
0100
0100
0001
0000
,
0010
0010
1000
0000
,
2000
0000
0001
3001
,
0002
0000
1000
1003
,
0100
0100
0001
1000
,
0020
0000
0000
0030
,
0100
0001
1000
0100
,
0020
0030
1000
1000
,
0100
0100
0001
0001
,
2000
0000
0000
0000
,
3002
0000
0000
0003
,
1000
1000
0001
0001
,
0100
0000
0100
0001
,
1000
0010
0001
1000
,
0001
0100
1000
0100
,
0001
0000
0010
1000
,
0001
0000
1000
0010
,
0001
0100
0001
1000
,
0200
0000
0000
0300
,
0020
0000
0000
0000
,
2030
0000
0000
0000
,
3200
0000
0000
0000
,
0302
0000
0000
0003
,
2002
0000
0000
3003
,
0220
0000
0000
0330
,
1000
1000
0001
0001
,
1001
0000
0100
1000
,
0001
0100
0001
1000
,
0010
0000
0001
1000
,
2000
0000
3002
0003
,
2002
0000
0000
0000
,
0000
0000
0000
0000
,
3003
0000
0100
0100
,
0100
0000
0010
1000
,
0010
0001
0010
1000
,
0100
0001
0100
1000
,
0001
0000
1000
0100
,
0001
0000
0001
0100
,
1000
0001
1000
0010
,
0002
0000
2003
0000
,
3200
0000
0000
0300
,
0100
0100
0010
0010
,
1000
0001
0100
0010
,
0100
0001
1000
0001
,
2000
0000
0000
3000
,
0001
0100
0001
0100
,
0010
1000
0010
1000
,
0200
0300
0002
0003
,
2002
0000
0000
3003
,
0010
0100
0010
0000
,
1000
0001
1000
0000
,
1000
0100
0001
0100
,
2000
0000
0000
0000
,
3000
0000
0000
0000
;

//---------------dance-single - ----------------
#NOTES:
     dance-single:
     :
     Beginner:
     1:
     0.105,0.138,0.038,0.168,0.000:
0000
0000
0000
0000
,
0000
0000
0000
0000
,
0000
0000
0000
0000
,
0000
0000
0000
0000
,
0000
0000
0000
0000
,
1000
0000
0000
0000
,
0100
0000
0000
0000
,
0001
0000
0000
0000
,
0000
0000
0000
0000
,
0010
0000
0000
0000
,
1000
0000
0000
0000
,
0001
0000
0000
0000
,
0020
0000
0000
0030
,
0000
0000
0000
0000
,
0000
0000
0000
0000
,
0000
0000
0000
0000
,
0000
0000
0000
0000
,
1000
0000
0000
0000
,
1000
0000
0000
0000
,
0001
0000
0000
0000
,
0001
0000
0000
0000
,
2002
0000
0000
0000
,
0000
0000
0000
3003
,
0000
0100
0000
0100
,
0000
0010
0000
0000
,
1001
0000
0000
0000
,
0110
0000
0000
0000
,
0010
0000
0100
0000
,
0002
0000
0000
0000
,
0003
0000
0000
0000
,
2000
0000
0000
3000
,
0002
0000
0000
0003
,
0020
0000
0000
0030
,
0200
0000
0000
0300
,
0001
0000
0000
0000
,
0100
0000
0000
0000
,
1000
0000
0000
0000
,
0010
0000
0000
0000
,
0200
0000
0000
0300
,
0020
0000
0000
0030
,
2000
0000
0000
3000
,
0002
0000
0000
0003
,
2000
0000
0000
0000
,
0000
0000
0000
3000
,
0002
0000
0000
0000
,
0000
0000
0000
0003
,
1000
0000
1000
0000
,
0001
0000
0001
0000
,
0010
0010
0010
0000
,
0200
0000
0000
0000
,
0000
0000
0000
0300
,
0000
0000
0000
0000
,
0000
0000
0100
0000
,
0000
0000
0100
0000
,
0010
0000
0000
0000
,
0010
0000
0000
0000
,
1000
0000
1000
0000
,
0001
0000
0001
0000
,
1000
0000
0001
0000
,
1001
0000
0000
0000
,
0010
0000
0010
0000
,
0100
0000
0100
0000
,
0010
0000
0100
0000
,
0110
0000
0000
0000
,
2000
0000
0000
3000
,
0002
0000
0000
0003
,
2000
0000
0000
3000
,
0002
0000
0000
0003
,
0200
0000
0000
0300
,
0020
0000
0000
0030
,
0100
0000
0100
0000
,
0020
0000
0000
0000
,
0030
0000
0000
0000
;
