#TITLE:Move That Body;
#SUBTITLE:;
#ARTIST:Expander;
#TITLETRANSLIT:;
#SUBTITLETRANSLIT:;
#ARTISTTRANSLIT:;
#CREDIT:;
#BANNER:;
#BACKGROUND:;
#LYRICSPATH:;
#CDTITLE:;
#MUSIC:Move that Body - Expander.mp3;
#OFFSET:-10.800;
#SAMPLESTART:74.600;
#SAMPLELENGTH:14.720;
#SELECTABLE:YES;
#BPMS:0.000=98.000,32.000=196.000,160.000=98.000,184.000=196.000,252.000=98.000;
#STOPS:;
#BGCHANGES:;

//---------------dance-single - ----------------
#NOTES:
     dance-single:
     :
     Hard:
     13:
     0.593,0.686,0.415,0.000,0.185:
1000
0000
0100
0000
0001
0100
1000
0000
1000
0100
0010
0001
0000
0010
0001
0000
,
1000
0100
1000
0000
0001
0100
0001
0000
0010
0000
0010
0000
0100
0000
0100
0000
,
1000
0100
0001
0000
0001
0100
1000
0000
0010
0100
1000
0010
0000
0100
0010
0000
,
0001
0000
1000
0000
0100
0010
0001
0000
1000
0000
0100
0000
0001
0100
0001
0000
,
1000
0000
0100
0010
0100
0010
0001
0000
1000
0100
0010
0001
0000
0001
0010
0000
,
0100
0000
1000
0000
0101
0000
0000
0000
1000
0100
1000
0000
0100
0000
0000
0000
,
1000
0001
0010
0000
0100
1000
0001
0000
1000
0010
1000
0100
0000
0010
0001
0000
,
1000
0000
0100
0000
0001
0000
0100
0000
0001
1000
0100
1000
0001
0000
0010
0000
,
1001
0000
0000
1100
0000
0000
1001
0000
,
0101
0000
0000
1001
0000
0000
0110
0000
,
1001
0110
1100
0101
,
1000
0100
0001
0100
1000
0000
1010
0000
,
0011
0000
0000
1001
0000
0000
1100
0000
,
1001
0000
0000
0101
0000
0000
1001
0000
,
0010
0100
1000
0001
0100
0000
0001
0010
,
0100
1000
0110
0110
,
1000
0100
1000
0100
0000
0001
0100
0000
,
0001
0010
0100
1000
0000
0001
0100
0000
,
1000
1000
1000
0000
0001
0001
0001
0000
,
0100
0000
0000
1000
0000
0000
0001
0000
0000
1000
0000
0000
0100
0000
1000
0000
0100
0000
0010
0000
0001
0000
0010
0000
,
1000
0000
0100
0010
0000
0010
0001
0000
,
0100
0000
1000
0100
0000
0010
0010
0000
,
0001
1000
0100
0010
0001
0000
1000
1000
,
0100
0001
0101
0000
,
1100
0000
0001
0000
0101
0000
0010
0001
,
0000
1000
0010
0000
1000
0100
0010
0000
,
0001
0100
1000
0001
0100
0001
0010
0100
,
0000
1000
0001
0000
1000
0100
0100
0000
,
0001
0100
0001
0000
0010
0001
0001
1000
,
0000
0010
0010
0000
1000
0100
0010
0000
,
0001
0001
1000
0001
0010
0100
0000
1001
,
0000
0101
0000
1100
0000
0001
0100
0000
,
0001
1000
0100
0000
0010
0001
0010
0001
,
0000
1000
0010
0000
0100
0010
0100
0000
,
1000
0100
0001
0000
0100
1000
0001
0000
,
0010
0100
1000
0001
0100
0001
0010
0000
,
0100
0100
1000
0000
0001
0100
0001
0000
,
0010
0001
0010
0000
0010
0000
1000
0000
,
0100
1000
0100
0010
0001
0000
1000
0000
,
0100
0000
1000
0000
0001
0010
0100
0000
,
1000
0001
1001
0000
0001
1000
1001
0000
,
1000
1000
1100
1100
0001
0001
0101
0101
,
0010
0000
0100
0000
1000
0000
0000
0000
0100
1000
0010
0001
0010
0000
0000
0000
,
0100
0000
1000
0000
0100
0000
0001
0000
0010
0000
0100
0000
1000
0100
0010
0001
,
0010
0000
0100
0000
1001
0000
1100
0000
0000
0000
1001
0000
0001
1000
0100
0010
,
0001
0100
0101
0001
0001
0010
1001
0110
,
1000
0100
0010
0001
0010
0100
1000
0000
,
0001
0010
0100
1000
0100
0010
0001
0000
,
0100
1000
0010
0001
1000
0000
0010
1000
,
0100
1000
0001
0100
0001
0010
0100
0000
,
1000
0000
0001
0100
0001
0000
1000
0000
,
0100
0000
0010
0000
0001
1000
0001
0000
,
0100
1000
0100
0010
0001
0000
1000
0000
,
1100
0000
0101
0000
,
0010
0100
1000
0000
0100
0010
0001
0000
,
0100
1000
0001
1000
0001
0010
0100
0000
,
0010
0100
1000
0001
1000
0000
0001
0000
,
0100
0001
1000
0001
0010
0100
1000
0001
,
0100
0000
0010
0010
0100
0000
0001
0000
,
1100
0001
0101
0000
,
1000
0100
0001
0010
0100
0000
1000
0000
,
1010
0000
0011
0000
,
1000
1000
1000
0000
0001
0001
0001
0000
,
1000
0000
0100
0000
0001
0100
1000
0000
1000
0010
0001
0010
1000
0010
0001
0000
,
1000
0100
0010
0000
0001
0010
0100
0000
1100
0000
0101
0000
1001
0000
0000
0000
;

//---------------dance-single - ----------------
#NOTES:
     dance-single:
     :
     Medium:
     8:
     0.383,0.457,0.141,0.000,0.000:
1000
0100
0001
0000
0001
0100
1000
0000
,
0001
0001
1000
1000
,
1000
0010
0001
0000
0001
0010
1000
0000
,
0010
0010
0100
0100
,
1000
1000
1000
0000
0001
0001
0001
0000
,
1000
0100
0001
0010
,
0010
0010
0010
0000
0100
0100
0100
0000
,
0100
0010
0001
1000
,
1000
1000
1000
0100
,
0001
0001
0001
0100
,
1000
1000
1000
1000
,
0010
0010
0010
0010
,
0001
0001
0001
0001
,
0100
0100
0100
0100
,
1000
0010
0001
0001
,
0001
0010
1000
1000
,
0100
1000
0001
0100
,
0010
1000
0001
0010
,
1000
0100
0001
0100
,
1000
0000
0001
0000
1000
0100
0001
0000
,
1000
0100
0001
1000
,
0001
0010
1000
0001
,
0010
0010
1000
1000
,
1010
1010
0101
0000
,
1000
0000
0100
0000
0001
0100
0000
1000
,
0000
0001
0000
1000
0100
0000
0011
0000
,
1000
0000
0100
0000
0001
0000
0010
0100
,
0000
0100
0000
0100
0000
1000
0001
0000
,
0100
0000
0010
0000
1000
0000
0001
0010
,
0000
0010
0000
0010
0001
1000
0001
0000
,
0100
1000
0001
0100
,
0010
1000
0010
0001
,
1010
0000
0000
0000
0101
0000
0000
0011
,
0000
1000
0100
0001
,
1000
0001
1000
0100
,
0010
0100
0010
0001
,
0100
0000
1000
0000
0011
0000
0000
1010
,
0000
1001
0100
1000
,
0001
0001
0100
0100
,
1000
0000
0001
0000
0100
0100
0100
0100
,
1000
1000
0001
0001
,
0010
1000
0010
1000
0001
0100
0001
0100
,
0001
0010
0001
0000
1000
0100
1000
0000
,
0001
0010
0001
0010
1000
0100
1000
0100
,
1000
0100
0001
1001
0000
0010
0100
1000
,
0100
0001
1000
1001
0000
0010
0100
0000
,
1000
0100
0001
0100
,
1000
0010
0001
0010
,
1000
0001
1000
0001
,
0010
0100
0010
0100
,
0000
0000
1000
0100
1000
0000
0001
0000
,
0100
0001
0101
0000
,
0001
0100
0001
0000
0010
0000
1000
0000
,
0100
1000
1001
0000
,
0010
0000
0100
1000
0100
0000
0001
0000
,
0100
0100
0010
0001
,
1000
0010
0001
1000
,
0100
0001
1000
0001
,
0000
0000
0001
0100
0001
0000
1000
0000
,
1010
0000
0101
0000
,
0100
1000
0001
0100
,
0001
1000
0010
0000
,
0001
0001
0001
0000
1000
1000
1000
0000
,
0100
1000
0001
0010
,
1000
0100
0010
0001
0010
0100
1000
0000
;

//---------------dance-single - ----------------
#NOTES:
     dance-single:
     :
     Easy:
     4:
     0.266,0.486,0.185,0.000,0.000: // measure 1
1000
0000
1000
0000
,  // measure 2
0001
0000
0001
0000
,  // measure 3
0000
0010
0000
0010
,  // measure 4
0000
0100
0000
0100
,  // measure 5
1000
0100
0001
0010
,  // measure 6
1000
0001
1000
0001
,  // measure 7
0001
0100
1000
0010
,  // measure 8
0001
1000
0001
1000
,  // measure 9
1001
0000
0000
0000
,  // measure 10
1001
0000
0000
0000
,  // measure 11
0100
0100
0010
0010
,  // measure 12
1000
1000
0001
0001
,  // measure 13
0110
0000
0000
0000
,  // measure 14
0110
0000
0000
0000
,  // measure 15
1000
1000
0001
0001
,  // measure 16
0100
0001
1000
0000
,  // measure 17
1100
0000
0000
0001
,  // measure 18
0101
0000
0000
0001
,  // measure 19
0010
0100
1000
0000
,  // measure 20
1000
0100
0010
0001
,  // measure 21
0011
0000
0000
1000
,  // measure 22
1010
0000
0000
0000
,  // measure 23
1000
0001
1000
0001
,  // measure 24
0010
0010
0100
0100
,  // measure 25
1000
0100
0001
0000
,  // measure 26
0001
0100
1000
0000
,  // measure 27
1000
0010
0001
0000
,  // measure 28
0001
0010
1000
0000
,  // measure 29
0010
1000
0100
0000
,  // measure 30
0010
0001
0100
0000
,  // measure 31
0100
1000
0010
0000
,  // measure 32
0100
0001
0010
0000
,  // measure 33
1000
1000
1000
0000
,  // measure 34
0001
0001
0001
0000
,  // measure 35
0010
0010
0010
0000
,  // measure 36
0100
0100
0100
0000
,  // measure 37
1000
0000
1000
0000
,  // measure 38
0001
0000
0001
0000
,  // measure 39
0010
0000
0010
0000
,  // measure 40
0100
0000
0100
0000
,  // measure 41
1000
1000
0001
0001
,  // measure 42
0100
0100
0010
0010
,  // measure 43
1100
0000
0101
0000
,  // measure 44
0011
0000
1010
0000
,  // measure 45
1100
1100
0101
0101
,  // measure 46
0011
0011
1010
1010
,  // measure 47
0001
0000
0001
0000
,  // measure 48
1000
1000
1000
0000
,  // measure 49
0100
0000
0100
0000
,  // measure 50
0010
0010
0010
0000
,  // measure 51
1000
0000
1000
0000
,  // measure 52
0001
0001
0001
0000
,  // measure 53
0010
0000
0010
0000
,  // measure 54
0100
0100
0100
0000
,  // measure 55
1000
0001
1000
0001
,  // measure 56
0010
0010
0100
0100
,  // measure 57
0001
1000
0001
1000
,  // measure 58
0100
0100
0010
0010
,  // measure 59
1000
0100
0001
0100
,  // measure 60
1000
0010
0001
0000
,  // measure 61
0010
0010
0100
0100
,  // measure 62
1000
0000
0001
0000
,  // measure 63
0010
0100
0010
0010
,  // measure 64
1000
0100
0001
0100
,  // measure 65
1000
0001
1000
1001
;

//---------------dance-single - ----------------
#NOTES:
     dance-single:
     :
     Beginner:
     2:
     0.154,0.200,0.053,0.000,0.000: // measure 1
1000
0000
0000
0000
,  // measure 2
0001
0000
0000
0000
,  // measure 3
0010
0000
0000
0000
,  // measure 4
0100
0000
0000
0000
,  // measure 5
1001
0000
0000
0000
,  // measure 6
0110
0000
0000
0000
,  // measure 7
1001
0000
0000
0000
,  // measure 8
0110
0000
0000
0000
,  // measure 9
0100
0000
0000
0000
,  // measure 10
0100
0000
0000
0000
,  // measure 11
0010
0000
0000
0000
,  // measure 12
0010
0000
0000
0000
,  // measure 13
1000
0000
0000
0000
,  // measure 14
1000
0000
0000
0000
,  // measure 15
0001
0000
0000
0000
,  // measure 16
0001
0000
0000
0000
,  // measure 17
0100
0000
0100
0000
,  // measure 18
0010
0000
0010
0000
,  // measure 19
1000
0000
1000
0000
,  // measure 20
0001
0000
0001
0000
,  // measure 21
1000
0000
0000
0000
,  // measure 22
0001
0000
0000
0000
,  // measure 23
0010
0000
0000
0000
,  // measure 24
0100
0000
0000
0000
,  // measure 25
1000
1000
1000
0000
,  // measure 26
0001
0001
0001
0000
,  // measure 27
0010
0010
0010
0000
,  // measure 28
0100
0100
0100
0000
,  // measure 29
1000
0000
1000
0000
,  // measure 30
0001
0000
0001
0000
,  // measure 31
0010
0000
0010
0000
,  // measure 32
0100
0000
0100
0000
,  // measure 33
0001
0000
0100
0000
,  // measure 34
0001
0000
0000
0000
,  // measure 35
1000
0000
0100
0000
,  // measure 36
1000
0000
0000
0000
,  // measure 37
0010
0000
0001
0000
,  // measure 38
0010
0000
0000
0000
,  // measure 39
0010
0000
1000
0000
,  // measure 40
0010
0000
0000
0000
,  // measure 41
1000
0000
1000
0000
,  // measure 42
0100
0000
0001
0000
,  // measure 43
0010
0000
0010
0000
,  // measure 44
0001
0000
0100
0000
,  // measure 45
1000
1000
0000
0000
,  // measure 46
0001
0001
0000
0000
,  // measure 47
0100
0100
0100
0000
,  // measure 48
0001
0001
0001
0000
,  // measure 49
0010
0010
0010
0000
,  // measure 50
1000
1000
1000
0000
,  // measure 51
0000
0001
1000
0000
,  // measure 52
0001
0000
1001
0000
,  // measure 53
0100
0000
1000
0000
,  // measure 54
0001
0000
0100
0000
,  // measure 55
0000
0010
0010
0000
,  // measure 56
1000
0001
1000
0000
,  // measure 57
0100
0000
0001
0000
,  // measure 58
1000
0000
0100
0000
,  // measure 59
0000
1000
0001
0000
,  // measure 60
0010
0000
0100
0000
,  // measure 61
0001
0000
1000
0000
,  // measure 62
0100
0000
0001
0000
,  // measure 63
1001
0000
0000
0000
,  // measure 64
1000
0000
0001
0000
,  // measure 65
0010
0010
0100
0100
;
