#TITLE:マサカリブレイド;
#SUBTITLE:;
#ARTIST:REDALiCE;
#TITLETRANSLIT:Masakari braid;
#SUBTITLETRANSLIT:;
#ARTISTTRANSLIT:;
#CREDIT:;
#BANNER:;
#BACKGROUND:;
#LYRICSPATH:;
#CDTITLE:;
#MUSIC:Masakari braid.mp3;
#OFFSET:-5.880;
#SAMPLESTART:22.360;
#SAMPLELENGTH:12.000;
#SELECTABLE:YES;
#BPMS:0.000=194.001;
#STOPS:;
#BGCHANGES:;

//---------------dance-single - ----------------
#NOTES:
     dance-single:
     :
     Hard:
     9:
     0.515,0.664,0.451,0.162,0.000: // measure 1
0000
0000
0000
0000
,  // measure 2
0000
0000
0000
0000
,  // measure 3
0000
0000
0000
0000
,  // measure 4
0000
0000
0000
0000
,  // measure 5
1100
1001
0101
0000
,  // measure 6
2000
0000
0000
0001
0000
0000
3001
0000
,  // measure 7
0002
0000
0000
1000
0000
0000
0003
0000
,  // measure 8
0200
0000
0000
0010
0000
0000
1300
0000
,  // measure 9
0020
0000
0000
1000
0000
0000
0031
0000
,  // measure 10
2000
0000
0000
0100
0000
0000
3001
0000
,  // measure 11
0100
0000
0000
1000
0001
0000
1000
0000
,  // measure 12
0100
1000
0100
0010
0001
0000
1000
0000
,  // measure 13
0100
0000
0000
1000
0001
0000
0100
0000
,  // measure 14
2000
0100
0001
0000
,  // measure 15
0010
0001
0100
3000
,  // measure 16
0002
0000
0100
0000
1000
0000
0010
0010
,  // measure 17
0000
0100
1000
0003
,  // measure 18
0020
0100
1000
0000
,  // measure 19
0001
0001
0001
0030
,  // measure 20
0200
0000
1000
0000
0001
0000
0010
0010
,  // measure 21
0000
0001
0001
0300
,  // measure 22
1100
1000
1000
1000
,  // measure 23
0101
0100
0100
0100
,  // measure 24
1010
0010
0010
0010
,  // measure 25
0011
0001
0001
0001
,  // measure 26
1000
0100
0002
0000
,  // measure 27
0100
1000
0010
0003
,  // measure 28
1000
0000
1000
0000
0100
0000
0001
0010
,  // measure 29
0000
0100
1000
0000
0001
0000
0100
0000
,  // measure 30
2002
0000
0000
3003
,  // measure 31
1100
0000
1001
0000
0101
0010
1000
0000
,  // measure 32
0100
0000
0001
0000
1000
0000
0100
1000
,  // measure 33
0000
0100
0010
0001
0010
0100
0000
1001
,  // measure 34
0000
0100
0100
0000
1000
0100
0000
0010
,  // measure 35
0000
0001
1000
0001
0100
0001
1000
0100
,  // measure 36
0010
0000
0100
1000
0100
0000
1000
0001
,  // measure 37
0010
0001
0000
1000
0000
0001
0100
0001
,  // measure 38
1000
0000
0000
0100
1000
0001
0100
0001
,  // measure 39
0010
1100
0101
0000
,  // measure 40
0101
0000
1100
0000
1001
0100
0001
0010
,  // measure 41
0000
0100
1000
0100
0010
0001
0000
1100
,  // measure 42
0000
0001
0100
0000
0001
1000
0001
0010
,  // measure 43
0000
0100
1000
0100
0010
0001
0000
0100
,  // measure 44
1000
0001
0000
0010
0100
0010
0000
0100
,  // measure 45
1000
0001
0000
0100
0000
0001
1000
0000
,  // measure 46
1100
0000
1001
0000
0101
0000
0010
0100
,  // measure 47
0000
1000
0100
0010
0001
0000
1000
0000
,  // measure 48
2002
0000
0000
0000
,  // measure 49
0000
0000
0000
0000
,  // measure 50
0000
0000
0000
0000
,  // measure 51
0000
0000
0000
3003
,  // measure 52
0100
1000
0020
0000
,  // measure 53
1000
1000
1000
0030
,  // measure 54
0100
0001
2000
0000
,  // measure 55
0001
0001
0001
3000
,  // measure 56
0010
0100
0020
0000
,  // measure 57
0001
0001
0001
0030
,  // measure 58
0001
1000
0002
0000
,  // measure 59
0100
1000
0100
0003
,  // measure 60
1100
1001
0101
1001
,  // measure 61
0011
1001
1010
1001
,  // measure 62
0110
1010
0110
0011
,  // measure 63
0011
0110
1100
0110
,  // measure 64
1000
0100
0002
0000
,  // measure 65
1000
1000
0000
1000
0000
0000
0003
0000
,  // measure 66
0100
0000
0010
0000
1000
0000
1100
1000
,  // measure 67
0000
0100
0010
0001
0000
0000
0000
0000
,  // measure 68
1100
0100
0101
0001
,  // measure 69
0011
0010
1010
1000
,  // measure 70
0001
0100
1000
0010
0001
0010
1000
0100
,  // measure 71
1001
0101
1001
0000
,  // measure 72
1010
0000
1001
0000
0101
0000
1000
0100
,  // measure 73
0010
0100
0010
0100
1000
0001
0100
0010
,  // measure 74
0000
1000
0100
0000
0001
1000
0100
1000
,  // measure 75
0001
0010
0100
0010
0001
1000
0000
0100
,  // measure 76
0100
0100
0000
1000
1000
1000
0000
0001
,  // measure 77
0001
0001
0000
0010
0000
0100
1000
0001
,  // measure 78
0100
0001
1000
0010
0100
1000
0001
0010
,  // measure 79
0010
1100
0101
0000
,  // measure 80
0010
0100
1000
0000
0100
0010
0001
0010
,  // measure 81
0000
0100
1000
0001
0100
0001
1000
0010
,  // measure 82
0000
1000
0100
0000
1000
0001
0100
0001
,  // measure 83
0000
1000
0100
0100
0010
0001
0000
1000
,  // measure 84
0010
0010
0000
1000
0100
0100
0000
0010
,  // measure 85
0001
0001
0000
0010
0000
0001
0000
1000
,  // measure 86
0100
0000
0001
0000
0101
0000
1000
0100
,  // measure 87
0000
0010
0100
0010
0000
0000
1001
0000
;

//---------------dance-single - ----------------
#NOTES:
     dance-single:
     :
     Medium:
     7:
     0.356,0.443,0.281,0.230,0.000:
0000
0000
0000
0000
,
0000
0000
0000
0000
,
0000
0000
0000
0000
,
0000
0000
0000
0000
,
1001
1001
1001
0000
,
2000
0000
0000
0000
,
3200
0000
0000
0000
,
0302
0000
0000
0000
,
0023
0000
0000
0000
,
2030
0000
0000
0000
,
3020
0000
0000
0000
,
0032
0000
0000
0000
,
0203
0000
0000
0000
,
1300
0001
2002
0000
,
0000
0000
0000
3003
,
0010
0100
0110
0000
,
1000
0001
1001
0000
,
1000
0100
2200
0000
,
0000
0000
0000
3300
,
0001
0010
0011
0000
,
1000
0010
1010
0000
,
0101
0000
0101
0000
,
1100
0000
1100
0000
,
0011
0000
0011
0000
,
1010
0000
1010
0000
,
1000
0001
2002
0000
,
0000
0000
0000
3003
,
0100
1000
0001
0100
,
0010
0001
1000
0010
,
2002
0000
0000
0000
,
0000
0000
0000
3003
,
1000
0100
0001
0100
,
1000
0000
0001
0100
1000
0000
0010
0000
,
0100
1000
0001
0100
,
0010
0000
0001
0000
1000
0010
0001
0000
,
1000
1000
0001
0001
,
0010
0000
0100
0000
1000
0001
1000
0000
,
0100
0001
0010
1000
,
0001
0000
1000
0000
0010
0010
0100
0000
,
0010
1000
0100
0001
,
1000
0000
0100
0000
1000
1000
0001
0000
,
0010
0100
0001
1000
,
0001
0000
0010
0000
0100
0010
0100
0000
,
2000
0100
3002
0100
,
1003
1000
0001
0001
,
0020
0000
0000
0000
,
0100
0000
0100
0100
0000
0000
0030
0000
,
2002
0000
0000
0000
,
0000
0000
0000
0000
,
0000
0000
0000
0000
,
0000
0000
0000
3003
,
0010
0010
0020
0000
,
0000
0000
0000
0030
,
1000
1000
2000
0000
,
0000
0000
0000
3000
,
0100
0100
0200
0000
,
0000
0000
0000
0300
,
0001
0001
0002
0000
,
0000
0000
0000
0003
,
1000
1000
1000
1000
,
0001
0001
0001
0001
,
0010
0010
0010
0010
,
0100
0100
0100
0000
,
1100
0000
0101
0000
,
0011
0000
1010
0000
,
1001
0000
0110
0000
,
1001
0000
0110
0000
,
1000
1000
0001
0001
,
0010
0010
0100
0100
,
2000
0001
0001
3001
,
0002
1000
1000
1003
,
0010
0100
0010
0100
,
1000
0001
1000
0001
,
0100
0001
0100
0001
,
1000
0010
1000
0010
,
0001
0010
0001
0010
,
1000
0100
1000
0100
,
1000
0100
0001
0100
,
1000
0000
0001
0000
1000
0001
1000
0000
,
0010
0100
0010
0000
1000
0100
1000
0000
,
0001
0000
0001
0000
0100
0001
0010
0001
,
0000
1000
0001
1000
,
0100
0000
0010
0100
0010
0000
0100
0000
,
1001
0000
1100
0000
,
1001
0000
0101
0000
,
1000
0000
0100
0000
0001
0000
0010
0010
,
0000
1000
0100
0010
0000
0000
1001
0000
;

//---------------dance-single - ----------------
#NOTES:
     dance-single:
     :
     Challenge:
     12:
     0.665,0.664,0.485,0.094,0.030:
0000
0000
0000
0000
,
0000
0000
0000
0000
,
0000
0000
0000
0000
,
0000
0000
0000
0000
,
1010
1001
0011
0000
,
1000
0100
0010
0001
0000
0100
0010
0000
,
0100
1000
0001
0010
0000
0001
1000
0000
,
0010
0100
1000
0001
0000
0100
0001
0000
,
1000
1000
0001
0001
1000
0000
0010
0000
,
0100
0010
0001
0010
0100
0000
1000
0000
,
0001
0100
0001
1000
0100
0000
0001
0000
,
0100
0001
0010
0100
1000
0000
0001
0000
,
0100
1000
0010
0001
1000
0000
0001
0000
,
0100
1000
2002
0000
,
0000
0000
0000
3003
,
0010
0000
0100
0000
1100
0000
0001
0100
,
0000
0001
0010
0001
1000
0000
0001
0000
,
1100
1001
0202
0000
,
0000
0000
0000
0303
,
0010
0100
1000
0100
0010
0000
0001
0010
,
0100
1000
0001
0010
0100
0000
1000
0000
,
0001
0100
1000
0100
0001
0100
1000
0100
,
0001
0100
1000
0100
0001
0100
1000
0000
,
1000
0010
0001
0010
1000
0010
0001
0010
,
1000
0010
0001
0010
1000
0000
0110
0000
,
1000
0100
1000
0100
1000
0100
1000
0100
,
1000
0100
1000
0100
1000
0000
1001
0000
,
0001
0100
0001
0100
0001
0100
0001
0100
,
0001
0100
0001
0100
0001
0000
0010
0000
,
1100
0000
1001
0000
0101
0000
0010
0100
,
0000
1000
0100
0010
0001
0010
0100
1000
,
1001
0000
1100
0000
0101
0001
0010
0001
,
0000
1000
0010
0100
1000
0001
0100
0001
,
0000
0010
0100
1000
0001
0001
0100
0001
,
0000
1000
0100
0010
0100
0010
0000
0001
,
0010
0100
0000
1000
0010
0100
0000
0010
,
1000
0100
1000
0001
0100
0001
0010
0000
,
0100
1000
0001
0100
0010
1000
0100
1000
,
0001
0000
0000
0000
0101
0000
0000
0000
0001
0000
1000
0001
1000
0000
0000
0000
,
0110
1000
0100
0010
0001
0010
0100
1000
,
0001
0100
0010
1000
0100
0100
1000
0001
,
0000
0100
0100
1000
0001
0100
0001
0010
,
0100
1000
0001
0100
0010
0100
0000
1000
,
0100
0100
0000
0001
0100
0100
0000
0001
,
0010
0001
0010
0100
1000
0001
0100
0000
,
1100
0000
0101
0000
1001
0000
0010
1000
,
0000
1000
0100
0010
0001
0000
1010
0000
,
2002
0000
0000
0000
,
0000
0000
0000
0000
,
0000
0000
0000
0000
,
0000
0000
0000
3003
,
0100
1000
0100
1000
0001
0000
0100
0000
,
0100
0010
0100
1000
0001
0000
0100
0000
,
0010
1000
0100
1000
0001
0000
0001
0000
,
0010
0000
0001
0100
0001
0000
0100
0000
2000
0000
0000
0000
3000
0000
0000
0000
,
1000
0000
0100
1000
0100
0000
0010
0000
0002
0000
0000
0000
0003
0000
0000
0000
,
1000
0000
0001
0100
0001
0000
0010
0000
0200
0000
0000
0000
0300
0000
0000
0000
,
1000
0000
0010
0100
0010
0000
1000
0000
0020
0000
0000
0000
0030
0000
0000
0000
,
0001
0000
0010
0100
0010
0000
0100
0000
2000
0000
0000
0000
3000
0000
0000
0000
,
1100
1100
1100
1100
,
0101
0101
0101
0101
,
0011
0011
0011
0011
,
1010
1010
1010
1010
,
0010
1000
0100
1000
0100
0010
0001
0010
,
0100
0010
0001
1000
0100
1000
0001
0010
,
0100
0000
1000
0000
0001
0000
1000
0100
,
0000
0100
0010
0100
0010
0001
1000
0000
,
1100
1001
0101
1001
,
0011
1001
1010
1001
,
1000
0100
0010
0001
0010
0100
1000
0001
,
0010
0100
1000
0100
0010
0000
1001
0000
,
1100
0000
1001
0000
0001
1000
0100
1000
,
0100
0010
0001
0010
0100
1000
0000
0101
,
0000
0010
1000
0100
1000
0100
0010
0001
,
0000
1000
0100
0100
0010
0001
0000
1000
,
0010
0010
0000
1000
0001
0001
0000
0100
,
0001
0010
0100
0010
0100
1000
0001
0000
,
0100
1000
0001
0100
0001
0010
0100
1000
,
1001
0000
0000
0000
0101
0000
0000
0000
0110
0000
0100
0010
0100
0000
0000
0000
,
0100
1000
0100
0010
0001
0010
0100
1000
,
0001
0001
1000
0010
1000
0100
0010
0001
,
0001
1000
0100
1000
0001
0100
0010
1000
,
0100
1000
0001
0100
0001
0010
0000
0100
,
0100
1000
0100
0010
0001
0010
0100
1000
,
0001
0100
0010
1000
0100
1000
0001
0100
,
0001
0000
1001
0000
1001
0000
0100
0100
,
0000
1000
0100
0010
0001
0000
0110
0000
;

//---------------dance-single - ----------------
#NOTES:
     dance-single:
     :
     Easy:
     6:
     0.311,0.664,0.204,0.230,0.000:
0000
0000
0000
0000
,
0000
0000
0000
0000
,
0000
0000
0000
0000
,
0000
0000
0000
0000
,
1000
1000
1000
0000
,
0002
0000
0000
0000
,
0023
0000
0000
0000
,
0230
0000
0000
0000
,
2300
0000
0000
0000
,
3200
0000
0000
0000
,
0320
0000
0000
0000
,
0032
0000
0000
0000
,
0203
0000
0000
0000
,
0320
0000
0000
0000
,
2030
0000
0000
0000
,
3200
0000
0000
0000
,
0302
0000
0000
0000
,
0023
0000
0000
0000
,
2030
0000
0000
0000
,
3200
0000
0000
0000
,
2300
0000
0000
3000
,
0100
0100
0100
0100
,
0010
0010
0010
0010
,
0100
0100
0100
0100
,
0010
0010
0010
0010
,
1000
1000
1000
0000
,
0001
0001
0001
0000
,
1000
1000
1000
1000
,
0001
0001
0001
0001
,
2002
0000
0000
0000
,
0000
0000
0000
3003
,
0100
1000
0100
0000
,
0001
0100
0001
0000
,
1000
0010
1000
0000
,
0001
0010
0001
0000
,
1000
0000
1001
0000
,
0001
0000
1001
0000
,
0010
0000
0110
0000
,
0100
0000
0110
0000
,
1000
1000
1000
0000
,
0001
0001
0001
0000
,
0100
0100
0100
0000
,
0010
0010
0010
0000
,
2000
0000
0001
0000
,
0001
0000
0001
3000
,
0002
0000
1000
0000
,
1000
0000
1000
0003
,
2002
0000
0000
0000
,
0000
0000
0000
0000
,
0000
0000
0000
0000
,
0000
0000
0000
3003
,
0100
1000
0010
0000
,
0100
0001
0010
0000
,
0010
1000
0100
0000
,
0010
0001
0100
0000
,
1000
0100
0010
0000
,
0001
0010
0100
0000
,
0100
0001
0100
1000
,
0010
0001
0010
0100
,
1001
1001
1001
1001
,
0110
0110
0110
0110
,
1001
1001
1001
1001
,
0110
0110
0110
0110
,
1000
0100
0002
0000
,
0100
1000
0010
0003
,
0100
0100
1000
1000
,
0010
0010
0001
0001
,
2000
0000
0000
0000
,
3002
0000
0000
0003
,
2002
0000
0000
0000
,
0000
0000
0000
3003
,
0100
1000
0100
0000
,
0001
0100
0001
0000
,
1000
0010
1000
0000
,
0001
0010
0001
0000
,
0100
1000
0010
0000
,
0010
0001
0100
0000
,
0100
0001
0010
0000
,
0010
1000
0100
0001
,
1000
1000
0001
0001
,
1000
0001
1000
0000
,
0001
0001
1000
1000
,
0001
1000
0001
0000
,
0010
0010
0010
0010
,
0100
0100
0100
0100
,
1000
0100
0001
0100
,
1000
0010
0001
1001
;

//---------------dance-single - ----------------
#NOTES:
     dance-single:
     :
     Beginner:
     2:
     0.162,0.221,0.060,0.102,0.000:
0000
0000
0000
0000
,
0000
0000
0000
0000
,
0000
0000
0000
0000
,
0000
0000
0000
0000
,
0100
0100
0100
0000
,
0020
0000
0000
0000
,
0000
0000
0000
0030
,
0200
0000
0000
0000
,
0000
0000
0000
0300
,
0020
0000
0000
0000
,
0000
0000
0000
0030
,
0200
0000
0000
0000
,
0000
0000
0000
0300
,
1000
1000
2000
0000
,
0000
0000
0000
3000
,
0001
0001
0002
0000
,
0000
0000
0000
0003
,
0010
0010
0020
0000
,
0000
0000
0000
0030
,
0100
0100
0200
0000
,
0000
0000
0000
0300
,
1000
0000
1000
0000
,
0001
0000
0001
0000
,
1000
0000
1000
0000
,
0001
0000
0001
0000
,
0010
0000
0010
0000
,
0100
0000
0100
0000
,
0010
0000
0010
0000
,
0100
0000
0100
0000
,
1001
0000
0000
0000
,
0000
0000
0000
0000
,
0110
0000
0000
0000
,
1001
0000
0000
0000
,
0110
0000
0000
0000
,
1001
0000
0000
0000
,
1000
0000
1000
0000
,
0001
0000
0001
0000
,
1000
0000
1000
0000
,
0001
0000
0001
0000
,
0010
0000
0010
0000
,
0100
0000
0100
0000
,
0010
0000
0010
0000
,
0100
0000
0100
0000
,
1000
0000
0000
0000
,
0100
0000
0000
0000
,
0001
0000
0000
0000
,
0010
0000
0000
0000
,
2002
0000
0000
0000
,
0000
0000
0000
0000
,
0000
0000
0000
0000
,
0000
0000
0000
3003
,
0100
0000
0000
0000
,
0100
0000
0000
0000
,
0010
0000
0000
0000
,
0010
0000
0000
0000
,
1000
0000
0000
0000
,
1000
0000
0000
0000
,
0001
0000
0000
0000
,
0001
0000
0000
0000
,
0010
0010
0010
0000
,
0000
0000
0000
0000
,
0100
0100
0100
0000
,
0000
0000
0000
0000
,
1000
1000
1000
0000
,
0000
0000
0000
0000
,
0001
0001
0001
0000
,
0000
0000
0000
0000
,
1000
0000
0001
0000
,
1000
0000
0001
0000
,
2002
0000
0000
0000
,
0000
0000
0000
3003
,
0000
0000
0100
0000
,
0100
0000
0100
0000
,
0000
0000
0010
0000
,
0010
0000
0010
0000
,
0000
0000
1000
0000
,
1000
0000
1000
0000
,
0000
0000
0001
0000
,
0001
0000
0001
0000
,
1000
0000
1000
0000
,
0001
0000
0001
0000
,
0010
0000
0010
0000
,
0100
0000
0100
0000
,
1000
0000
1000
0000
,
0100
0000
0100
0000
,
0001
0000
0001
0000
,
0010
0000
0010
0000
;
