#TITLE:Last Dance;
#SUBTITLE:(beatnation summit 2015 ver.);
#ARTIST:dj TAKA;
#TITLETRANSLIT:;
#SUBTITLETRANSLIT:;
#ARTISTTRANSLIT:;
#CREDIT:;
#BANNER:Last Dance (beatnation summit 2015 ver.)-bn.png;
#BACKGROUND:Last Dance (beatnation summit 2015 ver.)-bg.png;
#LYRICSPATH:;
#CDTITLE:;
#MUSIC:Last Dance (beatnation summit 2015 ver.).mp3;
#OFFSET:-4.318;
#SAMPLESTART:76.238;
#SAMPLELENGTH:12.180;
#SELECTABLE:YES;
#BPMS:0.000=160.000;
#STOPS:;
#BGCHANGES:;

//---------------dance-single - ----------------
#NOTES:
     dance-single:
     :
     Hard:
     12:
     0.418,0.806,0.058,0.204,0.087: // measure 1
0000
0000
0000
0000
,  // measure 2
0000
0000
0000
0000
,  // measure 3
0000
0000
0000
0000
,  // measure 4
0000
0000
0000
0000
,  // measure 5
0000
0000
0000
0000
,  // measure 6
0000
0000
0000
0000
,  // measure 7
0000
0000
0000
0000
,  // measure 8
0000
0000
0000
0000
,  // measure 9
2000
0000
0000
0000
,  // measure 10
0000
0000
0000
0000
,  // measure 11
3002
0000
0000
0000
,  // measure 12
0000
0000
0000
0000
,  // measure 13
2003
0000
0000
0000
,  // measure 14
3020
0000
0000
0000
,  // measure 15
0230
0000
0000
0000
,  // measure 16
0000
0000
0000
0300
,  // measure 17
1000
0100
0010
0001
,  // measure 18
1000
0100
0001
0010
,  // measure 19
0001
0100
1000
0010
,  // measure 20
0001
0010
0100
1000
,  // measure 21
0100
0010
0100
0010
,  // measure 22
0001
1000
0001
1000
,  // measure 23
1000
0100
0001
0010
,  // measure 24
2002
0000
0000
3003
,  // measure 25
1001
0000
0000
0000
0000
0100
0010
0100
,  // measure 26
1000
0000
0001
0100
0000
0010
0000
1000
,  // measure 27
0001
0000
0100
0000
1000
0000
0100
0010
,  // measure 28
0001
2000
0000
0000
0000
0000
3000
0000
,  // measure 29
0001
0100
0001
0100
0001
0100
0001
0000
,  // measure 30
1000
0100
1000
0100
1000
0100
1000
0000
,  // measure 31
0010
1000
0100
0010
0001
1000
0100
1000
,  // measure 32
0001
0000
0010
0100
1000
0001
1000
0000
,  // measure 33
1000
0100
1000
0000
0001
0000
0010
0000
0100
0000
1000
0000
0001
0000
1000
0000
,  // measure 34
0100
0010
0100
0000
1000
0000
0001
0000
0010
0000
1000
0000
0100
0000
0000
0000
,  // measure 35
0001
0100
0001
0000
1000
0000
0100
0000
0010
0000
0100
0000
1000
0000
0001
0000
,  // measure 36
0010
0100
0010
0000
0100
0000
1000
0000
0001
0000
0100
0000
1000
0000
0000
0000
,  // measure 37
0010
1000
0010
0000
1000
0000
0100
0000
0010
0000
0001
0000
0001
0000
1000
0000
,  // measure 38
0100
0010
0100
0000
1000
0000
0001
0000
0100
0000
0000
0000
0010
0000
0000
0000
,  // measure 39
1000
0100
0010
0100
0010
0001
1000
0001
,  // measure 40
0200
0000
0002
0303
,  // measure 41
0100
1000
0100
0000
0010
0000
0001
0000
0010
0000
0100
0000
1000
0000
0001
0000
,  // measure 42
0010
0100
0010
0000
0001
0000
1000
0000
0010
0000
0100
0000
1000
0000
0000
0000
,  // measure 43
0001
0100
0001
0000
1000
0000
0010
0000
0100
0000
1000
0000
0001
0000
0010
0000
,  // measure 44
0100
0010
0100
0000
1000
0000
0001
0000
0010
0000
0100
0000
1000
0000
0000
0000
,  // measure 45
1000
0101
0001
1010
,  // measure 46
2000
0000
0000
0000
0000
0000
0000
0002
,  // measure 47
0000
0000
0000
3003
,  // measure 48
0100
1000
0100
1000
0100
0000
0001
0000
,  // measure 49
1000
0100
0100
0000
0010
0000
0001
0000
,  // measure 50
0010
0100
1000
0001
1000
0000
0100
0200
,  // measure 51
0000
0000
0000
0000
0000
0000
0001
0002
,  // measure 52
0000
0000
0000
0303
,  // measure 53
0010
1000
0100
0010
0001
1000
0100
1000
,  // measure 54
0001
0000
0100
1000
0010
0100
1000
0001
,  // measure 55
0100
0000
0010
0100
1000
0001
0010
0100
,  // measure 56
2000
0000
0000
3000
,  // measure 57
1000
0100
0010
0000
0001
0100
0001
0000
0100
0010
0100
0000
0010
1000
0010
0000
,  // measure 58
1000
0100
0001
0000
0001
0100
0010
0000
0100
0010
0100
0000
0001
0100
1000
0000
,  // measure 59
2002
0000
0000
0000
3003
0000
0010
0200
,  // measure 60
0000
0020
0000
0000
0000
0000
0330
0000
,  // measure 61
1000
0100
1000
0100
0001
0100
1000
0010
,  // measure 62
0100
1000
0001
0100
1000
0001
0100
0010
,  // measure 63
0100
1000
0001
0010
0100
1000
0001
1000
,  // measure 64
0100
2002
0000
0000
0000
0000
0000
0000
,  // measure 65
3003
0000
0000
0000
;

//---------------dance-single - ----------------
#NOTES:
     dance-single:
     :
     Medium:
     7:
     0.270,0.372,0.174,0.417,0.000:
0000
0000
0000
0000
,
0000
0000
0000
0000
,
0000
0000
0000
0000
,
0000
0000
0000
0000
,
0000
0000
0000
0000
,
0000
0000
0000
0000
,
0000
0000
0000
0000
,
0000
0000
0000
1001
0000
1000
0100
0010
,
0002
0000
0000
0000
,
0000
0000
0000
0000
0003
0000
1000
0100
,
0010
0020
0000
0000
0000
0000
0000
0000
,
0000
0000
0000
0000
0030
1000
0100
0010
,
0002
0000
0000
1003
,
0200
0000
0000
0320
0000
0030
1000
2002
,
0000
0000
0000
0000
,
0000
0000
3003
0000
,
1000
0100
0001
0010
,
0010
0001
0100
1000
,
0000
0100
1000
0010
,
0001
0000
1000
0100
0000
0010
0000
0022
,
0000
0000
0000
0000
,
0000
0000
0000
0033
,
0000
1100
0101
0011
,
2020
0000
0000
3030
,
1001
0000
0000
0000
0000
0100
1000
0100
,
0001
0000
0010
0100
0000
1000
0000
2002
,
0000
0000
0000
0000
3003
0000
0100
0010
,
0100
0020
0000
0000
0000
0000
0030
0000
,
1000
0000
0100
0000
0001
1000
0100
0010
,
0001
0000
1000
0000
0100
0000
0001
2000
,
0000
0000
0000
0000
3000
0000
1000
0002
,
0000
0000
0000
0003
,
0000
1001
0110
0101
,
2020
0000
0000
0000
3030
0000
1000
0200
,
0000
0000
0000
0000
0300
0000
0001
0020
,
0000
0000
0000
0030
,
0000
0000
1000
0000
0100
0000
0010
0200
,
0000
0000
0000
0000
0300
0000
0001
2000
,
0000
0000
0000
0000
3000
0100
0010
0100
,
0000
0000
1001
0000
,
1000
0100
0010
0000
0000
0000
0001
0000
,
2000
0000
0000
0000
3000
0000
0010
0200
,
0000
0000
0000
0000
0300
0000
0001
0200
,
0000
0000
0000
0000
0000
0000
0000
0300
,
0000
1000
0100
0001
,
2002
0000
0000
0000
0000
3003
0000
0220
,
0000
0000
0000
0000
,
0000
0000
0000
0330
,
1000
0100
0001
0100
,
2000
0000
0000
0000
3000
0000
0001
0020
,
0000
0000
0000
0000
0030
0000
0010
0200
,
0000
0000
0000
0300
,
1000
0100
0001
0000
0100
0000
0010
0000
,
2000
0000
0000
0000
0000
3000
0001
0200
,
0000
0000
0300
1000
,
0010
0200
0000
0000
0000
0000
0000
0000
,
0300
0001
1000
0100
,
2002
0000
0000
0000
3003
0000
0010
0002
,
0000
0000
0000
0000
0003
0000
0001
2000
,
0000
0000
0000
0000
,
3000
0001
0100
1000
,
2002
0000
0000
0000
3003
0000
0010
0200
,
0000
0000
0000
0000
0300
0000
1000
0100
,
0010
0002
0000
0000
0000
0000
0000
0000
,
0003
0000
0000
0000
;

//---------------dance-single - ----------------
#NOTES:
     dance-single:
     :
     Easy:
     4:
     0.174,0.248,0.048,0.116,0.000:
0000
0000
0000
0000
,
0000
0000
0000
0000
,
0000
0000
0000
0000
,
0000
0000
0000
0000
,
0000
0000
0000
0000
,
0000
0000
0000
0000
,
0000
0000
0000
0000
,
0000
0000
0000
0000
,
2000
0000
0000
0000
,
0000
0000
0000
0000
,
3002
0000
0000
0000
,
0000
0000
0000
0000
,
0023
0000
0000
0000
,
0000
0000
0000
0000
,
0230
0000
0000
0000
,
0000
0000
0000
0300
,
1000
0000
0000
0000
,
0001
0000
0000
0000
,
1000
0000
0000
0000
,
0001
0000
0000
0000
,
0100
0000
0000
0000
,
0010
0000
0000
0000
,
0100
0000
0000
0000
,
0010
0000
0000
0000
,
1000
0000
0000
0000
,
0100
0000
0000
0000
,
0001
0000
0000
0000
,
0010
0000
0000
0000
,
1000
0100
0000
0000
,
0001
0100
0000
0000
,
1000
0010
0000
0000
,
0001
0010
0000
0000
,
1000
1000
1000
0000
,
0001
0001
0001
0000
,
0010
0010
0010
0000
,
0100
0100
0100
0000
,
1000
0100
0001
0000
,
0001
0010
1000
0000
,
1000
0010
0001
0000
,
0001
0100
1000
0000
,
1000
0100
0010
0000
,
0001
0010
0100
0000
,
0100
1000
0010
0000
,
0100
0001
0010
0000
,
0000
1000
0100
0010
,
0001
0000
0000
0000
,
1001
0000
0000
0000
,
1000
0100
1000
0010
,
0001
0000
0100
1000
,
0001
0000
0000
0100
,
0010
0000
0000
0100
,
2002
0000
0000
3003
,
0010
1000
0100
0001
,
0020
0000
0030
0001
,
0200
0000
0300
1000
,
2002
0000
3003
0000
,
1000
1000
0001
0001
,
0020
0000
0000
0030
,
1000
0100
0001
0100
,
2000
0000
0000
3000
,
0010
0100
1000
0100
,
0001
0000
0100
0001
,
0100
1000
0010
0001
,
1001
0000
0000
0000
,
1001
0000
0000
0000
;

//---------------dance-single - ----------------
#NOTES:
     dance-single:
     :
     Beginner:
     2:
     0.112,0.248,0.116,0.000,0.000:
0000
0000
0000
0000
,
0000
0000
0000
0000
,
0000
0000
0000
0000
,
0000
0000
0000
0000
,
0000
0000
0000
0000
,
0000
0000
0000
0000
,
0000
0000
0000
0000
,
0000
0000
0000
0000
,
1000
0000
0000
0000
,
0000
0000
0000
0000
,
0001
0000
0000
0000
,
0000
0000
0000
0000
,
1000
0000
0000
0000
,
0000
0000
0000
0000
,
0001
0000
0000
0000
,
0000
0000
0000
0000
,
0100
0100
0000
0000
,
0010
0010
0000
0000
,
0100
0100
0000
0000
,
0010
0010
0000
0000
,
1000
1000
0000
0000
,
0001
0001
0000
0000
,
1000
1000
0000
0000
,
0001
0001
0000
0000
,
1001
0000
0000
0000
,
0000
0000
0000
0000
,
0110
0000
0000
0000
,
0000
0000
0000
0000
,
1001
0000
0000
0000
,
0000
0000
0000
0000
,
0110
0000
0000
0000
,
1001
0000
0000
0000
,
0100
0000
0100
0000
,
0010
0000
0010
0000
,
0001
0000
0001
0000
,
1000
0000
1000
0000
,
1001
0000
0000
0000
,
1001
0000
0000
0000
,
0110
0000
0000
0000
,
0110
0000
0000
0000
,
1000
0000
1000
0000
,
0001
0000
0001
0000
,
0100
0000
0100
0000
,
0010
0000
0010
0000
,
1000
1000
1000
0000
,
0001
0001
0001
0000
,
1001
0000
0000
0000
,
0000
0000
0000
0000
,
0100
0000
0000
0000
,
0100
0000
0000
0000
,
0010
0000
0000
0000
,
0010
0000
0000
0000
,
0100
0000
0000
0000
,
0010
0000
0000
0000
,
0100
0000
0000
0000
,
0110
0000
0000
0000
,
0001
0000
0000
0000
,
1000
0000
0000
0000
,
0001
0000
0000
0000
,
1000
0000
0000
0000
,
0001
0000
0000
0000
,
0001
0000
0000
0000
,
1000
0000
0000
0000
,
1000
0000
0000
0000
,
1001
0000
0000
0000
;
