#TITLE:Help me, ERINNNNNN!! -VENUS mix-;
#SUBTITLE:-reiji_suzuki's edit-;
#ARTIST:VENUS modified by reiji_suzuki;
#TITLETRANSLIT:;
#SUBTITLETRANSLIT:;
#ARTISTTRANSLIT:;
#CREDIT:;
#BANNER:;
#BACKGROUND:;
#LYRICSPATH:;
#CDTITLE:;
#MUSIC:Help me, ERINNNNNN!! -VENUS mix- (rs edit).mp3;
#OFFSET:-4.820;
#SAMPLESTART:46.740;
#SAMPLELENGTH:10.500;
#SELECTABLE:YES;
#BPMS:0.000=183.000;
#STOPS:196.000=0.170
,196.500=0.170
,197.000=0.170
,197.500=0.170
;
#BGCHANGES:;

//---------------dance-single - ----------------
#NOTES:
     dance-single:
     :
     Hard:
     11:
     0.555,0.594,0.436,0.126,0.004: // measure 1
0000
0000
0000
0000
,  // measure 2
0000
0000
0000
0000
,  // measure 3
0000
0000
0000
0000
,  // measure 4
0000
0000
0000
0000
,  // measure 5
0000
0000
0000
0000
,  // measure 6
0000
0000
0000
0000
,  // measure 7
0000
0000
0000
0000
,  // measure 8
0000
0000
0000
0000
,  // measure 9
1100
0100
0101
0001
,  // measure 10
0010
0001
0010
0100
0000
1000
0000
0100
,  // measure 11
0010
0001
1000
0000
0100
1000
0001
0200
,  // measure 12
0000
1000
1000
1300
,  // measure 13
0001
0000
1100
0000
1000
0000
0101
1100
,  // measure 14
0000
0010
1000
0100
0000
0010
0001
1000
,  // measure 15
0100
0000
0100
0000
1000
0010
1000
0002
,  // measure 16
0000
0100
0100
0103
,  // measure 17
1000
1010
0001
0011
,  // measure 18
0010
0100
1000
0010
0000
0100
0010
0001
,  // measure 19
0010
0000
0100
0000
0010
1000
0001
0020
,  // measure 20
0000
0001
0001
0031
,  // measure 21
1000
0000
1010
0000
0001
0000
0001
0011
,  // measure 22
0000
1000
0010
1000
0100
0000
1000
0001
,  // measure 23
0010
0000
0000
0000
0100
0000
0000
0000
0001
0000
0000
0010
0000
0000
0100
0000
,  // measure 24
2000
0000
0000
3000
,  // measure 25
0001
1001
1000
1001
,  // measure 26
0010
0000
0100
0010
0100
0000
0110
0000
,  // measure 27
1000
1100
0001
0101
,  // measure 28
1000
0010
0001
0010
1000
0000
0011
0000
,  // measure 29
1000
1001
0001
1001
,  // measure 30
0010
0000
0100
0010
0100
0000
0110
0000
,  // measure 31
1100
0101
0011
1010
,  // measure 32
2002
0000
0000
3003
,  // measure 33
1000
0100
0001
0000
0001
0100
1000
0000
,  // measure 34
1000
0010
0001
0010
1000
0000
1000
0100
,  // measure 35
0001
0000
0001
0100
1000
0010
0001
1000
,  // measure 36
1100
0101
0011
1010
,  // measure 37
0100
0010
0100
0000
0010
0100
0010
0000
,  // measure 38
1000
0010
1000
0010
1000
0000
0001
0010
,  // measure 39
0100
0000
1001
0000
0001
0100
1000
0010
,  // measure 40
0002
0000
0000
0000
1000
0000
1000
0003
,  // measure 41
1000
1100
0001
0101
,  // measure 42
0001
0010
1000
0010
0001
0000
1000
0100
,  // measure 43
0001
0000
0001
0100
1000
0100
0001
1000
,  // measure 44
2000
0000
0100
0000
0100
0000
0100
3000
,  // measure 45
0001
0100
1000
0010
1000
0000
0100
1000
,  // measure 46
0001
0010
0100
1000
0001
0000
0100
1000
,  // measure 47
0001
0000
0001
0000
0001
0000
1000
0100
,  // measure 48
1000
0001
0100
1000
,  // measure 49
2002
0000
0000
3003
,  // measure 50
1010
1100
0101
0011
0100
1000
0100
1000
,  // measure 51
0100
1000
0100
0000
0001
0100
0001
0100
,  // measure 52
0001
0100
0001
0000
0001
0010
1000
0010
,  // measure 53
0001
1000
0010
0000
1100
0000
0101
0000
,  // measure 54
0011
0000
0000
0000
1001
0000
0100
1000
,  // measure 55
0100
0001
0100
1000
0100
0001
0100
1000
,  // measure 56
0100
0001
1000
0000
0010
1000
0100
1000
,  // measure 57
0001
0010
0100
1000
2002
0000
0000
0000
,  // measure 58
0000
3003
1000
1100
,  // measure 59
0001
0000
0101
0000
0001
0010
0100
1000
,  // measure 60
0100
0000
0100
1000
0010
0000
0100
1000
,  // measure 61
0001
0010
0001
0010
0100
0000
1100
0000
,  // measure 62
0001
0000
0101
0000
0010
0100
1000
0000
,  // measure 63
0010
0100
0001
0000
0100
1000
0100
0010
,  // measure 64
0001
0000
0010
0100
1000
0000
0001
1000
,  // measure 65
0010
1000
0100
0010
0002
0000
1000
0000
,  // measure 66
1000
1003
0100
0101
,  // measure 67
1000
0000
1010
0000
0001
0010
0001
0010
,  // measure 68
0001
0000
0010
0100
1000
0000
0001
0100
,  // measure 69
1000
0100
0010
0001
0101
0000
0010
0000
,  // measure 70
1001
0000
1000
0000
0001
1000
0100
0010
,  // measure 71
0001
0000
1000
0100
1000
0100
1000
0001
,  // measure 72
0100
0000
0001
0010
0100
0000
0100
1000
,  // measure 73
0100
0000
0010
0100
1000
0000
0101
0000
,  // measure 74
1100
0101
2002
0000
,  // measure 75
0000
0000
3003
0000
,  // measure 76
0000
0000
0000
0000
0100
1000
0100
0000
,  // measure 77
0001
0100
0001
0000
0001
0010
0001
0000
,  // measure 78
0010
1000
0010
0000
1000
0100
0001
0100
,  // measure 79
1000
0000
1000
0010
0001
0010
1000
0000
,  // measure 80
0001
0010
1000
0010
0001
0000
1000
0100
,  // measure 81
0001
0000
0001
0100
1000
0000
1000
0010
,  // measure 82
0001
0000
0100
0000
1000
0001
0010
0001
,  // measure 83
0010
0000
0100
0000
0100
0100
1000
0001
,  // measure 84
0001
0010
0100
0000
0000
0000
0000
0000
;

//---------------dance-single - ----------------
#NOTES:
     dance-single:
     :
     Medium:
     8:
     0.421,0.487,0.252,0.117,0.000:
0000
0000
0000
0000
,
0000
0000
0000
0000
,
0000
0000
0000
0000
,
0000
0000
0000
0000
,
0000
0000
0000
0000
,
0000
0000
0000
0000
,
0000
0000
0000
0000
,
0000
0000
0000
0000
,
1000
1000
0001
0001
,
1000
0100
0010
0000
0001
0000
0100
0000
,
0010
0000
0100
0000
1000
0100
0010
0002
,
0000
0000
0000
0003
,
1000
1000
0001
0001
,
0010
0000
0010
0000
0100
1000
0100
1000
,
0100
0000
0010
0000
0001
0000
1000
0200
,
0000
0000
0000
0300
,
0001
0100
1000
0100
,
0001
0010
1000
0001
,
0010
0010
1000
0000
0001
0000
1000
0020
,
0000
0000
0000
0030
,
1000
1000
0100
0100
,
0001
0000
0001
0000
0100
1000
0100
0000
,
0001
0010
0100
0001
,
2000
0000
0000
3000
,
0001
0001
1000
1000
,
0100
0000
0010
0100
0010
0000
0110
0000
,
1000
1000
0001
0001
,
0100
0000
0010
0100
0010
0000
0110
0000
,
1000
1000
0001
0001
,
0010
0000
0100
0010
0100
0000
0110
0000
,
1000
0001
1000
0001
,
2002
0000
0000
3003
,
1000
1000
0001
0001
,
0100
1000
0100
1000
0100
0000
0001
0100
,
0001
0010
0001
1000
,
1100
1100
0101
0101
,
0100
0100
0001
0001
,
1000
0010
1000
0010
1000
0000
0001
0010
,
0001
1000
0100
0001
,
2000
0100
0100
3100
,
0001
0001
1000
1000
,
0100
1000
0100
0010
0001
0000
0001
0010
,
0100
1000
0001
0100
,
2000
0010
0010
3010
,
0001
0001
0001
0000
1000
0000
0100
0000
,
0100
0010
0100
0000
0010
0000
0001
0000
,
2000
0001
0001
3001
,
0002
1000
1000
1003
,
2002
0000
0000
3003
,
1000
0100
0001
0010
1000
0000
1000
0000
,
0100
0100
0001
0001
,
0010
0000
0010
0000
1000
0100
1000
0100
,
1000
0100
0101
0101
,
0101
0000
0000
0000
0010
0000
0100
1000
,
0100
0000
0001
0000
0100
0001
0010
0001
,
1000
0000
0100
0000
1000
0000
0001
0010
,
0100
1000
1100
1100
,
1100
0000
0001
0001
,
1000
0000
1000
0000
0100
0010
0100
0000
,
0010
0010
1000
0100
,
0001
0100
1100
1100
,
0101
0000
0101
0000
0010
0100
1000
0000
,
0100
0000
0001
0000
0010
0100
1000
0000
,
0001
0100
0001
1000
,
0010
0100
0001
0100
0010
0000
0010
0000
,
0100
0100
1000
1001
,
0001
0000
1001
0000
0100
0010
0100
0010
,
0100
0000
1000
0001
1000
0000
0100
0000
,
0001
1000
0001
0000
0101
0000
0000
0000
,
1001
0000
0000
0000
1000
0100
1000
0000
,
0001
0001
0100
0000
0010
1000
0100
0010
,
0001
1000
1100
0000
,
0101
0000
0011
0000
,
1010
0000
2020
0000
,
0000
0000
0000
0000
,
0000
3030
1000
1000
,
1000
1000
0001
0001
,
0001
0001
0100
0100
,
0100
0100
0010
0010
,
0010
0000
1000
1000
,
0001
0001
1000
1000
,
0001
0001
0010
0100
,
0010
0100
0110
0000
,
1001
0000
0000
0000
;

//---------------dance-single - ----------------
#NOTES:
     dance-single:
     :
     Easy:
     4:
     0.332,0.419,0.201,0.117,0.000:
0000
0000
0000
0000
,
0000
0000
0000
0000
,
0000
0000
0000
0000
,
0000
0000
0000
0000
,
0000
0000
0000
0000
,
0000
0000
0000
0000
,
0000
0000
0000
0000
,
0000
0000
0000
0000
,
0100
0100
0100
0100
,
0010
0010
0010
0010
,
1000
1000
1000
1000
,
0001
0001
0001
0001
,
1000
0000
1000
0000
,
0001
0001
0001
0000
,
0010
0010
0010
0000
,
0200
0000
0000
0300
,
1000
1000
1000
0000
,
0001
0001
0001
0000
,
1000
0100
0001
0100
,
2000
0000
0000
3000
,
0010
0010
0001
0001
,
0100
0100
1000
1000
,
0020
0030
0002
0003
,
2002
0000
0000
3003
,
1000
1000
0001
0001
,
1000
0001
1000
1001
,
0010
0010
0100
0100
,
0010
0100
0010
0110
,
1000
1000
0100
0100
,
1000
0100
1000
1100
,
0001
0100
0001
0100
,
0202
0000
0000
0303
,
1000
1000
0001
0001
,
0010
0100
1000
0000
,
0100
0100
1000
1000
,
0010
0001
0010
0000
,
0001
0001
0010
0010
,
1000
0100
1000
0000
,
0100
1000
0010
0001
,
2002
0000
0000
3003
,
1000
1000
0001
0001
,
0010
0100
1000
0000
,
0100
0010
0100
0010
,
0001
0100
0010
0000
,
0001
0001
1000
1000
,
0010
0100
1000
0000
,
0002
0000
1000
0000
,
1000
0000
1000
0003
,
0010
0000
0110
0000
,
1000
1000
0001
0001
0100
0000
0100
0000
,
1000
1000
0100
0100
,
0001
0001
0010
1000
,
0010
0001
1001
1001
,
1001
0000
1100
0000
,
0101
0000
0011
0000
,
1010
0000
1000
0100
,
0001
0010
2000
0000
,
0000
3000
0001
0001
,
0001
0001
1000
1000
,
1000
1000
0010
0010
,
0010
0010
0110
0000
,
0110
0000
1000
0100
,
0001
0100
1000
0010
,
0001
0010
1000
0100
,
0001
0010
1001
0000
,
1001
0000
1000
1000
,
0001
0001
0010
0100
,
0010
0100
1000
0100
,
0001
0100
1100
0000
,
0101
0000
0001
0010
,
1000
0010
0001
0100
,
1000
0010
0011
0000
,
1010
0000
1000
1000
,
0001
0001
2002
0000
,
0000
0000
0000
0000
,
0000
3003
0100
0100
,
0100
0000
0010
0010
,
0010
0000
1000
1000
,
1000
0000
0001
0001
,
0001
0000
0100
1000
,
0100
0000
0001
0100
,
0001
0000
1000
0010
,
1000
0000
0001
0010
,
0001
1001
0000
0000
;

//---------------dance-single - ----------------
#NOTES:
     dance-single:
     :
     Beginner:
     2:
     0.177,0.244,0.059,0.067,0.000:
0000
0000
0000
0000
,
0000
0000
0000
0000
,
0000
0000
0000
0000
,
0000
0000
0000
0000
,
0000
0000
0000
0000
,
0000
0000
0000
0000
,
0000
0000
0000
0000
,
0000
0000
0000
0000
,
1000
0000
0000
0000
,
1000
0000
0000
0000
,
0001
0000
0000
0000
,
0001
0000
0000
0000
,
0100
0000
0000
0000
,
0100
0000
0000
0000
,
0010
0000
0000
0000
,
0010
0000
0000
0000
,
2000
0000
0000
0000
,
3000
0000
0000
0000
,
0002
0000
0000
0000
,
0003
0000
0000
0000
,
0020
0000
0000
0000
,
0030
0000
0000
0000
,
0200
0000
0000
0000
,
0300
0000
0000
0000
,
1000
1000
1000
0000
,
0001
0001
0001
0000
,
0010
0010
0010
0000
,
0100
0100
0100
0000
,
0001
0001
0001
0000
,
1000
1000
1000
0000
,
0100
0100
0100
0000
,
0020
0000
0000
0030
,
1000
0000
1000
0000
,
0001
0001
0001
0000
,
0010
0000
0010
0000
,
0100
0100
0100
0000
,
0001
0000
0001
0000
,
1000
1000
1000
0000
,
0100
0000
0100
0000
,
0010
0010
0010
0000
,
1000
0000
0001
0000
,
1000
0000
0001
0000
,
0100
0000
0010
0000
,
0100
0000
0010
0000
,
0001
0000
1000
0000
,
0001
0000
1000
0000
,
0100
0000
0010
0000
,
0100
0000
0010
0000
,
0110
0000
0000
0000
,
1000
0010
0001
0000
,
0001
0000
1000
0000
,
1000
0000
0001
0000
,
1000
0000
0100
0000
,
0010
0000
1001
0000
,
0000
0000
1001
0000
,
0000
0000
0110
0000
,
0000
0000
0110
0000
,
0000
0000
1000
0000
,
1000
0000
0001
0000
,
0001
0000
0100
0000
,
0100
0000
0010
0000
,
0010
0000
1000
0000
,
0100
0000
0001
0000
,
0100
0000
1000
0000
,
0010
0000
0002
0000
,
0000
0003
1000
0000
,
1000
0000
0001
0000
,
0001
0000
1000
0000
,
0001
0000
1000
0000
,
0001
0000
0100
0000
,
0100
0000
0010
0000
,
0010
0000
0100
0000
,
0010
0000
0100
0000
,
0010
0000
0220
0000
,
0000
0000
0330
0000
,
0000
0000
1000
0000
,
1000
0000
1000
0000
,
1000
0000
0001
0000
,
0001
0000
0001
0000
,
0001
0000
0010
0000
,
0010
0000
0010
0000
,
0010
0000
0100
0000
,
0100
0000
0100
0000
,
0000
1001
0000
0000
;

//---------------dance-single - ----------------
#NOTES:
     dance-single:
     :
     Challenge:
     12:
     0.698,0.698,1.000,0.134,0.004: // measure 1
0000
0000
0000
0000
,  // measure 2
0000
0000
0000
0000
,  // measure 3
0000
0000
0000
0000
,  // measure 4
0000
0000
0000
0000
,  // measure 5
1001
0000
0100
1000
0100
1000
0100
0001
,  // measure 6
0100
1000
0001
0100
,  // measure 7
0010
0000
1000
0100
0010
0001
0010
0100
,  // measure 8
2002
0000
0000
3003
,  // measure 9
1100
1001
0101
1001
,  // measure 10
0010
0100
1000
0100
0010
0001
0010
0000
,  // measure 11
0100
1000
0001
0010
0100
1000
0001
0002
,  // measure 12
0000
0000
1000
0000
1000
1000
1003
0000
,  // measure 13
0010
0000
0100
0000
1000
0100
0010
0100
,  // measure 14
0000
0001
0010
0100
1000
0001
0100
0010
,  // measure 15
1000
0000
1100
0000
0101
0000
0010
0001
,  // measure 16
0000
1000
0010
1000
0100
0010
0001
0000
,  // measure 17
1100
1001
0101
1001
,  // measure 18
0001
0010
0100
1000
0100
0010
0001
1000
,  // measure 19
0100
1000
0001
0100
0010
1000
0100
0020
,  // measure 20
0000
0000
0000
0000
0001
0001
0031
0000
,  // measure 21
1100
0000
1001
0000
0101
0000
0001
0101
,  // measure 22
0000
1000
0100
0010
0001
0010
0100
1000
,  // measure 23
0001
0000
0000
0000
1001
0000
0000
0000
1100
0000
0000
0100
0000
0000
0010
0000
,  // measure 24
0022
0000
0000
0033
,  // measure 25
1100
1001
0101
1001
,  // measure 26
1100
0000
0101
0101
0101
0000
1001
0000
,  // measure 27
1010
1001
0011
1001
,  // measure 28
1010
0000
1100
1100
1100
0000
1001
0000
,  // measure 29
0101
1001
1100
1010
,  // measure 30
1001
0000
0011
0011
0011
0000
0011
0000
,  // measure 31
1010
1001
0101
1001
,  // measure 32
2020
0000
0000
3030
,  // measure 33
1000
0100
0010
0100
0010
0100
1000
0100
,  // measure 34
0010
0100
1000
0001
0010
0000
0001
0010
,  // measure 35
0100
1000
0100
1000
0100
0010
0001
1000
,  // measure 36
1100
0101
1100
0101
,  // measure 37
0010
0100
1000
0100
0010
0001
0010
0100
,  // measure 38
1000
0001
1000
0001
0101
0000
1000
0010
,  // measure 39
1000
0010
1000
0001
0100
0001
0010
0100
,  // measure 40
1100
0000
0101
0101
0101
0000
1001
0000
,  // measure 41
1010
1001
0011
1001
,  // measure 42
0100
1000
0001
0010
0001
0000
1000
0100
,  // measure 43
1000
0000
0001
0001
0100
0010
1000
0100
,  // measure 44
1100
1001
0101
1001
,  // measure 45
0010
0100
1000
0100
0010
0001
0010
0100
,  // measure 46
1000
0001
0001
1000
0001
0000
0010
0100
,  // measure 47
1000
0100
1000
0001
0100
0001
1000
0100
,  // measure 48
0010
1100
0101
0011
,  // measure 49
2002
0000
0000
3003
,  // measure 50
1100
1001
0101
1001
0110
0000
1010
0000
,  // measure 51
1100
0000
0101
0000
0001
0010
0100
1000
,  // measure 52
0010
0001
1000
0000
1100
0000
0001
0100
,  // measure 53
0001
0010
0100
1000
0001
0000
1100
0000
,  // measure 54
0101
1100
2002
3003
,  // measure 55
0100
1000
0100
1000
0001
0100
0001
0010
,  // measure 56
0100
0000
1000
0100
1000
0100
1000
0001
,  // measure 57
0100
0001
0010
0100
2002
0000
0000
0000
,  // measure 58
0000
3003
1100
1001
,  // measure 59
0101
0000
1001
0000
0001
0010
0100
1000
,  // measure 60
0100
0000
0010
0001
0010
0100
1000
0001
,  // measure 61
0100
0010
1000
0001
1010
0000
1001
0000
,  // measure 62
0011
0000
1001
0000
0010
0100
1000
0100
,  // measure 63
1000
0001
0100
0001
0010
0001
0010
0100
,  // measure 64
1000
0000
0100
1000
0100
0010
0001
0010
,  // measure 65
0100
1000
0001
0100
1001
0000
1100
1100
,  // measure 66
1001
0101
1010
1001
,  // measure 67
0101
0000
1001
0000
0010
0100
1000
0001
,  // measure 68
1000
0000
0001
1000
0100
1000
0001
0100
,  // measure 69
0001
0010
0100
1000
1100
0000
1001
0000
,  // measure 70
0101
0000
1001
0000
0010
0100
1000
0001
,  // measure 71
1000
0001
0100
0010
0100
1000
0001
1000
,  // measure 72
0100
0000
1000
0001
1001
0000
1000
0000
,  // measure 73
1001
0000
0010
0100
1100
0000
0011
0000
,  // measure 74
0110
1001
2002
0000
,  // measure 75
0000
0000
0000
0000
,  // measure 76
0000
0000
3003
0000
0100
0100
1000
0100
,  // measure 77
1000
0100
1000
0000
0001
1000
0001
1000
,  // measure 78
0001
0100
0101
0000
0001
0010
0001
0010
,  // measure 79
0001
1000
0010
0000
1010
0000
1001
1001
,  // measure 80
1001
0000
1000
0000
0100
1000
0100
0010
,  // measure 81
0001
0010
0100
0000
1000
0001
1000
0001
,  // measure 82
0100
0001
1000
0000
0010
0100
1000
0100
,  // measure 83
1000
0001
0100
0001
0010
0100
1000
0001
,  // measure 84
0100
0001
1001
0000
0000
0000
0000
0000
;
