#TITLE:月光乱舞;
#SUBTITLE:;
#ARTIST:P*Light;
#TITLETRANSLIT:GEKKOU RANBU;
#SUBTITLETRANSLIT:;
#ARTISTTRANSLIT:;
#CREDIT:;
#BANNER:;
#BACKGROUND:;
#LYRICSPATH:;
#CDTITLE:;
#MUSIC:GEKKOU RANBU.mp3;
#OFFSET:-0.760;
#SAMPLESTART:18.240;
#SAMPLELENGTH:12.000;
#SELECTABLE:YES;
#BPMS:0.000=186.000,204.000=93.000,224.000=186.000;
#STOPS:;
#BGCHANGES:;

//---------------dance-single - ----------------
#NOTES:
     dance-single:
     :
     Hard:
     13:
     0.708,0.912,0.447,0.324,0.219: // measure 1
0000
0000
0000
0000
1000
0100
0010
0001
,  // measure 2
0220
0330
0000
1001
0001
0010
0100
1000
,  // measure 3
2002
3003
0000
0110
0010
1000
0100
0001
,  // measure 4
2200
0000
3300
0000
0000
0000
0202
0000
0303
0000
0000
0000
0022
0033
0000
0000
,  // measure 5
2020
3030
0000
1001
1000
1000
0001
0001
,  // measure 6
1000
2000
0000
0000
3001
0002
0000
0000
,  // measure 7
0013
0020
0000
0000
0130
0200
0000
0300
,  // measure 8
1000
0100
0010
0001
0010
0100
1000
0001
,  // measure 9
2002
0000
0000
3003
,  // measure 10
1000
0000
0000
1000
0000
0000
0100
0000
0010
0000
0001
0000
0010
0000
0100
0000
,  // measure 11
1000
0000
0000
0001
0000
0000
0001
0000
1000
0000
0000
0000
1001
0000
0000
0000
,  // measure 12
1000
0000
0000
0100
0000
0000
1100
0000
0100
0000
0000
0010
0000
0000
0100
0000
,  // measure 13
0110
0000
0000
0010
0000
0000
0001
0000
1000
0000
0100
0000
0001
0000
0100
0000
,  // measure 14
1100
0000
0000
0100
0000
0000
1000
0000
0100
0000
0010
0000
0100
0000
0100
0000
,  // measure 15
0001
0000
0000
0100
0000
0000
0001
0000
1000
0000
0100
0000
0001
0000
0100
0000
,  // measure 16
0001
1000
0100
1000
0100
0010
0001
0010
,  // measure 17
0000
0000
1100
0000
0000
0101
0000
0000
0011
0000
0000
0000
1010
0000
0000
0000
,  // measure 18
0001
0001
0100
0100
1000
1000
0010
0010
,  // measure 19
2000
0000
3002
0000
,  // measure 20
1003
1000
0100
0100
0010
0010
0001
0001
,  // measure 21
2000
0000
3002
0000
,  // measure 22
0103
0100
0001
0001
0010
0010
1000
1000
,  // measure 23
0020
0000
0230
0000
,  // measure 24
0310
0010
0100
0100
0010
0010
0100
0100
,  // measure 25
0000
0000
1001
0000
0000
0110
0000
0000
1001
0000
1001
0000
1001
0000
0000
0000
,  // measure 26
1000
0100
1000
0100
1000
0001
0110
0000
,  // measure 27
0100
1000
0001
0100
0001
0010
1001
0000
,  // measure 28
0001
0010
0001
1000
0100
1000
0011
0000
,  // measure 29
0100
0001
1000
0010
1000
0001
1010
0000
,  // measure 30
0001
0001
1000
0000
1000
1000
0100
0000
,  // measure 31
0100
0100
0010
0000
0010
0010
0001
0000
,  // measure 32
1000
0100
0000
0000
0001
0100
0000
0000
,  // measure 33
1000
0100
0001
0100
1000
0010
0001
0010
,  // measure 34
2002
0000
0000
3003
,  // measure 35
1000
0100
0010
0001
2002
0000
3003
0000
,  // measure 36
1000
1000
1000
0000
0001
0001
0001
0000
,  // measure 37
0010
0100
0010
0100
0100
0000
1000
0100
,  // measure 38
0010
0000
0000
0001
0010
0000
0100
0000
,  // measure 39
1000
0001
0100
0001
0010
0100
1000
0000
,  // measure 40
0100
1000
0001
0100
0001
0010
0100
0100
,  // measure 41
1000
0001
0100
0010
1000
0000
0001
0001
,  // measure 42
1000
0000
0000
1000
0100
0000
0010
0000
,  // measure 43
1100
1100
1100
0000
0101
0101
0101
0000
,  // measure 44
1000
0000
0000
0001
0000
0000
1000
0000
0000
0000
0100
0000
0010
0000
1000
0000
,  // measure 45
0001
0000
0000
1000
0000
0000
0001
0000
0000
0000
0010
0000
0100
0000
0001
0000
,  // measure 46
1000
0000
0000
0100
0000
0000
0010
0000
0000
0000
0001
0000
0010
0000
0010
0000
,  // measure 47
0001
0000
0000
0010
0000
0000
0100
0000
0000
0000
0100
0000
1000
0000
0100
0000
,  // measure 48
1000
0000
0000
0010
0000
0000
0001
0000
0100
0000
0000
0001
0000
0000
0010
0000
,  // measure 49
1000
0000
0000
0100
0000
0000
0001
0000
0010
0000
0000
1000
0000
0000
0010
0000
,  // measure 50
0001
0000
0000
0100
0000
0000
0100
0000
1000
0000
0000
1000
0000
0000
1000
0000
,  // measure 51
0010
0000
0001
0000
0010
0000
1000
0000
0001
0100
0001
0100
0001
0000
0000
0000
,  // measure 52
2002
0000
0000
0000
0000
0000
0000
0000
3003
0000
0000
0000
1000
0100
0010
0001
,  // measure 53
1001
0000
0000
0000
0001
0010
0100
1000
1001
0000
0000
0000
1000
0100
0010
0100
,  // measure 54
0010
0100
1000
0001
0100
0001
0010
0100
1000
0000
0000
0000
0001
0100
1000
0010
,  // measure 55
0001
0000
0000
0000
1000
0100
0001
0010
1000
0000
0000
0000
0001
1000
0100
0010
,  // measure 56
0001
0010
0001
0010
0100
1000
0100
1000
2002
0000
0000
0000
0000
0000
3003
0000
,  // measure 57
0100
1000
0001
1000
,  // measure 58
0010
0100
1000
0001
,  // measure 59
0100
0100
0010
0010
,  // measure 60
0001
0001
1000
1000
,  // measure 61
0200
0000
0000
0000
0001
0000
0001
0300
,  // measure 62
0002
0000
0000
0000
0010
0000
0010
0003
,  // measure 63
2000
0000
0000
0000
0100
3000
0100
0000
,  // measure 64
2002
0000
0000
3003
,  // measure 65
1000
0100
0010
0001
0010
0100
1000
0000
,  // measure 66
0001
0010
0100
1000
0001
0010
0001
0000
,  // measure 67
0100
1000
0001
0010
0100
0010
0100
1000
,  // measure 68
0010
0100
0010
1000
0001
0010
0001
0000
,  // measure 69
1000
1000
0001
0001
0010
0010
0100
0000
,  // measure 70
1000
1000
0100
0100
0001
0001
0010
0000
,  // measure 71
0001
1000
0100
1000
0001
0010
0100
1000
,  // measure 72
0000
0000
0110
0000
0000
1001
0000
0000
1100
0000
1001
0000
0101
0000
0000
0000
,  // measure 73
1000
0000
0000
0100
0000
0000
0100
0000
0000
0000
0001
0000
1000
0000
0100
0000
,  // measure 74
0001
0000
0000
0010
0000
0000
0010
0000
0000
0000
1000
0000
0001
0000
0010
0000
,  // measure 75
0100
0000
0000
0100
0000
0000
0001
0000
0000
0001
0000
0000
0010
0000
0010
0000
,  // measure 76
1000
0000
0000
1000
0000
0000
0010
0000
0000
0010
0000
0000
0001
0000
0001
0000
,  // measure 77
1000
0100
0001
0100
1000
0010
0001
0010
,  // measure 78
1000
0001
1000
0100
0010
0001
1000
0100
,  // measure 79
0001
0001
1000
1000
0100
0100
0010
0010
,  // measure 80
1100
0000
0000
0101
0000
0000
0011
0000
0000
1010
0000
0000
0110
0000
0000
0000
,  // measure 81
1001
0000
0000
0000
;

//---------------dance-single - ----------------
#NOTES:
     dance-single:
     :
     Medium:
     8:
     0.368,0.526,0.123,0.105,0.000:
0000
0000
0000
0000
,
1001
0000
0000
0100
0000
0000
0000
0000
,
0011
0000
0000
1000
0000
0000
0000
0000
,
1100
0000
0000
0001
0000
0000
0010
0000
,
0101
0000
0000
1000
0000
0000
0000
0000
,
2002
0000
0000
0000
,
0000
0000
0000
0000
,
0000
0000
0000
3003
,
1000
0100
0001
0100
,
1000
0000
0001
0000
1000
1000
0100
0000
,
0001
0000
0100
0000
0010
0010
0001
0000
,
1000
0001
0100
0010
,
0001
0000
1000
0000
0100
1000
0001
0000
,
0010
0000
0001
0000
1000
0001
0010
0000
,
0001
0000
1000
0000
0100
1000
0001
0000
,
0010
0000
0100
0000
1000
0001
0001
0000
,
0000
0000
0000
0000
,
0100
1000
0100
0100
,
0001
1000
0001
0001
,
0010
1000
0010
0010
,
0001
0010
1000
1000
,
0100
1000
0001
0100
,
0001
0010
0100
1000
,
0001
0001
0001
0000
1000
1000
1000
0000
,
0000
0000
0000
0000
,
0200
0000
0000
0000
,
0302
0000
0000
0000
,
0023
0000
0000
0000
,
2030
0000
0000
0000
0000
0000
0000
3000
,
0100
0000
0100
0000
,
0001
0000
0001
0000
,
0010
0000
0010
0000
,
1000
0000
1000
0000
,
2002
0000
0000
0000
,
0000
0000
0000
3003
,
1000
1000
0001
0001
,
1000
0000
0001
0000
1000
0000
0010
0100
,
0010
0000
0000
0100
0010
0000
0100
0000
,
0010
1000
0100
0001
,
0000
1000
0001
0100
,
0010
0000
0001
0000
1000
0000
0001
1000
,
0001
0000
0000
1000
0001
0000
0010
0000
,
1000
0000
0001
0000
0100
0100
0100
0000
,
1000
0000
0001
0000
0100
0000
1000
0001
,
0010
0000
0001
0000
1000
0000
0001
0100
,
0001
0000
1000
0000
0010
0000
0100
0010
,
0100
1000
0001
0100
,
1000
0000
0000
0001
0000
0000
0100
0000
,
0010
0000
0000
0100
0000
0000
1000
0000
,
0001
0000
0001
0000
,
1000
0000
0001
0000
1000
0100
0010
0000
,
1001
0000
0000
0000
,
1010
0000
0101
0000
,
0011
0000
1100
0000
,
1001
0001
1001
1000
,
0001
0100
0010
1000
0001
1000
0100
0001
,
2000
0000
0000
0000
,
3002
0000
0000
0000
,
0023
0000
0000
0000
,
0230
0000
0000
0000
,
1300
1000
0001
0001
,
0010
0010
0100
0100
,
1000
0100
1000
0100
1000
0100
1000
0100
,
0001
0000
0000
0000
,
1000
0000
0001
0000
0100
0100
0100
0000
,
1000
0000
0001
0000
0010
0010
0010
0000
,
0100
0000
0010
0000
1000
1000
1000
0000
,
0010
0000
0100
0000
0001
0001
0001
0000
,
1000
0000
0100
0000
0001
0100
1000
0000
,
1000
0000
0001
0000
1000
0010
0001
0000
,
1000
0000
0100
0000
0001
0010
0001
0000
,
0000
0000
0000
0000
,
1000
1000
0001
0001
,
0010
0000
0010
0000
0100
0100
0100
0000
,
0010
0100
0001
1000
,
0100
0000
0010
0000
1000
1000
1000
0000
,
0001
0100
1000
0001
,
0010
0000
0100
0000
1000
1000
1000
0000
,
0001
0100
1000
0000
1000
0100
0001
0000
,
1000
0010
0001
0001
,
1001
0000
0000
0000
;

//---------------dance-single - ----------------
#NOTES:
     dance-single:
     :
     Easy:
     4:
     0.278,0.351,0.114,0.114,0.000:
0000
0000
0000
0000
,
1100
0000
0000
0000
,
1100
0000
0000
0000
,
0101
0000
0000
0000
,
0101
0000
0000
0000
,
0011
0000
0000
0000
,
0011
0000
0000
0000
,
1010
0000
0000
0000
,
1010
0000
0000
0000
,
1000
1000
1000
0000
,
0001
0001
0001
0000
,
0010
0010
0010
0000
,
0100
0100
0100
0000
,
1000
0100
0001
0000
,
0001
0100
1000
0000
,
1000
0010
0001
0000
,
0001
0010
1000
0000
,
1000
0000
1000
0000
,
0001
0000
0001
0000
,
0100
0000
0100
0000
,
0010
0000
0010
0000
,
2000
0000
0000
3000
,
0002
0000
0000
0003
,
0020
0000
0000
0030
,
0200
0000
0000
0300
,
1000
1000
1000
1000
,
0001
0001
0001
0001
,
0100
0100
0100
0100
,
0010
0010
0010
0010
,
1000
0000
0100
0000
,
0001
0000
0100
0000
,
1000
0000
0010
0000
,
0001
0000
0010
0000
,
2000
0000
0000
0000
,
0000
0000
3000
0000
,
0001
0001
1000
0000
,
1000
1000
0001
0000
,
0010
0010
0100
0000
,
0100
0100
0010
0000
,
1000
0100
0010
0000
,
0001
0010
0100
0000
,
1000
0000
0001
0000
,
1001
0000
1001
0000
,
0010
0010
0100
0100
,
0010
0010
0100
0100
,
1000
1000
0001
0001
,
1000
1000
0001
0001
,
0100
0010
0100
0010
,
1000
0001
1000
0001
,
0001
1000
0010
1000
,
0100
0010
0001
0010
,
0001
0000
0000
1000
,
0001
0000
0000
0001
,
1000
0000
0000
0100
,
0010
0000
0000
0010
,
0100
0000
1001
0000
,
1000
1000
1000
0000
,
0001
0001
0001
0000
,
0100
0100
0100
0000
,
0010
0010
0010
0000
,
2000
3000
0002
0003
,
0020
0030
0200
0300
,
2002
0000
0000
0000
,
3003
0000
0000
0000
,
1000
1000
0001
0001
,
1000
0000
0001
0000
,
0010
0010
0100
0100
,
0010
0000
0100
0000
,
1000
0100
0001
0000
,
0001
0100
1000
0000
,
1000
0010
0001
0000
,
0000
0000
0000
0000
,
0001
0010
1000
0000
,
1000
0010
0001
0000
,
1000
1000
0010
0010
,
0001
0001
0100
0100
,
1000
0000
1000
0000
,
0001
0000
0001
0000
,
2000
0001
3001
0000
,
0002
1000
1003
0000
,
1001
0000
0000
0000
;

//---------------dance-single - ----------------
#NOTES:
     dance-single:
     :
     Beginner:
     3:
     0.140,0.281,0.044,0.088,0.000:
0000
0000
0000
0000
,
1000
0000
0000
0000
,
1000
0000
0000
0000
,
0001
0000
0000
0000
,
0001
0000
0000
0000
,
0010
0000
0000
0000
,
0010
0000
0000
0000
,
0100
0000
0000
0000
,
0100
0000
0000
0000
,
1000
0000
1000
0000
,
0001
0000
0001
0000
,
1000
0000
1000
0000
,
0001
0000
0001
0000
,
0010
0000
0010
0000
,
0100
0000
0100
0000
,
0010
0000
0010
0000
,
0000
0000
0000
0100
,
0000
0000
0100
0000
,
0010
0000
0010
0000
,
2000
0000
0000
3000
,
0002
0000
0000
0003
,
0020
0000
0000
0030
,
0200
0000
0000
0300
,
2002
0000
0000
0000
,
3003
0000
0000
0000
,
1000
0000
0000
0000
,
1000
0000
0000
0000
,
0001
0000
0000
0000
,
0001
0000
0000
0000
,
0010
0000
0000
0000
,
0010
0000
0000
0000
,
0100
0000
0000
0000
,
0100
0000
0000
0000
,
0020
0000
0000
0000
,
0000
0000
0030
0000
,
1000
0000
0000
0000
,
1000
0000
0000
0000
,
0001
0000
0000
0000
,
0001
0000
0000
0000
,
0010
0000
0000
0000
,
0010
0000
0000
0000
,
0100
0000
0000
0000
,
0100
0000
0000
0000
,
1000
0000
1000
0000
,
0001
0000
0001
0000
,
0001
0000
0001
0000
,
1000
0000
1000
0000
,
0100
0000
0000
0000
,
0010
0000
0000
0000
,
0100
0000
0000
0000
,
0010
0000
0000
0000
,
2002
0000
0000
3003
,
1000
0000
0001
0000
,
1000
0000
1000
0000
,
0001
0000
1000
0000
,
0001
0000
0001
0000
,
1000
0000
0000
0000
,
1000
0000
0000
0000
,
0001
0000
0000
0000
,
0001
0000
0000
0000
,
0010
0000
0000
0000
,
0010
0000
0000
0000
,
0200
0000
0000
0000
,
0000
0000
0000
0300
,
1000
0000
0000
0000
,
1000
0000
0000
0000
,
0100
0000
0000
0000
,
0100
0000
0000
0000
,
0001
0000
0000
0000
,
0001
0000
0000
0000
,
0010
0000
0000
0000
,
0010
0000
0000
0000
,
1001
0000
0000
0000
,
0000
0000
0000
0000
,
0110
0000
0000
0000
,
0000
0000
0000
0000
,
1000
0000
0001
0000
,
1000
0000
0001
0000
,
0010
0010
0010
0000
,
0100
0100
0100
0000
,
1001
0000
0000
0000
;
