#TITLE:Firestorm;
#SUBTITLE:;
#ARTIST:ETIA.;
#TITLETRANSLIT:;
#SUBTITLETRANSLIT:;
#ARTISTTRANSLIT:;
#CREDIT:;
#BANNER:;
#BACKGROUND:;
#LYRICSPATH:;
#CDTITLE:;
#MUSIC:Firestorm.mp3;
#OFFSET:-6.077;
#SAMPLESTART:23.400;
#SAMPLELENGTH:12.000;
#SELECTABLE:YES;
#BPMS:0.000=177.000;
#STOPS:;
#BGCHANGES:;

//---------------dance-single - ----------------
#NOTES:
     dance-single:
     :
     Challenge:
     14:
     0.824,1.000,1.000,1.000,0.355:
0100
0000
0000
1000
0000
0000
0100
0000
0001
0000
0000
0100
0000
0000
1000
0000
,
0100
1000
0010
0001
1000
0100
0010
0000
,
0001
0000
0000
0100
0000
0000
1000
0000
0001
0000
0000
0010
0000
0000
1000
0000
,
2002
3003
0220
0330
,
1001
0000
0000
0100
0000
0000
1000
0000
0001
0000
0000
0100
0000
0000
0100
0000
,
1000
0000
0000
0010
0000
0000
0010
0000
0001
0000
0001
0000
1000
0000
1000
0000
,
0001
0000
0000
0010
0000
0000
0100
0000
1000
0000
0000
0001
0000
0000
1000
0000
,
0100
0000
0000
0100
0000
0000
0001
0000
1000
0000
0000
0000
0110
0000
0000
0000
,
1100
0000
0000
1001
0000
0000
0101
0000
1001
0000
0000
0011
0000
0000
0110
0000
,
1001
0000
0000
0110
0000
0000
1100
0000
1001
0000
0000
0000
0101
0000
0000
0000
,
0110
0000
0000
1100
0000
0000
1001
0000
0101
0000
0000
0110
0000
0000
1100
0000
,
2020
3030
0202
0303
,
2000
3200
0302
0203
,
2300
3020
0032
0023
,
2030
0000
0000
0000
3200
0000
0000
0000
0302
0000
0000
0000
2003
3000
0000
0000
,
2020
3030
0000
0000
0202
0303
0000
0000
0022
0033
0000
0000
2200
3300
0000
0000
,
0002
0203
0320
2030
,
3002
2003
3020
0230
,
2300
3200
0302
0203
,
2300
0000
0000
0000
3020
0000
0000
0000
0032
0003
0000
0000
1001
0000
1001
0000
,
1001
0000
0100
1000
0001
1000
0100
0000
,
0010
0100
1000
0001
0100
0000
0100
0001
,
1000
0001
0100
0000
0010
0100
1000
0000
,
1000
0100
0010
0001
0010
0100
1000
0000
,
2010
3000
0000
0020
0030
0000
2000
3000
0202
0303
0000
0200
0300
0000
0002
0003
,
2200
3300
0000
0200
0300
0000
2000
3000
0022
0033
0000
0000
0220
0330
0000
0000
,
2002
3003
0000
2000
3000
0000
0002
0003
0220
0330
0000
0200
0300
0000
0020
0030
,
2002
0000
0000
0000
3003
0000
1100
1001
,
0202
0000
0000
0000
,
0000
0000
0000
0303
,
2002
0000
0000
3003
,
2000
0000
0000
0000
0000
3000
0200
0000
0000
0000
0000
0300
0020
0000
0000
0000
,
0032
0000
0000
0000
,
0000
0000
0000
0000
0000
0000
0000
0000
0000
0000
0000
0000
0003
0000
1000
0100
,
0020
0000
0000
0030
,
0002
0000
0000
0023
0000
0000
0230
0000
,
2300
0000
0000
3000
,
2002
0000
0000
3003
,
2200
3300
0000
2002
3003
0000
0202
0303
,
0000
0000
2002
0000
3003
0000
0000
0000
0220
0330
0000
0000
2002
3003
0000
0000
,
0220
0330
0000
2200
3300
0000
0220
0330
,
0000
0000
0022
0000
0033
0000
0000
0000
2002
3003
0000
0000
0220
0330
0000
0000
,
2200
3300
0000
2002
3003
0000
0202
0303
,
0000
0000
2002
0000
3003
0000
0000
0000
0022
0033
0000
0000
2002
3003
0000
0000
,
2020
3030
0000
0220
0330
0000
0022
0033
,
0000
0000
0220
0000
0330
0000
0000
0000
2200
3300
0000
0000
0022
0033
0000
0000
,
2002
0000
3003
0000
1100
0101
0000
0000
,
1000
0000
0000
0100
0000
0000
0001
0000
1000
0000
0000
0001
0000
0000
0100
0000
,
0010
0000
0000
0100
0000
0000
1000
0000
0100
0000
0010
0000
0100
0000
0010
0000
,
0001
0000
0000
1000
0000
0000
0100
0000
0100
0000
0000
0001
0000
0000
0010
0000
,
1000
0000
0000
0001
0000
0000
0010
0000
0100
0000
0000
0000
1001
0000
0000
0000
,
0001
0000
0000
0001
0000
0000
0001
0000
0010
0000
0000
0010
0000
0000
0010
0000
,
1000
0000
0000
1000
0000
0000
1000
0000
0100
0000
0100
0000
0100
0000
0100
0000
,
1000
0000
0000
1000
0000
0000
1000
0000
0010
0000
0000
0010
0000
0000
0010
0000
,
0001
0000
0000
0001
0000
0000
0001
0000
0001
0000
0000
1000
0000
0000
0001
0000
,
1001
0000
0000
0010
0000
0000
1000
0000
0010
0000
0000
0001
0000
0000
0100
0000
,
0010
0000
0000
1000
0000
0000
0100
0000
1000
0000
0001
0000
0010
0000
0100
0000
,
1000
0000
0000
0001
0000
0000
1000
0000
0100
0000
0000
0100
0000
0000
1000
0000
,
0001
0000
0000
0100
0000
0000
0010
0000
1000
0000
0100
0000
1000
0000
0001
0000
,
0010
0000
0000
0010
0000
0000
0010
0000
0001
0000
0000
0001
0000
0000
0001
0000
,
0100
0000
0000
0100
0000
0000
0100
0000
1000
0001
1000
0001
1000
0001
1000
0001
,
1000
0000
0000
0100
0000
0000
1000
0000
0001
0000
0000
0100
0000
0000
0001
0000
,
2002
0000
0000
3003
,
1100
0000
0000
1001
0000
0000
0110
0000
1001
0000
0000
1100
0000
0000
0101
0000
,
0011
0000
0000
1100
0000
0000
0101
0000
1000
0100
0010
0001
0010
0100
1000
0000
,
0101
0000
0000
1001
0000
0000
1100
0000
0011
0000
0000
1100
0000
0000
0101
0000
,
1001
0000
0000
1100
0000
0000
0101
0000
1001
0000
0000
1010
0000
0000
0110
0000
,
0110
0000
0000
0011
0000
0000
1100
0000
0101
0000
0000
1001
0000
0000
1100
0000
,
1001
0000
0000
0101
0000
0000
1010
0000
0100
0010
0001
0010
0100
0010
0001
0000
,
1100
0000
0000
0110
0000
0000
0011
0000
1001
0000
0000
1010
0000
0000
0101
0000
,
0110
0000
0000
0011
0000
0000
1100
0000
1001
0000
0000
0101
0000
0000
1010
0000
,
0001
0010
0100
1000
0100
0010
0001
0010
,
0100
0000
1000
0000
0100
0000
1000
0000
0001
0100
0001
0100
0001
0100
0001
0100
,
0001
0100
0010
1000
0010
0100
0010
0001
,
0010
1000
0010
0001
0010
0000
1001
0000
,
1010
0000
0000
1010
0000
0000
1010
0000
0011
0000
0000
0011
0000
0000
0011
0000
,
0110
0000
0000
0110
0000
0000
0110
0000
1000
0100
0010
0001
0010
0100
1000
0000
,
1100
0000
0000
1100
0000
0000
1100
0000
0101
0000
0000
0101
0000
0000
0101
0000
,
1100
0000
0000
0110
0000
0000
0011
0000
1001
0000
0000
0101
0000
0000
1010
0000
,
0110
0000
0000
0000
;

//---------------dance-single - ----------------
#NOTES:
     dance-single:
     :
     Medium:
     8:
     0.399,0.540,0.145,0.453,0.047:
0100
0000
0000
0100
0000
0000
0100
0000
0001
0000
0000
0001
0000
0000
0001
0000
,
0010
0000
0000
0010
0000
0000
0010
0000
1000
0000
0000
0000
1000
0000
0000
0000
,
0100
0000
0000
0100
0000
0000
0100
0000
1000
0000
0000
1000
0000
0000
1000
0000
,
0020
0000
0032
0000
,
1003
0000
0000
1000
0000
0000
1000
0000
0100
0000
0000
0100
0000
0000
0100
0000
,
0001
0000
0000
0001
0000
0000
0001
0000
0010
0000
0000
0000
0010
0000
0000
0000
,
1000
0000
0000
1000
0000
0000
1000
0000
0010
0000
0000
0010
0000
0000
0010
0000
,
0001
0000
0000
0001
0000
0000
0001
0000
0100
0000
0000
0000
0100
0000
0000
0000
,
2000
3002
2003
3200
,
0302
2003
3001
1001
,
0002
0023
2030
3000
,
2002
0000
0000
3003
,
0100
0000
0100
0000
0100
0000
0100
0100
,
0001
0000
0001
0000
0001
0000
0001
0001
,
0010
0000
0010
0000
0010
0000
0010
0010
,
1000
0000
1000
0000
1000
0000
1000
1000
,
0001
0100
1000
0100
,
0001
0100
1000
0100
,
0001
0010
1000
0010
,
0001
0010
1000
0010
,
1001
0100
1000
0100
,
1001
0100
0001
0100
,
0110
0010
1000
0010
,
0110
0010
0001
0010
,
0200
0300
2002
3003
,
0200
0300
2002
3003
,
0020
0030
2002
3003
,
0020
0030
2002
3003
,
0220
0000
0000
0000
,
0000
0000
0000
0330
,
2000
0000
0000
0000
,
3002
0000
0000
0000
,
0203
0000
0000
0000
,
0000
0000
0000
0000
,
0320
0000
0000
0000
,
0230
0000
0000
0000
,
2300
0000
0000
0000
,
0000
0000
0000
0000
,
3002
0000
0000
0000
,
0000
0000
2003
0000
,
3020
0000
0000
0000
,
0000
0000
0000
0000
,
0032
0000
0000
0000
,
0203
0000
0000
0000
,
0320
0000
0000
0000
,
2030
0000
0000
0000
,
3001
0000
1001
0000
,
1000
1000
1000
1000
,
0001
0001
0001
0001
,
0100
0100
0100
0100
,
0010
0010
0010
0010
,
1000
0000
1100
0000
,
0001
0000
0101
0000
,
1000
1010
0001
0011
,
1000
1000
0001
0001
,
0100
1000
0100
0001
,
0100
0000
1000
0000
0001
1000
0100
0000
,
1000
0010
0001
0010
,
1000
0000
0010
0000
0010
1000
0001
0000
,
0100
0100
0001
0001
,
0010
0000
0010
0000
1000
1000
1000
0000
,
0001
0100
1000
0100
,
0002
0000
0000
0003
,
2000
0000
3200
0000
,
0302
0000
0003
0000
0100
0100
0100
0100
,
2000
0000
3002
0000
,
0203
0000
0300
0000
0010
0010
0010
0010
,
2000
0000
3200
0000
,
0320
0000
0030
0000
0001
0001
0001
0001
,
0200
0000
0302
0000
,
0023
0000
0030
0000
1000
1000
1000
0000
,
0001
0000
0100
0000
0001
0100
0001
0000
,
1000
0000
0100
0000
1000
0100
1000
0000
,
0001
0000
0010
0000
0001
0010
0001
0000
,
1000
0000
0010
0000
1000
0010
1000
0000
,
0001
0000
1000
0000
0001
1000
0001
0000
,
0010
0000
0100
0000
0010
0100
0010
0000
,
1000
0000
0001
0000
1000
0001
1000
0000
,
0100
0000
0010
0000
0100
0010
0100
0000
,
1001
0000
0000
0000
;

//---------------dance-single - ----------------
#NOTES:
     dance-single:
     :
     Easy:
     3:
     0.223,0.337,0.154,0.077,0.000:
0001
0001
0001
0000
,
1000
1000
1000
0000
,
0010
0010
0010
0000
,
0200
0300
0200
0300
,
1000
1000
1000
0000
,
0100
0100
0100
0000
,
0001
0001
0001
0000
,
0010
0010
0010
0000
,
1000
0000
1000
0000
,
0001
0000
0001
0000
,
0010
0000
0010
0000
,
0200
0000
0000
0300
,
1000
1000
1000
0000
,
0001
0001
0001
0000
,
1000
0001
1000
0000
,
0001
1000
0001
0000
,
0010
0010
0010
0000
,
0100
0100
0100
0000
,
0010
0100
0010
0000
,
0100
0010
0100
0000
,
1000
0000
1100
0000
,
0001
0000
0101
0000
,
0001
0000
0011
0000
,
1000
0000
1010
0000
,
0110
0000
1001
0000
,
0110
0000
1001
0000
,
1100
0000
0101
0000
,
1001
0000
0000
0000
,
2002
0000
0000
0000
,
0000
0000
0000
3003
,
0200
0000
0000
0000
,
0000
0000
0000
0000
,
0000
0000
0000
0000
,
0000
0000
0000
0300
,
0020
0000
0000
0000
,
0000
0000
0000
0000
,
0000
0000
0000
0000
,
0000
0000
0000
0030
,
2000
0000
0000
0000
,
0000
0000
0000
0000
,
0000
0000
0000
0000
,
0000
0000
0000
3000
,
0002
0000
0000
0000
,
0000
0000
0000
0000
,
0000
0000
0000
0000
,
0000
0000
0000
0003
,
1001
0000
0000
0000
,
1100
0000
0000
0000
,
0000
0000
0000
0000
,
0101
0000
0000
0000
,
0000
0000
0000
0000
,
0011
0000
0000
0000
,
0000
0000
0000
0000
,
1010
0000
0000
0000
,
0000
0000
0000
0000
,
1000
1000
0001
0001
,
1000
0001
1000
0000
,
0001
0001
1000
1000
,
0001
1000
0001
0000
,
0010
0010
0100
0100
,
0010
0100
0010
0000
,
0100
0100
0010
0010
,
0100
0010
0100
0000
,
1000
0000
1000
1000
,
0001
0000
0001
0001
,
0010
0000
0010
0010
,
0100
0000
0100
0100
,
1000
0000
0100
1000
,
0001
0000
0100
0001
,
0010
0000
0010
1000
,
0010
0000
0010
0001
,
1000
1000
1000
0000
,
0001
0001
0001
0000
,
1000
0001
1000
0000
,
0001
1000
0001
0000
,
0010
0010
0010
0000
,
0100
0100
0100
0000
,
0010
0100
0010
0000
,
0100
0010
0100
0000
,
1001
0000
0000
0000
;

//---------------dance-single - ----------------
#NOTES:
     dance-single:
     :
     Beginner:
     2:
     0.127,0.236,0.017,0.103,0.000:
0000
0000
0000
0000
,
0000
0000
0000
0000
,
0000
0000
0000
0000
,
0000
0000
0000
0000
,
2000
0000
0000
0000
,
0000
0000
0000
3000
,
0002
0000
0000
0000
,
0000
0000
0000
0003
,
0200
0000
0000
0000
,
0000
0000
0000
0300
,
0020
0000
0000
0000
,
0030
0000
0000
0000
,
1000
0000
0000
0000
,
1000
0000
0000
0000
,
0001
0000
0000
0000
,
0001
0000
0000
0000
,
0010
0000
0000
0000
,
0010
0000
0000
0000
,
0100
0000
0000
0000
,
0100
0000
0000
0000
,
1000
0000
1000
0000
,
0001
0000
0001
0000
,
0010
0000
0010
0000
,
0100
0000
0100
0000
,
1000
0000
0000
0000
,
0001
0000
0000
0000
,
0010
0000
0000
0000
,
0100
0000
0000
0000
,
1001
0000
0000
0000
,
0000
0000
0000
0000
,
2000
0000
0000
0000
,
0000
0000
0000
3000
,
0200
0000
0000
0000
,
0000
0000
0000
0300
,
0020
0000
0000
0000
,
0000
0000
0000
0030
,
0002
0000
0000
0000
,
0000
0000
0000
0003
,
2000
0000
0000
0000
,
0000
0000
0000
3000
,
0020
0000
0000
0000
,
0000
0000
0000
0030
,
0200
0000
0000
0000
,
0000
0000
0000
0300
,
0002
0000
0000
0000
,
0000
0000
0000
0000
,
0003
0000
0000
0000
,
0100
0000
0000
0000
,
0100
0000
0000
0000
,
0010
0000
0000
0000
,
0010
0000
0000
0000
,
0001
0000
0000
0000
,
0001
0000
0000
0000
,
1000
0000
0000
0000
,
1000
0000
0000
0000
,
0001
0000
0000
0000
,
0001
0000
0000
0000
,
0010
0000
0000
0000
,
0010
0000
0000
0000
,
1000
0000
0000
0000
,
1000
0000
0000
0000
,
0100
0000
0000
0000
,
0100
0000
0000
0000
,
0001
0000
0001
0000
,
0010
0000
0010
0000
,
1000
0000
1000
0000
,
0100
0000
0100
0000
,
1000
1000
1000
0000
,
0001
0001
0001
0000
,
0010
0010
0010
0000
,
0100
0100
0100
0000
,
1000
0000
1000
0000
,
0001
0000
0001
0000
,
0010
0000
0010
0000
,
0100
0000
0100
0000
,
1000
1000
1000
0000
,
0100
0100
0100
0000
,
0010
0010
0010
0000
,
0001
0001
0001
0000
,
1001
0000
0000
0000
;

//---------------dance-single - ----------------
#NOTES:
     dance-single:
     :
     Hard:
     9:
     0.525,0.574,0.222,0.214,0.158: // measure 1
0100
0000
0000
0100
0000
0000
0100
0000
1000
0000
0000
1000
0000
0000
1000
0000
,  // measure 2
0010
0000
0000
0010
0000
0000
0010
0000
0001
0000
0001
0000
0001
0000
0000
0000
,  // measure 3
1000
0000
0000
1000
0000
0000
1000
0000
0100
0000
0000
0100
0000
0000
0100
0000
,  // measure 4
2002
0000
3003
0000
0002
0023
0000
0230
,  // measure 5
1300
0000
0000
1000
0000
0000
1000
0000
0100
0000
0000
0100
0000
0000
0100
0000
,  // measure 6
0001
0000
0000
0001
0000
0000
0001
0000
0010
0000
0010
0000
0010
0000
0000
0000
,  // measure 7
0100
0000
0000
0100
0000
0000
0100
0000
0001
0000
0000
0001
0000
0000
0001
0000
,  // measure 8
0010
0000
0000
0010
0000
0000
0010
0000
1000
0000
0000
0000
0110
0000
0000
0000
,  // measure 9
0001
0000
0000
1000
0000
0000
0100
0000
1000
0000
0000
0100
0000
0000
0010
0000
,  // measure 10
0001
0000
0000
1000
0000
0000
0001
0000
1000
0000
0000
0000
0110
0000
0000
0000
,  // measure 11
1000
0000
0000
0001
0000
0000
0100
0000
0001
0000
0000
0010
0000
0000
0100
0000
,  // measure 12
2020
0000
0000
3030
,  // measure 13
0001
0100
1000
0100
0001
0100
1000
0000
,  // measure 14
0001
0010
1000
0010
0001
0010
1000
0000
,  // measure 15
1000
1000
1000
0000
0001
0001
0001
0000
,  // measure 16
0100
1000
0100
0001
0100
0100
0100
0000
,  // measure 17
0001
0100
1000
0000
1000
0100
0001
0000
,  // measure 18
1000
0010
0001
0000
0001
0010
1000
0000
,  // measure 19
0100
1000
0001
0010
0100
0000
1000
0000
,  // measure 20
0001
1000
0100
0010
0001
0000
0010
0010
,  // measure 21
0010
0000
0100
1000
0001
1000
0100
0000
,  // measure 22
0010
1000
0100
1000
0001
0000
0100
1000
,  // measure 23
0001
0010
0001
0000
0100
1000
0100
0000
,  // measure 24
0001
0100
0001
0010
0100
1000
0001
0000
,  // measure 25
0100
0000
0000
0001
0000
0000
1000
0000
0100
0000
0000
0010
0000
0000
1000
0000
,  // measure 26
0001
0000
0000
1000
0000
0000
0100
0000
0010
0000
0000
0000
1001
0000
0000
0000
,  // measure 27
0100
0000
0000
1000
0000
0000
0100
0000
0010
0000
0000
0001
0000
0000
0100
0000
,  // measure 28
2002
0000
0000
3003
,  // measure 29
0220
0000
0000
0000
,  // measure 30
0000
0000
0000
0330
,  // measure 31
2002
0000
0000
0003
,  // measure 32
0100
0000
0000
0010
0000
0000
0001
0000
,  // measure 33
0200
0000
0000
0000
,  // measure 34
0000
0000
0000
3300
,  // measure 35
0202
0000
0000
0300
,  // measure 36
1000
0000
0000
0010
0000
0000
0100
0000
,  // measure 37
2000
0000
0000
0000
,  // measure 38
0000
0000
0000
3003
,  // measure 39
1000
0000
0000
1100
0000
0000
0001
0000
,  // measure 40
0000
0101
0000
0000
0010
0000
0110
0000
,  // measure 41
1000
0000
0000
1001
0000
0000
0001
0000
,  // measure 42
0000
0011
0000
0000
1000
0000
0110
0000
,  // measure 43
0001
0000
0000
1100
0000
0000
0001
0000
,  // measure 44
0000
0101
0000
0000
0010
0000
0110
0000
,  // measure 45
1000
0000
0000
0100
0000
0000
0010
0000
,  // measure 46
0000
0001
0000
0000
1100
0000
0101
0000
,  // measure 47
1001
0000
0000
0000
1000
0001
0000
0000
,  // measure 48
0100
1000
0001
0000
0100
0010
0100
0000
,  // measure 49
0001
1000
0100
0010
0100
0010
0100
0000
,  // measure 50
0010
0100
0010
0000
1000
0100
0001
0000
,  // measure 51
0001
0100
1000
0010
0001
0000
1000
0000
,  // measure 52
0100
1000
0100
1000
0001
0000
0010
0000
,  // measure 53
0100
1000
0001
0010
0001
0000
0100
0000
,  // measure 54
1000
0100
1000
0100
1000
0000
0001
0000
,  // measure 55
0202
0000
0000
0303
,  // measure 56
1000
0000
1000
0000
0001
0001
0001
0000
,  // measure 57
0010
0000
0100
0000
0010
0010
0010
0000
,  // measure 58
0001
0000
0001
0000
1000
1000
1000
0000
,  // measure 59
0100
0000
0010
0000
0100
0100
0100
0000
,  // measure 60
1000
0000
0000
0100
0000
0000
0010
0000
0100
0000
0000
1000
0000
0000
0001
0000
,  // measure 61
0010
0000
0000
0100
0000
0000
0010
0000
0100
0000
1000
0000
0001
0000
0100
0000
,  // measure 62
0001
0000
0000
1000
0000
0000
0100
0000
0100
0000
0000
1000
0000
0000
0001
0000
,  // measure 63
2002
0000
0000
3003
,  // measure 64
0100
0000
0000
0100
0000
0000
1000
0000
0001
0000
0000
0010
0000
0000
0001
0000
,  // measure 65
1000
0000
0000
0001
0000
0000
1000
0000
0010
0000
1000
0000
0100
0000
0010
0000
,  // measure 66
0001
0000
0000
0001
0000
0000
0001
0000
1000
0000
0000
1000
0000
0000
1000
0000
,  // measure 67
0010
0000
0000
0010
0000
0000
0100
0000
1000
0000
0001
0000
1000
0000
0100
0000
,  // measure 68
1000
0000
0000
0001
0000
0000
0100
0000
0010
0000
0000
1000
0000
0000
0100
0000
,  // measure 69
1000
0000
0000
0001
0000
0000
0100
0000
0010
0000
0100
0000
0010
0000
0100
0000
,  // measure 70
1000
0000
0000
0001
0000
0000
0100
0000
1000
0000
0000
0001
0000
0000
0100
0000
,  // measure 71
2002
0000
0000
3003
,  // measure 72
0100
1000
0100
0001
0100
1000
0001
0000
,  // measure 73
0010
0100
1000
0100
1000
0001
0010
0000
,  // measure 74
0001
0010
0100
0010
0001
0010
0100
0000
,  // measure 75
0100
0010
0001
0010
0100
1000
0001
0000
,  // measure 76
0100
1000
0001
0100
0001
0010
0100
0000
,  // measure 77
0010
0010
0100
0100
1000
0001
0010
0000
,  // measure 78
0001
0001
1000
1000
0100
0100
0010
0010
,  // measure 79
2002
0000
0000
3003
,  // measure 80
1001
0000
0000
0000
;
