#TITLE:Donkey Donk;
#SUBTITLE:;
#ARTIST:Ryu☆;
#TITLETRANSLIT:;
#SUBTITLETRANSLIT:;
#ARTISTTRANSLIT:;
#CREDIT:;
#BANNER:;
#BACKGROUND:;
#LYRICSPATH:;
#CDTITLE:;
#MUSIC:Donkey Donk.mp3;
#OFFSET:-2.600;
#SAMPLESTART:52.140;
#SAMPLELENGTH:12.400;
#SELECTABLE:YES;
#BPMS:0.000=155.000;
#STOPS:;
#BGCHANGES:;

//---------------dance-single - ----------------
#NOTES:
     dance-single:
     :
     Hard:
     10:
     0.513,0.537,0.628,0.047,0.000:
1000
1000
0001
0001
0010
0000
0100
0000
,
0100
0100
0010
0010
0001
0000
1000
0000
,
0100
0001
1000
0000
0100
1000
0001
0000
,
1100
0101
1100
0101
,
0010
0100
1000
0000
0010
0100
0001
0000
,
1000
0100
0010
0000
0011
0000
1100
0000
,
1000
0001
0100
0000
0001
1000
0100
0000
,
1010
0011
1010
0011
,
1000
0001
1000
0001
,
0010
0010
0010
0000
0100
0100
0100
0000
,
0001
1000
0001
1000
,
1100
0101
1100
0101
,
0010
0010
0010
0000
0100
0100
0100
0000
,
1000
1000
1000
0000
0001
0001
0001
0000
,
1000
0010
0001
1000
,
1010
0011
1010
0011
,
2001
0000
0100
0000
,
0001
0000
0100
0100
,
0001
0000
0010
0000
,
0100
0000
0001
3001
,
0002
0000
1000
0000
,
0100
0000
1000
0010
,
1000
0000
0100
0000
,
0010
0000
1000
1003
,
0020
0000
1000
0000
,
0100
0000
1000
1000
,
0001
0000
1000
0000
,
0100
0000
0001
0031
,
0200
0000
0001
0000
,
1000
0000
0010
0001
,
1000
0000
0001
0000
,
0310
0000
1100
0101
,
1000
0100
0001
0100
1000
0100
0001
0000
,
0001
0010
1000
0010
0001
0010
1000
0000
,
1000
0100
0001
0100
1000
0100
0001
0000
,
0001
0010
1000
0010
0001
0000
1000
0000
,
0001
0001
0100
0100
0010
0010
1000
0000
,
1000
1000
0100
0100
0010
0010
0010
0000
,
0001
1000
0001
1000
0100
0010
0001
0000
,
1100
0101
0011
1010
,
1000
0001
1000
0001
1000
0001
1000
0000
,
0010
0100
0010
0100
0010
0100
0010
0000
,
1000
0100
0010
0001
0010
0100
1000
0000
,
0001
0010
0100
1000
0100
0010
0001
0000
,
1100
1100
0101
0101
,
1100
0101
1100
0101
,
0011
0011
1010
1010
,
0011
1010
0011
1010
,
1000
0100
0001
0000
0001
0100
1000
0000
,
1000
0010
0001
0010
1000
0000
1001
0000
,
1000
0100
0001
0000
0001
0010
1000
0000
,
1010
0011
0101
1100
,
1000
1000
1000
0000
0001
0001
0001
0000
,
0010
0010
0010
0000
0100
0100
0100
0000
,
1000
1000
0001
0001
,
1001
1001
0110
0110
,
1001
1001
0110
0110
,
1100
0101
0011
1010
,
1010
0011
0101
1100
,
0010
0100
0010
0100
0010
0000
0100
0000
,
2002
0000
0000
0000
,
0000
3003
1100
0101
,
1000
0100
0001
0100
1000
0010
0001
0000
,
0001
0010
1000
0010
0001
0100
1000
0000
,
1000
1000
0100
1000
0100
1000
0100
0000
,
0001
0001
0100
0001
0100
0001
0010
0000
,
0001
1000
0010
1000
0001
0010
0100
0000
,
1010
0011
0101
1100
,
0010
0010
1000
1000
0100
0100
0001
0001
,
1000
0100
0001
0010
0011
0000
1010
0000
,
1000
0100
0001
0100
1000
0010
0001
1000
,
1010
0011
1100
0101
,
0010
0100
1000
0100
0010
0100
0001
0000
,
0010
0100
1000
0001
0001
0010
0001
0000
,
1000
0100
0001
0100
1000
0010
0001
0000
,
1100
0101
1001
0110
,
1001
0000
0000
0000
;

//---------------dance-single - ----------------
#NOTES:
     dance-single:
     :
     Challenge:
     11:
     0.628,0.657,1.000,0.220,0.000:
1001
1100
1001
0101
,
1001
0011
1001
1010
,
1001
0110
1001
0110
,
1100
1100
0101
0101
,
1010
1010
1010
1010
,
0011
0011
0011
0011
,
0011
1010
0011
1010
,
1001
0110
1001
0110
,
1100
1001
0101
1001
,
0011
1001
1010
1001
,
1001
0110
1001
0110
,
1010
0011
0101
1100
,
1001
0110
1001
0110
,
0101
1100
1010
0011
,
1100
0101
1100
0101
,
0110
1001
0110
1001
,
0220
0000
0000
0330
,
2002
0000
0000
3003
,
0220
0000
0000
0330
,
2002
0000
0000
3003
,
1100
1001
0101
1001
,
1010
1001
0011
1001
,
1100
0101
1100
0101
,
0011
1010
0011
1010
,
2002
0000
0000
3003
,
0220
0000
0000
0330
,
2002
0000
0000
3003
,
0220
0000
0000
0330
,
2200
0000
0000
3300
,
0202
0000
0000
0303
,
0022
0000
0000
0033
,
2020
0000
0000
3030
,
1100
1100
1100
1100
,
0101
0101
0101
0101
,
0011
0011
0011
0011
,
1010
1010
1010
1010
,
0110
0110
0110
0110
,
1001
1001
1001
1001
,
0110
0110
0110
0110
,
1001
1001
1001
1001
,
1100
1100
0101
0101
,
0011
0011
1010
1010
,
1100
1100
1010
1010
,
0011
0011
0101
0101
,
1001
1001
0110
0110
,
1001
1001
0110
0110
,
1100
1010
0011
0101
,
1001
0110
1001
0110
,
1100
0101
1100
0101
,
0011
1010
0011
1010
,
1100
0101
1100
0101
,
0011
1010
0011
1010
,
1100
1001
0101
1001
,
1010
1001
0011
1001
,
0110
1001
0110
1001
,
1100
1100
0101
0101
,
0011
0011
1010
1010
,
0110
0110
1001
1001
,
1100
0101
0011
1010
,
1100
0101
1100
0101
,
2002
0000
0000
3003
,
0220
0000
0000
0330
,
1010
0110
0011
0110
,
1010
0110
0011
0000
,
0011
0110
1100
0110
,
0011
0110
1100
0000
,
0110
1001
0110
1001
,
0110
1001
0110
0000
,
1100
0000
1001
0000
0101
0101
0101
0000
,
1001
0000
1010
0000
0011
0011
0011
0000
,
1010
0000
0101
0000
1010
1010
1010
0000
,
1100
0000
0011
0000
1100
1100
1100
0000
,
1001
0000
0110
0000
1001
1001
1001
0000
,
0110
0000
1001
0000
0110
0110
0110
0000
,
1100
0101
1100
0101
,
0011
1010
0011
1010
,
1001
0000
0000
0000
;

//---------------dance-single - ----------------
#NOTES:
     dance-single:
     :
     Medium:
     7:
     0.399,0.537,0.448,0.063,0.000: // measure 1
1000
0100
0001
0100
,  // measure 2
1000
0010
0001
0010
,  // measure 3
1000
1000
0001
0001
,  // measure 4
1001
1001
1001
1001
,  // measure 5
0010
1000
0100
0001
,  // measure 6
0100
1000
0010
0001
,  // measure 7
0010
0100
0010
0100
,  // measure 8
0110
0110
0110
0110
,  // measure 9
1000
1000
0001
0001
,  // measure 10
1000
1000
0001
0001
,  // measure 11
0010
0010
0100
0100
,  // measure 12
1100
1100
0101
0101
,  // measure 13
0001
0001
1000
1000
,  // measure 14
0010
0010
0100
0100
,  // measure 15
1000
0100
0001
0010
,  // measure 16
1010
0011
1010
0011
,  // measure 17
2000
0000
0100
0000
,  // measure 18
0001
0000
0100
0001
,  // measure 19
3002
0000
0100
0000
,  // measure 20
0010
0000
0100
0103
,  // measure 21
0020
0000
1000
0000
,  // measure 22
0001
0000
1000
1030
,  // measure 23
0200
0000
0001
0000
,  // measure 24
0010
0000
0001
0310
,  // measure 25
1001
0000
1100
0000
,  // measure 26
1001
0000
0101
0000
,  // measure 27
1001
0000
0011
0000
,  // measure 28
1001
0000
1010
0000
,  // measure 29
2002
0000
0000
0000
,  // measure 30
0000
0000
0000
0000
,  // measure 31
0000
0000
0000
0000
,  // measure 32
3003
0000
1000
0001
,  // measure 33
1000
1000
0100
0100
,  // measure 34
0001
0001
0100
0100
,  // measure 35
1000
1000
0010
0010
,  // measure 36
0001
0001
0010
0010
,  // measure 37
1000
0010
0001
0010
,  // measure 38
1000
0100
0001
0100
,  // measure 39
1000
0010
0001
0100
,  // measure 40
1100
0101
0011
1010
,  // measure 41
1000
0000
0001
0000
0010
0100
0010
0000
,  // measure 42
1000
0000
0001
0000
0100
0010
0100
0000
,  // measure 43
1000
0000
0001
0000
0010
0100
0010
0000
,  // measure 44
1000
0000
0001
0000
0100
0010
0100
0000
,  // measure 45
0010
0000
0100
0000
0001
1000
0001
0000
,  // measure 46
0100
0000
0010
0000
1000
0001
1000
0000
,  // measure 47
0010
0000
0100
0000
1000
1000
0001
0000
,  // measure 48
0001
0000
1000
0000
0001
0001
1000
0000
,  // measure 49
0100
1000
0001
0000
0100
0001
1000
0000
,  // measure 50
0010
0100
1000
0000
0010
0100
0001
0000
,  // measure 51
1000
0100
0001
0000
0001
0100
1000
0000
,  // measure 52
1010
0011
0101
1100
,  // measure 53
1000
0010
0001
0000
0001
0100
1000
0000
,  // measure 54
1000
0010
0100
0000
0001
0010
0100
0000
,  // measure 55
1000
0001
0001
0000
0001
1000
1000
0000
,  // measure 56
1100
0101
1100
0101
,  // measure 57
0011
1010
0011
1010
,  // measure 58
1100
1001
0101
1001
,  // measure 59
0011
1001
1010
1001
,  // measure 60
0110
1001
0110
1001
,  // measure 61
2002
0000
0000
0000
,  // measure 62
0000
0000
0000
3003
,  // measure 63
0010
0000
0100
0000
0010
0100
0010
0000
,  // measure 64
1000
0000
0100
0000
1000
0100
1000
0000
,  // measure 65
0001
0000
0100
0000
0001
0100
0001
0000
,  // measure 66
0001
0000
0010
0000
0001
0010
0001
0000
,  // measure 67
1000
0000
0010
0000
1000
0010
1000
0000
,  // measure 68
1000
0000
0001
0000
1000
0001
1000
0000
,  // measure 69
0100
1000
0001
0100
,  // measure 70
0001
1000
0010
0010
,  // measure 71
1000
0010
0001
0010
,  // measure 72
0100
0100
0010
0010
,  // measure 73
1000
0001
0100
0001
,  // measure 74
1000
0001
0010
0100
,  // measure 75
0001
1000
0100
1000
,  // measure 76
0101
1000
1100
0001
,  // measure 77
0110
0000
0000
0000
;

//---------------dance-single - ----------------
#NOTES:
     dance-single:
     :
     Easy:
     4:
     0.293,0.268,0.039,0.157,0.000: // measure 1
1000
1000
1000
0000
,  // measure 2
0001
0001
0001
0000
,  // measure 3
1000
0001
1000
0001
,  // measure 4
0110
0000
1001
0000
,  // measure 5
0010
0010
0010
0000
,  // measure 6
0100
0100
0100
0000
,  // measure 7
0010
0010
0100
0100
,  // measure 8
1001
0000
0110
0000
,  // measure 9
1000
0001
1000
0001
,  // measure 10
0001
1000
0001
1000
,  // measure 11
0010
0100
0010
0100
,  // measure 12
0100
0010
0100
0010
,  // measure 13
1000
0000
1000
0000
,  // measure 14
0001
0000
0001
0000
,  // measure 15
0100
0000
0100
0000
,  // measure 16
0010
0000
0010
0000
,  // measure 17
2000
0000
0001
0000
,  // measure 18
0001
0000
0001
3001
,  // measure 19
0002
0000
1000
0000
,  // measure 20
1000
0000
1000
1003
,  // measure 21
0020
0000
0100
0000
,  // measure 22
0100
0000
0100
0130
,  // measure 23
0200
0000
0010
0000
,  // measure 24
0010
0000
0010
0310
,  // measure 25
2000
0000
3002
0000
,  // measure 26
0203
0000
0320
0000
,  // measure 27
2030
0000
3200
0000
,  // measure 28
0320
0000
0032
0000
,  // measure 29
2003
0000
3002
0000
,  // measure 30
2003
0000
3002
0000
,  // measure 31
0023
0000
0230
0000
,  // measure 32
0320
0000
0230
0000
,  // measure 33
0301
0001
1000
1000
,  // measure 34
0001
1000
0001
1000
,  // measure 35
0010
0000
0010
0000
,  // measure 36
0010
0000
0010
0000
,  // measure 37
1000
0001
1000
0001
,  // measure 38
1000
1000
0001
0001
,  // measure 39
0100
0000
0100
0000
,  // measure 40
0100
0000
0100
0000
,  // measure 41
0010
0100
0010
0100
,  // measure 42
0010
0010
0100
0100
,  // measure 43
0001
0000
1000
0000
,  // measure 44
0001
0000
1000
0000
,  // measure 45
0100
0100
0010
0010
,  // measure 46
0100
0010
0100
0010
,  // measure 47
1000
0000
0001
0000
,  // measure 48
1000
0000
0001
0000
,  // measure 49
1000
1000
1000
1000
,  // measure 50
0001
0001
0001
0001
,  // measure 51
0010
0010
0010
0010
,  // measure 52
0100
0100
0100
0100
,  // measure 53
1000
1000
1000
1000
,  // measure 54
0100
0100
0100
0100
,  // measure 55
0001
0001
0001
0001
,  // measure 56
0010
0010
0010
0010
,  // measure 57
1000
1000
0010
0010
,  // measure 58
0001
0001
0100
0100
,  // measure 59
1000
0100
0001
0010
,  // measure 60
1000
0100
0001
1001
,  // measure 61
0000
0000
0000
0000
,  // measure 62
0000
0000
0000
0000
,  // measure 63
1000
1000
0001
0001
,  // measure 64
1000
0001
1000
0001
,  // measure 65
0010
0010
0100
0100
,  // measure 66
0010
0100
0010
0100
,  // measure 67
1000
0100
0001
0100
,  // measure 68
1000
0010
0001
0010
,  // measure 69
1000
1000
1000
1000
,  // measure 70
0001
0001
0001
0001
,  // measure 71
0010
0010
0010
0010
,  // measure 72
0100
0100
0100
0100
,  // measure 73
1000
0100
0001
0100
,  // measure 74
1000
0010
0001
0010
,  // measure 75
1000
0100
0001
0100
,  // measure 76
1000
1000
0001
0001
;

//---------------dance-single - ----------------
#NOTES:
     dance-single:
     :
     Beginner:
     2:
     0.165,0.209,0.039,0.141,0.000: // measure 1
2000
0000
0000
0000
,  // measure 2
3000
0000
0000
0000
,  // measure 3
0002
0000
0000
0000
,  // measure 4
0003
0000
0000
0000
,  // measure 5
0200
0000
0000
0000
,  // measure 6
0300
0000
0000
0000
,  // measure 7
0020
0000
0000
0000
,  // measure 8
0030
0000
0000
0000
,  // measure 9
1000
0000
1000
0000
,  // measure 10
0001
0000
0001
0000
,  // measure 11
0010
0000
0010
0000
,  // measure 12
0100
0000
0100
0000
,  // measure 13
1000
0000
1000
0000
,  // measure 14
0100
0000
0100
0000
,  // measure 15
0001
0000
0001
0000
,  // measure 16
0010
0000
0010
0000
,  // measure 17
2000
0000
0000
0000
,  // measure 18
0000
0000
0000
0000
,  // measure 19
3002
0000
0000
0000
,  // measure 20
0000
0000
0000
0000
,  // measure 21
0023
0000
0000
0000
,  // measure 22
0000
0000
0000
0000
,  // measure 23
0230
0000
0000
0000
,  // measure 24
0000
0000
0000
0300
,  // measure 25
2002
0000
0000
0000
,  // measure 26
0000
0000
0000
3003
,  // measure 27
0220
0000
0000
0000
,  // measure 28
0000
0000
0000
0330
,  // measure 29
2002
0000
0000
0000
,  // measure 30
0000
0000
0000
3003
,  // measure 31
0220
0000
0000
0000
,  // measure 32
0000
0000
0000
0330
,  // measure 33
0000
1000
0000
1000
,  // measure 34
0000
0001
0000
0001
,  // measure 35
0000
0010
0000
0010
,  // measure 36
0000
0100
0000
0100
,  // measure 37
0000
1000
0000
1000
,  // measure 38
0000
0100
0000
0100
,  // measure 39
0000
0001
0000
0001
,  // measure 40
0000
0010
0000
0010
,  // measure 41
0000
1000
0000
1000
,  // measure 42
0000
0001
0000
0001
,  // measure 43
0000
1000
0000
1000
,  // measure 44
0000
0001
0000
0001
,  // measure 45
0000
0010
0000
0010
,  // measure 46
0000
0100
0000
0100
,  // measure 47
0000
0010
0000
0010
,  // measure 48
0000
0100
0000
0100
,  // measure 49
0000
0000
0000
0000
,  // measure 50
0000
0000
0000
0000
,  // measure 51
0000
0000
0000
0000
,  // measure 52
0000
0000
0000
0000
,  // measure 53
1000
1000
1000
0000
,  // measure 54
0001
0001
0001
0000
,  // measure 55
1000
1000
1000
0000
,  // measure 56
0001
0001
0001
0000
,  // measure 57
0010
0010
0010
0000
,  // measure 58
0100
0100
0100
0000
,  // measure 59
0010
0000
0100
0000
,  // measure 60
0010
0000
0100
0000
,  // measure 61
2002
0000
0000
0000
,  // measure 62
0000
0000
0000
3003
,  // measure 63
0100
0100
0100
0000
,  // measure 64
0010
0010
0010
0000
,  // measure 65
0001
0001
0001
0000
,  // measure 66
1000
1000
1000
0000
,  // measure 67
0001
0000
0001
0000
,  // measure 68
1000
0000
1000
0000
,  // measure 69
0100
0100
0100
0000
,  // measure 70
0010
0010
0010
0000
,  // measure 71
0100
0100
0100
0000
,  // measure 72
0010
0010
0010
0000
,  // measure 73
1000
1000
1000
0000
,  // measure 74
0001
0001
0001
0000
,  // measure 75
1000
0100
1000
0000
,  // measure 76
0001
0100
0001
0000
,  // measure 77
0010
0000
0000
0000
;
