#VERSION:0.81;
#TITLE:Close the World feat.a☆ru;
#SUBTITLE:;
#ARTIST:天叢雲剣;
#TITLETRANSLIT:Close the World feat.aru;
#SUBTITLETRANSLIT:;
#ARTISTTRANSLIT:Ama-no-Murakumo-no-Tsurugi;
#GENRE:;
#ORIGIN:;
#CREDIT:;
#BANNER:Close the World feat.aru-bn.png;
#BACKGROUND:Close the World feat.aru-bg.png;
#PREVIEWVID:;
#JACKET:;
#CDIMAGE:;
#DISCIMAGE:;
#LYRICSPATH:;
#CDTITLE:;
#MUSIC:Close the World feat.aru.mp3;
#OFFSET:-5.110;
#SAMPLESTART:35.060;
#SAMPLELENGTH:10.400;
#SELECTABLE:YES;
#DISPLAYBPM:*;
#BPMS:0.000=188.000,
24.000=94.000,
40.000=188.000,
72.000=375.999,
224.000=94.000,
240.000=188.000,
284.000=375.999;
#STOPS:71.500=1.280;
#DELAYS:;
#WARPS:;
#TIMESIGNATURES:0.000=4=4;
#TICKCOUNTS:0.000=4;
#COMBOS:0.000=1;
#SPEEDS:0.000=1.000=0.000=0;
#SCROLLS:0.000=1.000;
#FAKES:;
#LABELS:0.000=Song Start;
#BGCHANGES:;
#KEYSOUNDS:;
#ATTACKS:
;

//---------------dance-single - ----------------
#NOTEDATA:;
#CHARTNAME:;
#STEPSTYPE:dance-single;
#DESCRIPTION:;
#CHARTSTYLE:;
#DIFFICULTY:Hard;
#METER:17;
#RADARVALUES:0.864,1.000,0.629,0.347,0.219,613.000,76.000,42.000,0.000,0.000,0.000,0.000,0.000,0.864,1.000,0.629,0.347,0.219,613.000,76.000,42.000,0.000,0.000,0.000,0.000,0.000;
#CREDIT:;
#NOTES:
// measure 0
0000
0000
0000
0000
,  // measure 1
1000
0100
0001
0100
1000
0100
0001
0100
,  // measure 2
1000
0010
1000
0001
0010
1000
0010
0001
,  // measure 3
1000
0100
0010
0001
1000
0100
1000
0001
,  // measure 4
0000
0101
0000
1100
1100
0000
0101
0000
,  // measure 5
0110
0000
1000
0100
0010
0000
0001
0010
0100
0000
0000
0000
0000
0000
0000
0000
,  // measure 6
1000
0000
0100
1000
0100
0010
0001
0010
0100
0000
0000
0100
1000
0100
0010
0001
,  // measure 7
1000
0000
0000
0000
0000
0000
0100
0000
1000
0000
0001
0000
0100
0000
0001
0000
0010
0000
0000
0000
0000
0000
0010
0000
0010
0000
1000
0000
0001
1000
0001
1000
,  // measure 8
0001
0000
0000
0100
0100
1000
0001
0100
0001
0000
0000
0100
1000
0001
0001
0010
,  // measure 9
0100
0000
0000
1000
0100
0010
0001
1000
0100
0000
1001
1001
0000
0000
0000
0000
,  // measure 10
1000
0100
1000
0100
0010
0001
0010
0000
,  // measure 11
0100
0100
1000
0001
0100
0010
1000
0000
,  // measure 12
1100
2200
3300
0000
0101
0202
0303
0000
,  // measure 13
0001
0010
0100
1001
0000
0100
0100
0010
,  // measure 14
0001
1000
0100
1000
0001
0100
0001
1010
,  // measure 15
0000
0100
0100
1000
0001
0100
0001
0011
,  // measure 16
0000
0010
0010
1000
0000
0110
0110
1001
,  // measure 17
0000
0000
0000
0000
0000
0000
0000
0000
0001
0000
0000
0000
0000
0000
0000
0000
1000
0000
0000
0000
0000
0000
0000
0000
0100
0000
0000
0000
0000
0000
0000
0000
0010
0000
0000
0000
0000
0000
0000
0000
0001
0000
0000
0000
0000
0000
0000
0000
1000
0000
0000
0000
0000
0000
0000
0000
0220
0330
0000
0000
0000
0000
0000
0000
,  // measure 18
1001
0010
0001
0100
,  // measure 19
0001
1000
0100
0010
,  // measure 20
0001
0100
0100
0010
,  // measure 21
0010
0001
0001
1000
,  // measure 22
1000
0010
0100
1000
,  // measure 23
0001
0010
0100
1000
,  // measure 24
0001
0100
0001
1000
,  // measure 25
0100
1000
0100
1000
0100
0000
1001
0000
,  // measure 26
0000
0100
1000
0100
,  // measure 27
0001
0100
1000
0100
,  // measure 28
0100
0010
0001
0100
,  // measure 29
0010
0100
1000
0100
,  // measure 30
0001
1000
0100
0010
,  // measure 31
0001
1000
0100
0001
,  // measure 32
0000
0101
0101
0000
,  // measure 33
1000
0100
0010
0001
0010
0100
1000
0000
,  // measure 34
0110
0000
0100
0001
,  // measure 35
0100
0010
1000
0100
,  // measure 36
0001
0100
1000
0001
,  // measure 37
1000
0010
0100
1000
,  // measure 38
0001
0010
1000
0100
,  // measure 39
0010
0001
0010
0100
,  // measure 40
0001
0100
0001
1000
,  // measure 41
0100
0001
1000
0001
0100
0000
1001
0000
,  // measure 42
0000
0100
1000
0100
,  // measure 43
0010
0100
0010
0001
,  // measure 44
0100
1000
0001
0100
,  // measure 45
0001
1000
0100
0010
,  // measure 46
0010
0010
1000
1000
,  // measure 47
0100
0100
0001
0001
,  // measure 48
0022
0033
0000
0000
0220
0330
0000
0000
,  // measure 49
2200
0000
3300
0000
0000
0000
0000
0000
0202
0303
0000
0000
2002
3003
0000
0000
,  // measure 50
0000
1000
0100
0010
,  // measure 51
0001
1000
0100
1000
,  // measure 52
0001
0000
0000
0000
0202
0303
0000
0000
,  // measure 53
2200
3300
0000
0000
0110
0000
2002
3003
,  // measure 54
0000
0010
1000
0100
,  // measure 55
0010
0001
0100
0010
0100
0010
1000
0001
,  // measure 56
1000
0000
0000
0000
0000
0001
0100
1000
0100
0000
0001
1000
0000
1000
0100
0000
,  // measure 57
0001
0000
0010
0000
0100
0000
1000
0000
0001
0000
0000
0000
1000
0000
0100
0000
0010
0000
0001
0000
1000
0000
0010
0000
0100
0010
0100
0000
0000
0000
0000
0000
,  // measure 58
1001
0000
1000
0000
0100
0000
0001
0010
0100
0000
1000
0100
1000
0000
0001
0000
,  // measure 59
0101
0000
0000
0000
1000
0000
0100
0000
1000
0000
0000
0000
0000
0000
0001
1000
0001
0000
0000
0000
0001
0000
0000
0000
0100
0000
0000
0000
0001
0000
0000
0000
,  // measure 60
0100
1000
0100
0010
0001
0000
0001
0010
,  // measure 61
0100
1000
0001
1000
0001
0000
0100
0100
,  // measure 62
1000
0000
0001
0000
0100
0000
0001
0000
1000
0000
0000
0000
0000
0000
0100
1000
,  // measure 63
0100
0000
0001
0000
0010
0000
0100
0000
1000
0001
1000
0001
1000
0001
1000
0001
,  // measure 64
1000
0000
0100
0100
1000
0000
1000
1000
,  // measure 65
0001
0000
0001
0001
0010
0000
0010
0010
,  // measure 66
1000
0100
1000
0001
0010
0100
1000
0001
,  // measure 67
1000
0010
1000
0010
0001
0100
0001
0100
0010
1000
0010
1000
0100
0000
0000
0000
,  // measure 68
2002
0000
0000
3003
,  // measure 69
1100
0000
0000
0000
0101
0011
0000
0110
,  // measure 70
0000
0000
1000
1000
0010
0010
0001
0100
,  // measure 71
0001
0100
1000
0100
,  // measure 72
1000
0001
0001
1000
,  // measure 73
0010
0100
1000
0001
,  // measure 74
0001
0010
0100
0010
0001
0000
0101
0000
,  // measure 75
0000
0010
0100
0001
,  // measure 76
1000
0010
0100
1000
,  // measure 77
0001
0001
1000
0100
,  // measure 78
1000
0001
0010
0100
,  // measure 79
2002
3003
0000
0000
0202
0303
0000
0000
,  // measure 80
0022
0033
0000
0000
1010
0000
1010
0000
,  // measure 81
0000
0100
0010
0001
,  // measure 82
0100
0010
1000
0010
0100
1000
0100
0000
,  // measure 83
0101
0100
0001
0010
,  // measure 84
0100
1000
0001
0001
,  // measure 85
1000
0100
1000
0001
,  // measure 86
0100
0010
0100
1000
,  // measure 87
0001
0100
0010
0100
,  // measure 88
1000
0001
0100
0001
,  // measure 89
1100
1000
0101
0100
,  // measure 90
0001
0100
1000
0100
0001
0000
1001
0000
,  // measure 91
0000
0100
1000
0100
,  // measure 92
0001
0001
1000
0010
,  // measure 93
0001
0100
1000
0001
,  // measure 94
0100
0010
0100
0001
,  // measure 95
1000
1000
0100
0100
,  // measure 96
0010
0010
0001
0001
,  // measure 97
2200
3300
0000
0000
0202
0303
0000
0000
,  // measure 98
0022
0033
0000
0000
1010
0000
1001
0000
,  // measure 99
0000
1000
0100
0001
,  // measure 100
1000
0100
1000
0001
,  // measure 101
0220
0330
0000
0000
2200
3300
0000
0000
,  // measure 102
0202
0303
0000
0000
1010
0000
0011
0000
,  // measure 103
0100
1000
0001
1000
,  // measure 104
0001
1000
0001
0100
0110
0000
0000
0000
,  // measure 105
1100
0101
0001
0010
,  // measure 106
0100
1000
0001
0001
,  // measure 107
0010
0100
1000
0001
,  // measure 108
1000
0100
0010
0001
,  // measure 109
1000
0100
0001
0100
0001
0000
0100
0000
,  // measure 110
0001
1000
0001
0010
,  // measure 111
0011
0011
0000
1010
,  // measure 112
0001
0000
0010
0000
0100
1000
0001
1000
,  // measure 113
0001
0100
0100
1000
,  // measure 114
1000
0001
0001
0010
,  // measure 115
1000
0001
0001
1000
,  // measure 116
0100
1000
0001
0100
,  // measure 117
0010
0001
0100
0010
0001
0010
0100
0010
,  // measure 118
0001
1000
0100
0010
0100
0001
0100
0000
,  // measure 119
0000
1100
0000
0110
,  // measure 120
1001
0000
1001
0000
,  // measure 121
1100
1100
0000
0101
,  // measure 122
0101
0000
1001
1001
;

//---------------dance-single - ----------------
#NOTEDATA:;
#CHARTNAME:;
#STEPSTYPE:dance-single;
#DESCRIPTION:;
#CHARTSTYLE:;
#DIFFICULTY:Medium;
#METER:11;
#RADARVALUES:0.547,0.812,0.364,0.116,0.012,405.000,44.000,14.000,0.000,0.000,0.000,0.000,0.000,0.547,0.812,0.364,0.116,0.012,405.000,44.000,14.000,0.000,0.000,0.000,0.000,0.000;
#CREDIT:;
#NOTES:
0000
0000
0000
0000
,
0100
1000
0100
0001
0000
0001
0010
1000
,
0010
0001
1000
0001
0000
1000
0100
0001
,
1000
0001
0010
0100
0000
1100
0000
0101
,
0000
0011
0000
1000
0100
0000
0001
0000
,
2000
0001
0001
3000
,
0001
0100
1000
0001
1000
0001
0010
0000
,
0100
1000
0001
0100
0010
0100
1000
0000
,
0100
0001
0010
0010
0001
1000
0100
0001
,
1001
0000
0000
0000
0000
0100
1000
0100
1000
0000
0001
0010
0000
0000
0000
0000
,
1000
1000
0001
0001
,
0100
1000
0100
0000
0001
0010
0001
0000
,
1000
1001
0000
0000
0001
1001
0000
0000
,
0100
1000
0100
1000
0000
0001
0010
0100
,
1000
0000
0001
0001
1000
0000
1000
0100
,
0010
0000
0100
0010
0001
0010
0001
0000
,
1000
0000
0100
0000
0001
0100
1000
0020
,
0000
0000
0000
0000
0000
0000
0000
0030
,
1000
0100
1000
0100
,
1000
0000
0110
0000
,
0010
0001
0010
0001
,
0010
0000
1001
0000
,
0010
0100
0010
0100
,
0010
0000
0110
0000
,
0100
0010
0001
1000
,
0100
0000
0000
1001
,
0000
0100
1000
0000
,
0001
0100
0001
0000
,
0010
0001
0010
0001
,
1000
0000
0110
0000
,
1100
0000
0101
0000
,
0011
0000
1000
0002
,
0000
0000
0000
0000
,
1000
0000
1003
0000
,
0100
0000
0100
0000
,
1000
0010
1000
0000
,
0001
0010
0001
0000
,
1000
0100
1000
0000
,
0101
0000
0011
0000
,
1001
0000
1000
0100
,
0000
0001
0010
0000
,
0100
1000
0000
0001
,
0000
0001
1000
0100
,
1000
0000
0001
0010
,
0001
0000
1000
0010
,
1000
0010
0100
0000
,
0001
0000
1000
0000
,
0100
0000
0001
0000
,
1100
0000
0101
0000
,
0011
0000
1000
2002
,
0000
0000
0000
0000
,
0000
0000
3003
0000
,
0010
0000
0110
0000
,
0110
0000
1000
2200
,
0000
0000
0000
0000
,
0000
0000
3300
0000
,
1000
0000
0001
0000
1000
0100
0001
0000
,
0001
0100
1000
0000
1000
0010
0001
0100
,
1000
1000
0100
0000
0001
0001
0010
0000
,
1000
0100
0001
0100
1000
0010
0001
0010
,
1000
1000
0100
0010
,
0001
0001
0010
0100
,
1000
0100
0001
0000
0001
0100
1000
0000
,
0010
0010
0100
0000
0100
0100
0010
0000
,
1000
1100
0100
0101
,
0001
0011
0010
1010
,
1000
1000
0001
0001
0010
0010
0100
0100
,
1000
0100
0100
0010
0001
0010
0001
1000
,
2002
0000
3003
0000
,
1100
0000
0000
0000
0001
0001
0000
2000
,
0000
0001
0001
3000
,
0100
1000
0100
1000
,
0100
1000
0001
0100
,
0001
0000
0010
0000
,
0001
1000
0010
1000
,
0000
0001
1000
0100
,
1000
0001
0100
0001
,
0010
0100
1000
0000
,
0001
1000
0001
0000
,
0100
0100
1000
1000
,
0010
0010
0001
0001
,
0000
0001
1000
0000
,
0100
1000
0100
0010
,
1001
0000
0100
1000
,
0100
0010
0001
0010
,
0100
1000
0001
0000
,
0100
0001
1000
0001
,
0100
0001
1000
0010
,
0100
0001
1000
0100
,
1000
0001
1000
0100
,
1000
0001
0001
0000
,
0000
0100
1000
0000
,
0100
1000
0100
0000
,
0010
0001
0010
0000
,
0001
0010
0001
1000
,
0100
0000
0001
0100
,
0001
1000
0100
0000
,
1100
0000
0101
0000
,
0011
0000
1000
2002
,
0000
0000
0000
0000
,
0000
0000
3003
0000
,
1100
0000
0101
0000
,
0011
0000
1000
0220
,
0000
0000
0000
0000
,
0000
0000
0330
0000
,
1000
0000
1000
0000
,
0001
0000
0001
0000
,
0100
0000
1000
0100
,
0000
0001
0100
0000
,
0001
0000
0010
0000
,
0001
0000
1000
0000
,
0001
0001
0000
1000
,
1000
1000
0000
0000
,
0010
0010
0010
0000
,
0100
0100
0100
0000
,
1000
1000
1000
0000
,
0001
0001
0001
0000
,
1000
0100
0010
0001
,
0000
0011
0000
1100
,
0000
0101
0000
1000
,
0010
0000
0001
0000
,
1000
0001
0000
0001
,
1000
0000
1001
1001
;

//---------------dance-single - ----------------
#NOTEDATA:;
#CHARTNAME:;
#STEPSTYPE:dance-single;
#DESCRIPTION:;
#CHARTSTYLE:;
#DIFFICULTY:Easy;
#METER:6;
#RADARVALUES:0.388,0.457,0.298,0.149,0.000,274.000,36.000,18.000,0.000,0.000,0.000,0.000,0.000,0.388,0.457,0.298,0.149,0.000,274.000,36.000,18.000,0.000,0.000,0.000,0.000,0.000;
#CREDIT:;
#NOTES:
0000
0000
0000
0000
,
0100
0100
0100
0100
,
0010
0010
0010
0010
,
2000
0000
0000
0000
,
3002
0000
0000
0003
,
0000
0000
0000
0000
,
1000
0100
0001
0100
,
1000
0010
0001
0010
,
1000
0100
0001
0100
,
1000
0010
0001
1001
,
0100
0100
0100
0000
,
0010
0010
0010
0000
,
2000
3000
0002
0003
,
0100
0001
1000
0010
,
2000
0000
0000
0000
,
3002
0000
0000
0000
,
1003
1000
1000
1000
,
0001
0001
0001
0001
,
1100
0000
0100
0000
,
0100
0000
0100
0000
,
0011
0000
0010
0000
,
0010
0000
0010
0000
,
1010
0000
0100
0000
,
0100
0000
0100
0000
,
0101
0000
0001
0000
,
0001
0000
1000
0001
,
0000
0000
0100
0000
,
0100
0000
1000
0000
,
0001
0000
0010
0000
,
0100
0000
1000
0000
,
1100
0000
0101
0000
,
0011
0000
1010
0000
,
2002
0000
0000
0000
,
0000
0000
3003
0000
,
0100
0000
0100
0000
,
1000
0000
1000
0000
,
0010
0000
0010
0000
,
0001
0000
0001
0000
,
1000
0000
1000
0000
,
0001
0000
0001
0000
,
0010
0000
0100
0000
,
1000
0000
0000
0101
,
0000
0000
1000
0000
,
0100
0000
0001
0000
,
0100
0000
1000
0000
,
0010
0000
0001
0000
,
1000
0000
1000
0000
,
0001
0000
0001
0000
,
1000
0000
1100
0000
,
0101
0000
1000
0001
,
0000
1000
0100
0000
,
0001
0000
0100
0000
,
0011
0000
1010
0000
,
1001
0000
1000
0010
,
0000
0001
0010
0000
,
0100
0000
1000
0000
,
0002
0000
2003
0000
,
3002
0000
2003
0000
,
3020
0000
0230
0000
,
0320
0000
0230
0000
,
1300
1000
0100
0100
,
0001
0001
0100
0100
,
1000
1000
0010
0010
,
0001
0001
0010
0010
,
1000
1000
1000
1000
,
0001
0001
0001
0001
,
0010
0100
0010
0100
,
0010
0010
0100
0100
,
1001
0000
0000
0000
,
1000
0100
0001
0000
,
0001
0010
1000
0000
,
0001
0000
0100
0000
,
1000
0000
0100
0000
,
0001
0000
0010
0000
,
1000
0000
0000
1001
,
0000
0000
1000
0000
,
0010
0000
0001
0000
,
0010
0000
1000
0000
,
0100
0000
0001
0000
,
1000
0000
0001
0000
,
1000
0000
0100
1000
,
0000
0001
0010
0000
,
1001
0000
0101
0000
,
1001
0000
0010
0000
,
0100
0000
1000
0000
,
0001
0000
1000
0000
,
0100
0000
0010
0000
,
0100
0000
0001
0000
,
1000
0000
0100
0000
,
0010
0000
0100
0000
,
1000
0100
0010
0001
,
0000
0000
1000
0000
,
1000
0000
0001
0000
,
0001
0000
0010
0000
,
0100
0000
1000
0000
,
0001
0000
0001
0000
,
1000
0000
1000
0000
,
1100
0000
0101
0000
,
0011
0000
1010
0110
,
0000
0000
0000
0000
,
0000
0000
1100
0000
,
0101
0000
1100
0000
,
1001
0000
0011
0220
,
0000
0000
0000
0000
,
0000
0000
0330
0000
,
1000
0000
1000
0000
,
0001
0000
0001
0000
,
0010
0000
1000
0100
,
0000
0001
0010
0000
,
0100
0000
1000
0000
,
0001
0000
0100
0000
,
1000
1000
0000
0001
,
0001
0001
0000
0000
,
0010
0000
0010
0000
,
0100
0100
0100
0000
,
0001
0000
1000
0000
,
0010
0010
0010
0000
,
1000
0000
0001
0000
,
0100
0000
1000
0000
,
0001
0000
0100
0000
,
0001
0000
1000
0000
,
1100
0000
0001
0000
,
0101
0000
1001
1001
;

//---------------dance-single - ----------------
#NOTEDATA:;
#CHARTNAME:;
#STEPSTYPE:dance-single;
#DESCRIPTION:;
#CHARTSTYLE:;
#DIFFICULTY:Beginner;
#METER:3;
#RADARVALUES:0.208,0.253,0.157,0.074,0.000,148.000,19.000,9.000,0.000,0.000,0.000,0.000,0.000,0.208,0.253,0.157,0.074,0.000,148.000,19.000,9.000,0.000,0.000,0.000,0.000,0.000;
#CREDIT:;
#NOTES:
0000
0000
0000
0000
,
1000
0000
0000
0000
,
1000
0000
0000
0000
,
0001
0000
0000
0000
,
0002
0000
0000
0000
,
0003
0000
0000
0000
,
0100
0000
0000
0000
,
0010
0000
0000
0000
,
0100
0000
0000
0000
,
0010
0000
0000
0000
,
1000
0000
1000
0000
,
0001
0000
0001
0000
,
1000
0000
0001
0000
,
1001
0000
0000
0000
,
0010
0000
0010
0000
,
0100
0000
0100
0000
,
0010
0000
0100
0000
,
0010
0000
0110
0000
,
0100
0000
0000
0000
,
0100
0000
0000
0000
,
0010
0000
0000
0000
,
0010
0000
0000
0000
,
1000
0000
0000
0000
,
1000
0000
0000
0000
,
0001
0000
0000
0000
,
0001
0000
0000
0000
,
1000
0000
0000
0000
,
0100
0000
0000
0000
,
0001
0000
0000
0000
,
0100
0000
0000
0000
,
2000
0000
0000
0000
,
0000
0000
0000
3000
,
0000
0000
0000
0000
,
0000
0000
0000
0000
,
1001
0000
0000
0000
,
0000
0000
0000
0000
,
0110
0000
0000
0000
,
0000
0000
0000
0000
,
1001
0000
0000
0000
,
0000
0000
0000
0000
,
0110
0000
0000
0000
,
0000
0000
0000
1001
,
0000
0000
0000
0000
,
1000
0000
0000
0000
,
1000
0000
0000
0000
,
0001
0000
0000
0000
,
0002
0000
0000
0000
,
0000
0000
0000
0000
,
2003
0000
0000
0000
,
0000
0000
0000
0000
,
3020
0000
0000
0000
,
0000
0000
0000
0000
,
0230
0000
0000
0000
,
0000
0000
0000
0000
,
0302
0000
0000
0000
,
0000
0000
0000
0003
,
1000
0000
0100
0000
,
0001
0000
0200
0000
,
1300
0000
0010
0000
,
0002
0000
0103
0000
,
1000
0000
1000
0000
,
0001
0000
0001
0000
,
0100
0000
0100
0000
,
0001
0000
0001
0000
,
0010
0000
0010
0000
,
1000
0000
0001
0000
,
0100
0000
0010
0000
,
1000
1000
1000
0000
,
1001
0000
0000
0000
,
0001
0001
0001
0000
,
0010
0010
0010
0000
,
1000
0000
1000
0000
,
1000
0000
0000
0000
,
0100
0000
0100
0000
,
0100
0000
0000
0001
,
0000
0000
1000
0000
,
0100
0000
0000
0000
,
0001
0000
0100
0000
,
1000
0000
0000
0000
,
0010
0000
0001
0000
,
1000
0000
0000
1001
,
0000
0000
0000
0000
,
0000
0000
0000
0000
,
1000
0000
1000
0000
,
0100
0000
0100
0000
,
0001
0000
0001
0000
,
0100
0000
0100
0000
,
1000
0000
1000
0000
,
0010
0000
0010
0000
,
0001
0000
0001
0000
,
1000
0000
0000
1001
,
0000
0000
0000
0000
,
0100
0000
1000
0000
,
0001
0000
0010
0000
,
0100
0000
1000
0000
,
0001
0000
0100
0000
,
0001
0000
1000
0000
,
0110
0000
0000
0000
,
0110
0000
0000
1001
,
0000
0000
0000
0000
,
0000
0000
0000
0000
,
0110
0000
0000
0000
,
1001
0000
0000
1001
,
0000
0000
0000
0000
,
0000
0000
0000
0000
,
0100
0000
0100
0000
,
0000
0000
0000
0000
,
0010
0000
0010
0000
,
0000
0000
0000
0000
,
1000
0000
1000
0000
,
0000
0000
0000
0000
,
0001
0000
0001
0000
,
0000
0000
0000
0000
,
1000
0000
0000
0000
,
0001
0000
0000
0000
,
1000
0000
0000
0000
,
0001
0000
0000
0000
,
0100
0000
0000
0000
,
1000
0000
0000
0000
,
0100
0000
0000
0000
,
0001
0000
0000
0000
,
1001
0000
0000
1001
,
0000
0000
1001
0000
;
