#TITLE:CHRONO DIVER -NORNIR-;
#SUBTITLE:(Nhato Remix);
#ARTIST:Nhato rearranged by reiji_suzuki;
#TITLETRANSLIT:;
#SUBTITLETRANSLIT:;
#ARTISTTRANSLIT:;
#GENRE:;
#CREDIT:;
#BANNER:CHRONO DIVER -NORNIR- (Nhato Rearranged Remix)-bn.jpg;
#BACKGROUND:CHRONO DIVER -NORNIR- (Nhato Rearranged Remix)-bg.png;
#LYRICSPATH:;
#CDTITLE:;
#MUSIC:CHRONO DIVER -NORNIR- (Nhato Rearranged Remix).mp3;
#OFFSET:-5.240;
#SAMPLESTART:72.660;
#SAMPLELENGTH:20.120;
#SELECTABLE:YES;
#BPMS:0.000=185.000
,16.000=92.500
,80.000=185.000
,144.000=92.500
,190.000=185.000
;
#STOPS:144.000=0.700,
175.000=0.640
;
#BGCHANGES:;
#KEYSOUNDS:;
#ATTACKS:;

//---------------dance-single - ----------------
#NOTES:
     dance-single:
     :
     Hard:
     14:
     0.590,0.763,0.417,0.112,0.533,449.000,52.000,14.000,0.000,0.000,0.000,0.590,0.763,0.417,0.112,0.533,449.000,52.000,14.000,0.000,0.000,0.000: // measure 0
0000
0000
0000
0000
,  // measure 1
0000
0000
0000
0000
,  // measure 2
0000
0000
0000
0000
,  // measure 3
0000
0000
0000
0000
,  // measure 4
1100
0000
0000
0001
0000
0000
1100
0000
0001
0000
0000
1100
0000
0000
0001
0000
,  // measure 5
1100
0000
0000
0001
0000
0000
1100
0000
0001
0000
0000
1100
0000
0000
0001
0000
,  // measure 6
0101
0000
0000
1000
0000
0000
0101
0000
1000
0000
0000
0101
0000
0000
1000
0000
,  // measure 7
0101
0000
0000
0000
0000
0000
1000
0000
0000
0000
0000
0000
0101
0000
0000
0000
1000
0000
0000
0000
0000
0000
0101
0000
0000
0000
0000
0000
1000
0001
1000
0001
,  // measure 8
1000
0000
0000
0100
0000
0000
1000
0000
2001
0000
0000
0010
3000
0000
0001
0000
,  // measure 9
1002
0000
0000
0100
0003
0000
1000
0000
2001
0000
0000
0001
3000
0000
0100
0000
,  // measure 10
0210
0000
0000
0010
0300
0000
0010
0000
0120
0000
0000
0100
0030
0000
0100
0000
,  // measure 11
0210
0000
0000
0010
0300
0000
0010
0000
0220
0000
0000
0000
0330
0000
0000
0000
,  // measure 12
1000
0100
0010
0001
0000
1000
0000
0001
1000
0000
0001
0000
1100
0000
0000
0000
,  // measure 13
0001
0100
0010
1000
0000
0100
0000
0001
0000
1000
0000
0100
0000
0001
0000
0000
,  // measure 14
0100
1000
0010
0001
0000
1000
0000
1100
0000
0000
0001
0000
0101
0000
0000
0000
,  // measure 15
0010
1000
0100
0001
0000
1000
0000
0100
0000
0001
0000
1000
0100
0010
0001
1000
,  // measure 16
0100
0001
1000
0001
0000
0100
0000
0020
0000
0000
0000
0000
0030
0000
0000
0000
,  // measure 17
0001
0100
1000
0010
0000
0001
0000
1000
0000
0100
0000
0001
0000
1000
0000
0100
,  // measure 18
1000
0001
0010
0001
0000
1000
0000
0200
0000
0000
0000
0000
0300
0000
0000
0000
,  // measure 19
1000
0100
0010
0001
0000
1000
0000
0100
0000
0000
0000
1000
0000
0001
1000
0100
,  // measure 20
1001
0000
1000
0100
0000
0001
0100
0000
,  // measure 21
1000
0010
0000
1000
0001
0010
0100
1000
,  // measure 22
0001
0000
0100
1000
0000
0001
0100
0000
,  // measure 23
0010
0001
0000
1000
0100
1000
0001
0100
,  // measure 24
0001
0000
0010
0100
0000
0100
0010
0000
,  // measure 25
1000
0001
0000
0001
1000
0000
1000
0100
,  // measure 26
0010
0000
0001
0001
0000
1000
1000
0000
,  // measure 27
0100
0100
0000
0010
0001
1000
0100
1000
,  // measure 28
0001
0101
1000
1010
,  // measure 29
0001
0011
1000
1100
,  // measure 30
0001
1001
1000
1001
,  // measure 31
0100
0110
0010
0110
,  // measure 32
1000
1000
0100
0100
0010
0010
0001
0001
,  // measure 33
1000
1000
0100
0100
0001
0001
0010
0010
,  // measure 34
1000
0100
1000
0100
0001
0100
0001
0100
1000
0001
0100
0001
0010
0001
0100
0001
,  // measure 35
2000
0000
0100
0000
0001
0001
3001
0000
,  // measure 36
0000
0000
0000
0100
0000
1000
0001
0000
1100
0000
0001
0000
0000
0100
0000
1100
,  // measure 37
0000
0001
0000
0100
0001
0000
0010
0000
1001
0000
0010
0000
1100
0000
0101
0000
,  // measure 38
0000
0010
0000
0100
0000
1000
0001
0000
0100
0000
0101
0000
0000
1000
0000
0100
,  // measure 39
0000
1000
0100
0010
0001
1000
0100
1000
0001
0000
0001
0000
1000
0100
1000
0000
,  // measure 40
0001
0000
0100
0001
0000
0100
0010
0000
1001
0000
0110
0000
0000
1100
0000
0101
,  // measure 41
0000
0100
0000
1000
0001
0000
0100
0000
0101
0000
0001
0000
0010
0000
0011
0000
,  // measure 42
1000
0000
1010
0000
1000
0100
0010
0001
1000
0100
1000
0001
0100
0001
0001
1000
,  // measure 43
0100
1000
0001
0100
0010
1000
0100
1000
0001
0100
0010
0100
0001
0000
0000
0000
,  // measure 44
0100
1000
0100
0010
0001
1000
0100
0000
0001
0100
0001
1000
0100
0010
0001
1000
,  // measure 45
0100
0100
1000
0001
0100
0001
1000
0000
1000
1000
0100
0100
0010
0010
0001
0001
,  // measure 46
1000
0100
0010
0001
0010
0100
1000
0000
0001
0100
0001
1000
0010
0100
1000
0001
,  // measure 47
0100
0010
1000
0100
1000
0000
0001
0000
1000
0000
1000
0000
0100
0000
0100
0000
,  // measure 48
0010
0010
0001
0001
1000
0100
0001
0010
,  // measure 49
0010
0001
0100
1000
0001
0001
0100
0100
,  // measure 50
1000
1000
0010
0010
0001
0001
0010
0010
,  // measure 51
0100
0100
1000
1000
0001
1000
0100
1000
,  // measure 52
0001
0100
0001
1000
0100
0100
1000
1000
,  // measure 53
0001
0001
0010
0010
0200
0000
0000
2300
,  // measure 54
0000
3002
0000
1003
0100
0010
0001
1000
,  // measure 55
0100
1000
0001
1000
0001
0000
0101
0000
,  // measure 56
0001
0011
0010
0110
,  // measure 57
0100
0110
1000
1100
,  // measure 58
1000
1010
1000
1001
,  // measure 59
1000
1001
1000
0100
,  // measure 60
0010
0001
0001
0010
,  // measure 61
0100
1000
1000
0001
,  // measure 62
1000
0000
0001
0000
1000
1000
0100
0100
,  // measure 63
0010
0100
0010
0100
0001
1000
0001
1000
0000
0000
0000
0000
0000
0000
0000
0000
;

//---------------dance-single - ----------------
#NOTES:
     dance-single:
     :
     Medium:
     8:
     0.364,0.405,0.072,0.064,0.028,301.000,9.000,8.000,0.000,0.000,0.000,0.364,0.405,0.072,0.064,0.028,301.000,9.000,8.000,0.000,0.000,0.000:
0000
0000
0000
0000
,
0000
0000
0000
0000
,
0000
0000
0000
0000
,
0000
0000
0000
0000
,
2001
0000
0000
0100
0001
0000
0000
0001
,
0010
0000
0000
0100
0001
0000
0000
0000
,
3002
0000
0000
0100
1000
0000
0000
0010
,
0100
0000
0000
1000
0100
0000
0003
0000
,
1001
0000
0000
0001
0000
0000
0001
0000
0010
0000
0000
0010
0000
0000
0010
0000
,
1000
0000
0000
1000
0000
0000
1000
0000
0100
0000
0000
0100
0000
0000
0100
0000
,
0001
0000
0000
0001
0000
0000
0001
0000
0100
0000
0000
0100
0000
0000
0100
0000
,
1000
0000
0000
1000
0000
0000
1000
0000
0010
0000
0000
0000
1010
0000
0000
0000
,
1000
0100
0001
0000
0100
1000
0001
0000
,
0010
0100
0010
0000
0100
0010
1000
0000
,
0100
1000
0001
0000
0100
1000
0100
0000
,
0010
0001
0100
0000
0010
0001
0010
0000
,
2000
0000
0000
0001
0001
0000
3000
0000
,
0002
0000
0000
1000
1000
1000
1000
1003
,
0020
0000
0000
0100
0100
0000
0030
0000
,
1000
0100
0000
0100
1000
0000
0001
0100
,
1000
0001
0001
1000
,
0100
1000
0100
1000
0100
0000
0000
0000
,
0001
0100
0010
1000
,
0100
0000
0010
0000
0001
0010
0001
0010
,
0001
1000
1000
0100
,
0001
0000
0010
0100
0010
0000
0000
0000
,
0001
0100
1000
0100
,
0001
0000
0100
0000
1000
0100
0001
0000
,
0010
0010
0100
0100
,
0010
0010
0100
0100
,
1000
1000
0001
0001
,
1000
1000
0001
0001
,
1000
1000
1000
0000
0001
0001
0001
0000
,
0010
0010
0010
0000
0100
0100
0100
0000
,
1000
0100
0010
0001
0010
0100
1000
0000
,
1001
1100
0101
1001
,
0000
0000
0000
1000
0100
0001
0100
0000
,
1000
0001
0010
0100
1001
0000
0100
0001
,
1000
0100
0001
1000
0100
0000
0010
0100
,
0001
0100
1000
0001
0010
0000
1000
1000
,
0001
0001
0100
0100
0010
0000
1000
0100
,
0001
0000
0001
0100
1000
0000
1000
1000
,
0001
0001
0100
0001
0010
1000
0100
0100
,
1000
1000
0010
0010
0001
0001
2000
0000
,
0000
0000
3001
0000
0100
0100
1000
1000
,
0001
0001
0010
0010
0100
0000
0001
0000
,
1000
1000
0100
0001
0100
0000
1000
0001
,
0100
1000
0001
0000
1000
0000
1000
0000
,
0001
0001
0001
0000
0010
0010
0010
0000
,
0100
0100
0100
0000
1000
0000
0001
0000
,
0100
0100
0100
0000
1000
1000
1000
0000
,
0010
0010
0010
0000
1000
0000
1000
0000
,
0001
0000
0001
0000
0100
1000
0001
0000
,
0100
0010
2002
0000
,
0000
0000
0000
0000
,
0000
3003
0100
0100
,
1000
0000
0001
1000
0001
0000
1000
0000
,
0100
0000
0010
0100
0010
0000
0001
0000
,
0001
0000
1000
0100
1000
0000
0001
0000
,
0100
0000
0001
0010
0001
0000
1000
0000
,
0010
0000
0100
1000
0001
0000
0100
0000
,
0100
0000
1000
0001
0010
0000
0100
0000
,
0001
0000
1000
0000
1000
0100
0010
0001
,
0010
0100
1000
0000
0000
0000
0000
0000
;

//---------------dance-single - ----------------
#NOTES:
     dance-single:
     :
     Easy:
     6:
     0.267,0.253,0.160,0.192,0.000,189.000,20.000,24.000,0.000,0.000,0.000,0.267,0.253,0.160,0.192,0.000,189.000,20.000,24.000,0.000,0.000,0.000:
0000
0000
0000
0000
,
0000
0000
0000
0000
,
0000
0000
0000
0000
,
0000
0000
0000
0000
,
2000
0000
3200
0000
,
0302
0000
0023
0000
,
2030
0000
3020
0000
,
0032
0000
0203
0000
,
2300
0000
3002
0000
,
2003
0000
3002
0000
,
0023
0000
0230
0000
,
0320
0000
0230
0000
,
1300
1000
0001
0001
,
1000
1000
0001
0001
,
0010
0010
0100
0100
,
0010
0010
0100
0100
,
2000
0000
0001
0000
,
3002
0000
1000
0000
,
0023
0000
0100
0000
,
0230
0000
0010
0000
,
1300
1000
1000
1000
,
0001
0001
0001
0001
,
0010
0010
0010
0010
,
0100
0100
0100
0100
,
1000
0100
0001
0100
,
1000
0100
0001
0000
,
0001
0100
1000
0100
,
0001
0100
1000
0000
,
0001
0000
1001
0000
,
1000
0000
1001
0000
,
0001
0000
1001
0000
,
1000
0000
1001
0000
,
0010
0000
0110
0000
,
0100
0000
0110
0000
,
0010
0010
0100
0100
,
0220
0000
0000
0330
,
0000
0000
1001
0000
,
1001
0000
1001
0000
,
0110
0000
0110
0000
,
0110
0000
1100
0101
,
0001
1000
1001
0001
,
0010
1000
0011
1000
,
1010
1000
0001
1000
,
0100
0001
0100
1001
,
0100
1001
0010
1000
,
0001
0100
1000
1000
,
0001
0001
0100
1000
,
0001
1000
0100
0100
,
1000
1000
0001
0001
,
0010
0010
0100
0100
,
0001
0001
0010
0010
,
1000
1000
0001
0001
,
0010
0010
1000
1000
,
0100
0100
2000
0100
,
0100
0100
3002
0100
,
0100
0103
1000
1000
,
0001
0001
0010
0010
,
0100
0100
1000
1000
,
0100
0100
0001
0001
,
0100
0100
1000
1000
,
0010
0010
0001
0001
,
0010
0010
1000
0100
,
0001
0010
0010
0001
,
0100
1000
0000
0000
;

//---------------dance-single - ----------------
#NOTES:
     dance-single:
     :
     Beginner:
     3:
     0.133,0.177,0.040,0.096,0.000,99.000,5.000,12.000,0.000,0.000,0.000,0.133,0.177,0.040,0.096,0.000,99.000,5.000,12.000,0.000,0.000,0.000:
0000
0000
0000
0000
,
0000
0000
0000
0000
,
0000
0000
0000
0000
,
0000
0000
0000
0000
,
2000
0000
0000
3000
,
0002
0000
0000
0003
,
0020
0000
0000
0030
,
0200
0000
0000
0300
,
1000
0000
1000
0000
,
0001
0000
0001
0000
,
0010
0000
0010
0000
,
0100
0000
0100
0000
,
1000
1000
1000
0000
,
0001
0001
0001
0000
,
0100
0100
0100
0000
,
0010
0010
0010
0000
,
1000
0000
0001
0000
,
1000
0000
0001
0000
,
0100
0000
0010
0000
,
0100
0000
0010
0000
,
0001
0000
0000
0000
,
1000
0000
0000
0000
,
0001
0000
0000
0000
,
1000
0000
0000
0000
,
0010
0000
0000
0000
,
0100
0000
0000
0000
,
0010
0000
0000
0000
,
0100
0000
0000
0000
,
1000
0000
1000
0000
,
0001
0000
0001
0000
,
1000
0000
0001
0000
,
1000
0000
0001
0000
,
0010
0000
0010
0000
,
0100
0000
0100
0000
,
0020
0000
0000
0030
,
0200
0000
0000
0300
,
0000
0000
1001
0000
,
0000
0000
1001
0000
,
0000
0000
0110
0000
,
0000
0000
0110
0000
,
1000
0000
1000
0000
,
0001
0000
0001
0000
,
0100
0000
0100
0000
,
0010
0000
0010
0000
,
1000
0000
1000
0000
,
0100
0000
0100
0000
,
0001
0000
0001
0000
,
0010
0000
0020
0000
,
0000
0030
2000
0000
,
0000
3000
0002
0000
,
0000
0003
0200
0000
,
0000
0300
1000
0000
,
1000
0000
0001
0000
,
0001
0000
2002
0000
,
0000
0000
0000
0000
,
0000
3003
1000
0000
,
1000
0000
0001
0000
,
0001
0000
0100
0000
,
0100
0000
0010
0000
,
0010
0000
1000
0000
,
1000
0000
0100
0000
,
0100
0000
0001
0000
,
0001
0000
0010
0010
,
0010
0000
0000
0000
;
