#TITLE:BLACK or WHITE?;
#SUBTITLE:;
#ARTIST:BlackYooh vs. siromaru;
#TITLETRANSLIT:;
#SUBTITLETRANSLIT:;
#ARTISTTRANSLIT:;
#GENRE:;
#CREDIT:;
#BANNER:BLACK or WHITE bn.png;
#BACKGROUND:BLACK or WHITE bg.jpg;
#LYRICSPATH:;
#CDTITLE:;
#MUSIC:BLACK or WHITE.mp3;
#OFFSET:-0.620;
#SAMPLESTART:53.340;
#SAMPLELENGTH:12.000;
#SELECTABLE:YES;
#BPMS:0.000=185.000
;
#STOPS:
;
#BGCHANGES:;
#KEYSOUNDS:;
#ATTACKS:;

//---------------dance-single - ----------------
#NOTES:
     dance-single:
     :
     Hard:
     16:
     0.845,1.000,0.775,0.759,0.309,531.000,94.000,92.000,0.000,8.000,0.000,0.845,1.000,0.775,0.759,0.309,531.000,94.000,92.000,0.000,8.000,0.000: // measure 0
0000
0000
0000
0000
,  // measure 1
0000
0000
0000
0000
,  // measure 2
0000
0000
0000
0000
,  // measure 3
0000
0000
0000
0000
,  // measure 4
0000
0000
0000
0000
,  // measure 5
0000
0000
0000
0000
,  // measure 6
1100
0100
0010
0001
0011
0100
0010
1000
,  // measure 7
0000
0000
0000
0000
1000
0100
0010
0001
0010
0100
1000
0100
0010
0000
0000
0000
,  // measure 8
1001
1000
0100
0010
0100
0010
0001
0100
,  // measure 9
1000
0000
0100
0000
0001
0000
0010
0000
1000
0000
0001
0000
1000
0100
1000
0100
,  // measure 10
0001
0100
0010
0100
1000
0010
0001
0010
,  // measure 11
1000
0000
0100
0000
0001
0000
0100
0000
0010
0000
1000
0000
0001
0100
0010
0100
,  // measure 12
0010
1000
0100
1000
0001
0010
0100
1000
,  // measure 13
0100
0000
0001
0000
0010
0000
0100
0000
0010
0000
0001
0000
0100
1000
0001
1000
,  // measure 14
0010
0100
0010
1000
0100
0001
0100
1000
,  // measure 15
0001
0001
0100
0100
0220
0000
0330
0000
,  // measure 16
1000
0100
1000
0000
0202
0000
0303
0000
0001
0100
0001
0000
2020
0000
3030
0000
,  // measure 17
1000
0010
1000
0000
0022
0000
0033
0000
0001
0010
0001
0000
2200
0000
3300
0000
,  // measure 18
0010
0100
0010
0000
2002
0000
3003
0000
0001
1000
0001
0000
0220
0000
0330
0000
,  // measure 19
1000
0000
0000
0100
0000
0000
0010
0000
0000
0000
0000
0000
2002
0000
0000
0000
0000
0000
3003
0000
0000
0000
0000
0000
0001
0000
0000
0000
0100
0000
0000
0000
0001
0000
0000
0000
0010
0000
0000
0000
1000
0000
0000
0000
0010
0000
0000
0000
,  // measure 20
1001
0001
1000
1000
0110
0100
0010
0010
,  // measure 21
1100
1000
0100
0100
0011
0010
0001
0001
,  // measure 22
1010
1000
0010
0010
0101
0100
0001
0001
,  // measure 23
1000
0000
0100
0000
0001
0000
0010
0000
1000
0010
1000
0010
0001
0100
0001
0100
,  // measure 24
2002
0000
0000
0000
0000
0000
0000
0003
,  // measure 25
0200
0320
0032
3003
,  // measure 26
0220
0000
0000
0030
,  // measure 27
0002
2003
3020
0330
,  // measure 28
2002
0000
0000
3000
,  // measure 29
0020
2030
3200
0303
,  // measure 30
0220
0000
0000
0300
,  // measure 31
2000
3200
0302
0033
,  // measure 32
1000
0100
0010
0100
0001
1000
0010
0100
,  // measure 33
0001
0000
1000
0000
0100
0000
0010
0000
0001
0100
0001
1000
0010
0000
0000
0000
,  // measure 34
0100
0010
1000
0001
0010
0001
0100
1000
,  // measure 35
0100
0000
0010
0000
1000
0000
0001
0000
0100
1000
0010
1000
0001
0000
0000
0000
,  // measure 36
0010
1000
0100
1000
0001
0100
0010
0100
,  // measure 37
1000
0000
0100
0000
0001
0000
0010
0000
0010
0100
0001
0100
1000
0000
0000
0000
,  // measure 38
0001
0100
0010
1000
0100
0001
0100
1000
,  // measure 39
0001
0000
0000
0001
0000
0000
0100
0000
0000
0100
0000
0000
1000
0000
0100
0000
0001
0000
2002
0000
0000
3003
0000
0000
,  // measure 40
1001
0000
1100
0001
0010
1000
0100
0001
,  // measure 41
2200
3300
0202
0303
2200
3300
0202
0303
,  // measure 42
1001
0000
0101
1000
0100
0001
0010
1000
,  // measure 43
2200
0000
0000
3300
0000
0000
0202
0000
0000
0303
0000
0000
1000
0000
0100
0000
0001
0000
0100
0000
1000
0000
0100
0000
,  // measure 44
1001
0000
1010
0001
0100
1000
0010
0001
,  // measure 45
2020
3030
0022
0033
2020
3030
0022
0033
,  // measure 46
1001
0000
0011
1000
0010
0001
0100
1000
,  // measure 47
2020
0000
0000
3030
0000
0000
0022
0000
0000
0033
0000
0000
1000
0000
0010
0000
0001
0000
0010
0000
1000
0000
0100
0000
,  // measure 48
2002
0000
3003
0000
1000
0100
0001
0100
,  // measure 49
2200
3300
0202
0303
0022
0033
2020
0000
,  // measure 50
0000
3030
0101
0101
1010
1010
1001
0000
,  // measure 51
0110
0000
0100
0010
0000
0010
0100
0000
1000
0001
0000
0001
1000
0001
1000
0000
,  // measure 52
0110
0000
0000
0000
1000
0100
1000
0010
1000
0000
0000
0000
0001
0100
0010
0100
,  // measure 53
0001
0000
0000
0000
0010
1000
0100
1000
0010
0000
0000
0000
0100
0010
0001
0010
,  // measure 54
1000
0000
0001
0010
0100
1001
0000
1000
,  // measure 55
1100
0000
0000
0000
0100
0000
0010
0000
0001
0100
0001
0100
0001
0100
0001
0000
,  // measure 56
2002
0000
0000
0000
0000
0000
3000
0003
,  // measure 57
2200
0000
0000
0000
0000
0000
0300
3000
,  // measure 58
0022
0000
0000
0000
0000
0000
0030
0003
,  // measure 59
2020
0000
0000
0000
0000
0000
3000
0030
,  // measure 60
0202
0000
0000
0000
0000
0000
0003
0300
,  // measure 61
2002
0000
0000
0000
0000
0000
3000
0003
,  // measure 62
0220
0000
0000
0000
0000
0000
0300
0030
,  // measure 63
2002
0000
0000
0000
0000
0000
3000
0003
,  // measure 64
1100
0100
0101
0000
0011
0010
1010
0000
,  // measure 65
1100
1001
0101
1001
,  // measure 66
0101
0001
0011
0000
1010
1000
1100
0000
,  // measure 67
1000
0000
0000
0100
0000
0000
1000
0000
0000
0001
0000
0000
0100
0000
0010
0000
0100
0000
0010
0000
0100
0000
0010
0000
,  // measure 68
0100
0001
1000
0000
0100
1000
0001
0000
,  // measure 69
1001
0110
0110
1001
,  // measure 70
1000
0100
0001
0100
1000
0010
0001
0010
,  // measure 71
2002
0000
0000
0000
0000
0000
0000
0000
0000
0000
3003
0000
0000
0000
0001
1000
,  // measure 72
0001
0100
1000
1000
0100
0010
0100
1000
,  // measure 73
0001
0010
0001
0001
0100
0010
0010
0100
,  // measure 74
0010
1000
0100
0001
0100
0010
1000
0001
,  // measure 75
1000
0100
0010
0001
0010
0100
1000
0010
0100
0001
0010
0100
,  // measure 76
1000
0100
0010
1000
0001
0100
1000
0010
,  // measure 77
1000
0001
0100
0010
1000
0100
1000
0001
,  // measure 78
0100
0001
0010
0100
1000
0100
0010
0000
,  // measure 79
1001
0000
0000
0000
0110
0000
0000
0000
1001
0000
0000
0001
0000
0000
1000
0000
,  // measure 80
0110
0000
1100
0000
0101
1000
0100
0010
,  // measure 81
0100
0001
0010
1000
0010
0001
0100
1000
,  // measure 82
0100
0001
1000
0000
0101
0001
1001
0000
,  // measure 83
1100
0100
0110
0010
0011
0001
1001
0000
,  // measure 84
1000
1000
0100
0100
0001
0001
0010
0010
,  // measure 85
1000
0100
1000
0100
0001
0010
0001
0010
,  // measure 86
1000
0100
0010
0001
0010
0100
1000
0001
,  // measure 87
0100
0000
0000
0010
0000
0000
0010
0000
0000
0100
0000
0000
1000
0000
1000
0000
1000
0000
0001
0000
0001
0000
0001
0000
,  // measure 88
0000
2002
0000
0000
,  // measure 89
0000
0000
0000
0000
,  // measure 90
0000
0000
0000
0000
,  // measure 91
0000
0000
0000
0000
,  // measure 92
3003
0000
0000
0000
;

//---------------dance-single - ----------------
#NOTES:
     dance-single:
     :
     Easy:
     6:
     0.329,0.493,0.231,0.148,0.000,233.000,28.000,18.000,0.000,0.000,0.000,0.329,0.493,0.231,0.148,0.000,233.000,28.000,18.000,0.000,0.000,0.000:
0000
0000
0000
0000
,
0000
0000
0000
0000
,
0000
0000
0000
0000
,
0000
0000
0000
0000
,
0000
0000
0000
0000
,
0000
0000
0000
0000
,
1001
1001
1001
1001
,
0000
2002
0000
3003
,
1000
1000
1000
1000
,
0001
0001
0001
0001
,
0010
0010
0010
0010
,
0100
0100
0100
0100
,
1000
0100
0001
0100
,
1000
0100
0001
0000
,
0001
0010
1000
0010
,
0001
0010
1000
0000
,
0001
0000
0001
0000
,
1000
0000
1000
0000
,
0001
0000
0001
0000
,
1000
0000
1000
0000
,
0010
0010
0010
0000
,
0100
0100
0100
0000
,
1000
1000
1000
0000
,
0001
0001
0001
0000
,
2002
0000
0000
0000
,
0000
0000
0000
0000
,
0000
0000
0000
0000
,
0000
0000
0000
3003
,
0220
0000
0000
0000
,
0000
0000
0000
0000
,
0000
0000
0000
0000
,
0000
0000
0000
0330
,
1000
1000
0100
0100
,
0001
0001
0010
0010
,
1000
1000
0010
0010
,
0001
0001
0100
0100
,
1000
0100
0001
0100
,
1000
0001
0100
1000
,
0010
0001
1000
0001
,
2002
0000
0000
3003
,
1000
1000
0001
0001
,
0010
0010
0100
0100
,
1100
0001
0010
0100
,
0101
0011
0011
0011
,
1000
0100
1000
0001
,
0010
0100
0001
1000
,
0100
0001
0010
0100
,
1010
1100
1100
1100
,
0100
1000
0001
0010
,
0100
1000
0001
0100
,
0000
1100
0101
0011
,
1000
0100
0001
0100
,
1000
1000
0001
0001
,
0010
0010
0100
0100
,
1000
1000
0001
0001
,
0100
0100
0010
0010
,
2002
0000
0000
0000
,
0000
0000
0000
0000
,
0000
0000
0000
0000
,
0000
0000
0000
3003
,
0220
0000
0000
0000
,
0000
0000
0000
0000
,
0000
0000
0000
0000
,
0000
0000
0000
0330
,
1000
1000
0001
0001
,
1001
0000
0110
0000
,
0100
0100
0010
0010
,
0110
0000
1001
0000
,
1000
0100
0001
0100
,
1000
0010
0001
0010
,
1000
1000
0001
0001
,
2002
0000
0000
3003
,
1000
1000
0100
0100
,
0001
0001
0010
0010
,
1000
1000
0001
0001
,
2000
0000
0000
3000
,
0001
0100
0001
0100
,
1000
0010
1000
0010
,
0001
1000
0010
0100
,
0001
0100
0001
0010
,
1000
0100
1000
0100
,
0001
0010
0001
0010
,
1000
0100
0001
1000
,
0002
0000
0000
0003
,
1000
1000
0100
0100
,
0001
0001
0100
0100
,
1000
0000
0001
0000
,
1000
0001
0010
0100
,
0000
2002
0000
0000
,
0000
0000
0000
0000
,
0000
0000
0000
0000
,
0000
0000
0000
0000
,
3003
0000
0000
0000
;

//---------------dance-single - ----------------
#NOTES:
     dance-single:
     :
     Medium:
     10:
     0.557,0.607,0.429,0.223,0.004,394.000,52.000,27.000,0.000,0.000,0.000,0.557,0.607,0.429,0.223,0.004,394.000,52.000,27.000,0.000,0.000,0.000:
0000
0000
0000
0000
,
0000
0000
0000
0000
,
0000
0000
0000
0000
,
0000
0000
0000
0000
,
0000
0000
0000
0000
,
0000
0000
0000
0000
,
1000
0100
1000
0100
0010
0001
0010
0001
,
0000
2002
0000
3003
,
0100
1000
0100
1000
0100
1000
0100
0000
,
0001
0100
0001
0100
0001
0100
0001
0000
,
0001
0010
0001
0010
0001
0010
0001
0000
,
0010
1000
0010
1000
0010
1000
0010
0000
,
1000
0100
0001
0100
1000
0010
0001
0000
,
0001
0010
1000
0100
0001
0100
1000
0000
,
0100
0001
0100
1000
0001
1000
0100
0000
,
0001
0001
1000
1000
0010
0010
0100
0000
,
1000
1000
0001
0000
0001
0001
1000
0000
,
0010
0010
0100
0000
0100
0100
0010
0000
,
1000
0100
0001
0000
0001
0100
1000
0000
,
1000
0010
0001
0000
0001
0010
1000
0000
,
1000
1000
0001
0001
,
0100
0100
0010
0010
,
1000
1000
1000
0000
0001
0001
0001
0000
,
1000
0100
0010
0001
0010
0100
1000
0000
,
2002
0000
0000
0000
,
0000
0000
0000
3003
,
0220
0000
0000
0000
,
0000
0000
0000
0330
,
2002
0000
0000
0000
,
0000
0000
0000
3003
,
0220
0000
0000
0000
,
0000
0000
0000
0330
,
1000
1000
0100
0100
0001
0001
0001
0000
,
0010
1010
0100
0101
,
1000
1000
0100
0100
0001
0001
0001
0000
,
1010
0110
0110
0011
,
1000
0100
0010
0001
0010
0100
1000
0000
,
1001
0101
1100
1010
,
0001
0010
1000
0100
1000
0001
0100
1000
,
0002
0000
0000
0003
,
1000
1000
0001
0001
0010
0010
0100
0100
,
1100
0101
0011
1010
,
1000
1000
0100
0100
0001
0001
0010
0010
,
1100
0101
1100
0101
,
0010
0100
1000
1000
0100
1000
0001
0010
,
1100
0101
0011
1010
,
0001
0001
1000
1000
0100
0010
0001
1000
,
1100
0101
0011
1010
,
0100
0100
1000
0001
0010
0001
1000
0010
,
1001
1100
0101
0011
,
0000
0000
1000
1000
0001
0001
0010
0000
,
0100
0000
0000
1000
0000
0000
0001
0000
0000
0000
0010
0000
0100
0000
1000
0000
,
0001
0000
0100
1000
0001
0000
0001
1000
,
0010
0000
1000
0100
0001
0000
1000
0100
,
0001
0000
0100
1000
0010
1000
0000
0001
,
0010
0000
0100
1000
0100
1000
0001
0100
,
2000
0000
0000
0000
,
3002
0000
0000
0000
,
0023
0000
0000
0000
,
0230
0000
0000
0300
,
2200
0000
0000
3300
,
0202
0000
0000
0303
,
0022
0000
0000
0033
,
2020
0000
0000
3030
,
0001
0001
0001
0000
1000
1000
1000
0000
,
1100
0101
1100
0101
,
0010
0010
0010
0000
0100
0100
0100
0000
,
0011
1010
0011
1010
,
1000
0100
0001
0000
0001
0100
1000
0000
,
0010
0010
0100
0000
0100
0100
0010
0000
,
1000
0100
0010
0001
0010
0100
1000
0000
,
2002
0000
0000
3003
,
1000
1000
0100
0100
0001
0001
0001
0000
,
1000
1000
0010
0010
0001
0001
0001
0000
,
1000
0100
0010
0001
1000
0000
0100
0000
,
1000
1000
1000
0000
0001
0001
0001
0000
,
0010
0100
0010
0100
,
1000
0001
1000
0001
,
1000
0000
0000
0001
1000
0000
0000
0100
,
0010
0000
0001
0000
1000
0100
1000
0000
,
0001
0100
0001
0010
0001
1000
0010
0000
,
1001
0000
1000
0100
1000
0001
0100
0001
,
0010
0000
0010
0000
0100
1000
0001
1000
,
0001
0010
1100
0101
,
1000
1000
0001
0000
0010
0010
0100
0000
,
0001
1000
0100
0010
0001
0000
1000
0000
,
1000
0001
1000
0001
0010
0000
0100
0000
,
1000
1000
0100
0100
0001
0001
0010
0010
,
0000
2002
0000
0000
,
0000
0000
0000
0000
,
0000
0000
0000
0000
,
0000
0000
0000
0000
,
0000
3003
0000
0000
0000
0000
0000
0000
0000
0000
0000
0000
0000
0000
0000
0000
0000
0000
0000
0000
0000
0000
0000
0000
0000
0000
0000
0000
0000
0000
0000
0000
0000
0000
0000
0000
0000
0000
0000
0000
0000
0000
0000
0000
0000
0000
0000
0000
0000
0000
0000
0000
0000
0000
0000
0000
0000
0000
0000
0000
0000
0000
0000
0000
0000
0000
0000
0000
0000
0000
0000
0000
0000
0000
0000
0000
0000
0000
0000
0000
0000
0000
0000
0000
0000
0000
0000
0000
0000
0000
0000
0000
0000
0000
0000
0000
0000
0000
0000
0000
0000
0000
0000
0000
0000
0000
0000
0000
0000
0000
0000
0000
0000
0000
0000
0000
0000
0000
0000
0000
0000
0000
0000
0000
0000
0000
0000
0000
0000
0000
0000
0000
0000
0000
0000
0000
0000
0000
0000
0000
0000
0000
0000
0000
0000
0000
0000
0000
0000
0000
0000
0000
0000
0000
0000
0000
0000
0000
0000
0000
0000
0000
0000
0000
0000
0000
0000
0000
0000
0000
0000
0000
0000
0000
0000
0000
0000
0000
0000
0000
0000
0000
0000
0000
0000
0000
0000
0000
0000
0000
0000
0000
;

//---------------dance-single - ----------------
#NOTES:
     dance-single:
     :
     Beginner:
     4:
     0.180,0.228,0.091,0.132,0.000,126.000,11.000,16.000,0.000,0.000,0.000,0.180,0.228,0.091,0.132,0.000,126.000,11.000,16.000,0.000,0.000,0.000:
0000
0000
0000
0000
,
0000
0000
0000
0000
,
0000
0000
0000
0000
,
0000
0000
0000
0000
,
0000
0000
0000
0000
,
0000
0000
0000
0000
,
1000
0000
0000
0000
,
0000
0001
0000
0000
,
0100
0000
0000
0000
,
0010
0000
0000
0000
,
0100
0000
0000
0000
,
0010
0000
0000
0000
,
1000
0000
0000
0000
,
0001
0000
0000
0000
,
1000
0000
0000
0000
,
0001
0000
0000
0000
,
1000
0000
1000
0000
,
0001
0000
0001
0000
,
0010
0000
0010
0000
,
0100
0000
0100
0000
,
1000
1000
1000
0000
,
0001
0001
0001
0000
,
0100
0100
0100
0000
,
0010
0010
0010
0000
,
2000
0000
0000
0000
,
0000
0000
0000
3000
,
0002
0000
0000
0000
,
0000
0000
0000
0003
,
0020
0000
0000
0000
,
0000
0000
0000
0030
,
0200
0000
0000
0000
,
0000
0000
0000
0300
,
1000
0000
0100
0000
,
1000
0000
0000
0000
,
0001
0000
0100
0000
,
0001
0000
0000
0000
,
0001
0000
0010
0000
,
0001
0000
0000
0000
,
1000
0000
0010
0000
,
1000
0000
0000
0000
,
1001
0000
0000
0000
,
1000
1000
0001
0001
,
1001
0000
0000
0000
,
0010
0010
0100
0100
,
0110
0000
0000
0000
,
0100
0100
0010
0010
,
0110
0000
0000
0000
,
1000
1000
0001
0001
,
1001
0000
0000
0000
,
0010
0100
0010
0100
,
0000
0000
0000
0000
,
1000
0000
0001
0000
,
1001
0000
0000
0000
,
0110
0000
0000
0000
,
1001
0000
0000
0000
,
0110
0000
0000
0000
,
2002
0000
0000
0000
,
0000
0000
0000
0000
,
0000
0000
0000
0000
,
0000
0000
0000
0000
,
3003
0000
0000
0000
,
0000
0000
0000
0000
,
0000
0000
0000
0000
,
0000
0000
0000
0000
,
0001
0000
0001
0000
,
1000
1000
1000
0000
,
0100
0000
0100
0000
,
0010
0010
0010
0000
,
1000
0000
1000
0000
,
0001
0001
0001
0000
,
0100
0000
0100
0000
,
0010
0000
0010
0000
,
2000
0000
0000
0000
,
3002
0000
0000
0000
,
0203
0000
0000
0000
,
0320
0000
0000
0000
,
2030
0000
0000
3000
,
0200
0000
0000
0300
,
0002
0000
0000
0003
,
0020
0000
0000
0030
,
1000
0000
1000
0000
,
0001
0000
0001
0000
,
0100
0000
0100
0000
,
0010
0000
0010
0000
,
1000
0000
1000
1000
,
0001
0000
0001
0001
,
0010
0000
0010
0010
,
0100
0000
0100
0100
,
0000
2002
0000
0000
,
0000
0000
0000
0000
,
0000
0000
0000
0000
,
0000
0000
0000
0000
,
3003
0000
0000
0000
;

//---------------dance-single - ----------------
#NOTES:
     dance-single:
     :
     Challenge:
     18:
     1.000,1.000,0.833,0.841,0.920,763.000,101.000,102.000,0.000,0.000,0.000,1.000,1.000,0.833,0.841,0.920,763.000,101.000,102.000,0.000,0.000,0.000:
0000
0000
0000
0000
,
0000
0000
0000
0000
,
0000
0000
0000
0000
,
0000
0000
0000
0000
,
1000
0100
0010
0001
1000
0100
0010
0001
0001
0010
0100
1000
0001
0010
0100
1000
,
0010
0100
0010
0100
0001
1000
0001
1000
0100
0010
0100
0010
1000
0001
1000
0001
,
1100
0110
0011
1001
1010
1001
0101
0110
,
0000
0000
0000
0000
1000
0001
0100
0010
0100
0001
1000
0100
1000
0000
0000
0000
,
1001
0000
1000
0100
0010
0000
0001
0010
0100
0000
1000
0010
0100
0000
0001
0100
,
0010
0000
1000
0001
1000
0000
0001
1000
0001
0000
0010
0100
0010
1000
0001
0100
,
0010
0000
1000
0100
1000
0000
0001
0010
0001
0000
0001
0100
0001
0000
1000
0010
,
1000
0000
0100
0001
1000
0000
0100
1000
0001
0000
0010
1000
0100
1000
0010
0001
,
1000
0000
0000
0000
1001
0000
0100
1000
0100
0000
1000
0100
1000
0000
0100
0010
,
0100
0000
0001
0010
0001
0000
0010
0001
0010
0000
0001
1000
0001
0100
0001
0010
,
1000
0000
0100
0010
0001
0000
1000
0100
0010
0000
0001
0100
0010
0000
1000
0010
,
0100
1000
1100
0001
0202
0000
0303
0000
,
1000
0100
0010
0000
0022
0033
0000
0000
0001
0010
0100
0000
2200
3300
0000
0000
,
1000
0010
0100
0000
2020
3030
0000
0000
0001
0100
0010
0000
0202
0303
0000
0000
,
1000
0001
1000
0000
2002
3003
0000
0000
0001
1000
0001
0000
2002
3003
0000
0000
,
0100
0000
0000
0010
0000
0000
0100
0000
0000
0000
0000
0000
0220
0000
0000
0330
0000
0000
0000
0000
0000
0000
0000
0000
1000
0000
0000
0000
1000
0000
0000
0000
1000
0000
0000
0000
0001
0000
0000
0000
0001
0000
0000
0000
0001
0000
0000
0000
,
1001
1000
0100
0001
0100
1000
0100
0001
,
0110
1000
0010
0001
0010
1000
0010
0001
,
1001
0010
1000
0100
0001
0100
1000
0010
,
0001
0010
0100
1000
0100
0010
0001
1000
0001
0010
0001
1000
0100
0010
0001
1000
,
1001
0000
0100
1000
0100
0010
0100
1000
,
0100
0000
0010
0100
0001
0100
0010
0100
,
0001
0000
1000
0001
0100
0001
1000
0001
,
0100
0000
0001
1000
0010
1000
0001
0010
,
1000
0000
1000
0100
0010
0001
0010
0100
,
1000
0000
0001
0010
0100
1000
0100
0010
,
0001
0000
1000
0100
0001
0010
1000
0100
,
0001
0000
0001
0100
1000
0010
0001
0100
,
1001
0000
0000
0000
1000
0100
1000
0100
1000
0100
1000
0100
1000
0000
0000
0000
,
0001
0010
0001
0010
0001
0010
0001
0010
0001
0010
0001
0010
0001
0000
0000
0000
,
1000
0010
1000
0010
1000
0010
1000
0010
1000
0010
1000
0010
1000
0000
0000
0000
,
0001
0100
0001
0100
0001
0100
0001
0100
0001
0100
0001
0100
0001
0000
0000
0000
,
1000
0100
0010
0100
0001
1000
0001
1000
0010
0100
0010
0100
0010
0000
0000
0000
,
0001
0100
0010
0100
1000
0001
1000
0001
0100
0010
0100
0001
0100
0000
0000
0000
,
1000
0100
0010
0001
1000
0001
0100
0010
0100
1000
0100
0001
0010
0000
0000
0000
,
1000
0001
1000
0010
0100
0001
2002
0000
0000
0000
3003
0000
,
1001
0000
0100
1000
0100
0000
0001
1000
0001
0000
1000
0000
0100
0000
0001
0000
,
2200
3300
0000
0000
2002
3003
0000
0000
0202
0303
0000
0000
2002
3003
0000
0000
,
0110
0000
0001
0010
0001
0000
1000
0001
1000
0000
0100
0000
0010
0000
0001
0000
,
2020
0000
0000
3030
0000
0000
0000
0000
0000
0000
0000
0000
2002
0000
0000
3003
0000
0000
0000
0000
0000
0000
0000
0000
1000
0000
0000
0000
0100
0000
0000
0000
0001
0000
0000
0000
0100
0000
0000
0000
1000
0000
0000
0000
0100
0000
0000
0000
,
1001
0000
1000
0100
0010
0000
0001
0010
0100
0000
1000
0000
0100
0000
0010
0000
,
0022
0033
0000
0000
2020
3030
0000
0000
2200
3300
0000
0000
0202
0303
0000
0000
,
0110
0000
1000
0100
0001
0000
0001
0100
1000
0000
0010
0000
0001
0000
0010
0000
,
0022
0000
0000
0033
0000
0000
0000
0000
0000
0000
0000
0000
2200
0000
0000
3300
0000
0000
0000
0000
0000
0000
0000
0000
1000
0000
0000
0000
0010
0000
0000
0000
0001
0000
0000
0000
0010
0000
0000
0000
1000
0000
0000
0000
0010
0000
0000
0000
,
1001
0000
0100
1000
0001
0000
0100
0001
1000
0000
0100
0000
0001
0000
1000
0000
,
2200
3300
0000
0000
2002
3003
0000
0000
0202
0303
0000
0000
2002
0000
0000
0000
,
3003
0000
1010
1001
0011
0110
1100
0000
,
1001
0000
1000
0001
0000
0001
1000
0000
0100
0010
0000
0001
0010
0100
1000
0000
,
1001
0000
0000
0000
0001
1000
0100
0010
0001
0000
0000
0000
1000
0010
0001
0010
,
1000
0000
0000
0000
0001
1000
0010
0100
0010
0000
0000
0000
0001
0010
0100
1000
,
0010
0000
1100
0001
0101
0100
0000
1000
,
1010
0000
0000
0000
0101
0000
1000
0000
0010
0001
0100
0001
0100
0001
1000
0000
,
1001
0000
0100
1000
0100
0001
0010
1000
,
0001
0000
0100
1000
0001
1000
0100
0010
,
0100
0000
0010
0100
1000
0100
0001
0010
,
0100
0000
0001
1000
0100
0100
0010
0100
,
0001
0000
1000
1000
0100
0010
0001
1000
,
0100
0000
0001
0001
0100
0010
1000
0100
,
1000
0100
0010
0001
1000
0100
0010
0001
,
1000
0001
1000
0001
1000
0010
0100
0010
0100
0010
0001
1000
0001
1000
0001
0000
,
1000
0010
1000
0000
1010
0000
0000
0000
0001
0100
0001
0000
0101
0000
0000
0000
,
2200
3300
0000
0000
0202
0303
0000
0000
0022
0033
0000
0000
2020
3030
0000
0000
,
0001
0010
0001
0000
0011
0000
0000
0000
1000
0010
1000
0000
1010
0000
0000
0000
,
1100
0000
0000
1001
0000
0000
0101
0000
0000
1001
0000
0000
1000
0000
0001
0000
0100
0000
0010
0000
1000
0000
0001
0000
,
1000
0001
1000
0000
1001
0000
0000
0000
0001
1000
0001
0000
1001
0000
0000
0000
,
0220
0330
0000
0000
0220
0330
0000
0000
2002
3003
0000
0000
2002
3003
0000
0000
,
1000
0100
0010
0001
0010
0100
1000
0001
0100
0010
0100
0001
1000
0100
1000
0000
,
0220
0000
0000
0000
0000
0000
0000
0000
0000
0000
0330
0000
0000
0000
0001
1000
,
0002
0000
0003
0000
0000
0000
0001
1000
0010
0000
0000
0010
0000
0000
1001
0000
,
0000
0100
0000
0000
1001
0000
0000
1000
0000
0000
0110
0000
0000
1000
0000
0000
,
0001
0000
1000
0100
0010
0000
0001
0100
0001
0000
0010
1000
0100
0010
0001
1000
,
0001
0001
0010
0010
0100
0100
1000
1000
0100
0100
0010
0010
,
1001
0000
0000
1000
0000
0000
0001
0000
1001
0000
0000
0100
0000
0000
0010
0000
,
0100
0001
0100
0001
1000
0010
1000
0100
1000
0001
1000
0100
0010
0001
1000
0100
,
0001
0000
0000
0000
1000
0100
0010
0001
2000
3000
0000
0000
0001
0010
0100
1000
,
0002
0003
0000
0000
2002
3003
0000
0000
2200
3300
0000
0020
0030
0000
0002
0003
,
0220
0330
0000
0000
2002
3003
0000
0001
1000
0000
0100
0000
0002
0003
0000
0000
,
1100
0000
0000
0000
0101
0000
0000
0001
2000
3000
0200
0300
0002
0003
0100
0000
,
2020
3030
0000
0000
0202
0303
0000
0000
0022
0033
0000
0000
2200
3300
0000
0000
,
2000
3000
0200
0300
2000
3000
0002
0003
0020
0030
0002
0003
0200
0300
0000
0000
,
1000
1100
0100
1100
0010
0011
0001
0011
,
0010
1010
1000
1010
0001
0101
0100
0101
,
1000
0100
0010
0001
1000
0100
0010
0001
0001
0010
0100
1000
0001
0010
0100
1000
,
1000
0000
0000
0100
0000
0000
0001
0000
0000
0100
0000
0000
1000
0000
0000
0010
0000
0000
0001
0000
0000
0010
0000
0000
1000
0000
0000
0000
0100
0000
0000
0000
0001
0000
0000
0000
0100
0000
0000
0000
1000
0000
0000
0000
0100
0000
0000
0000
,
0000
2002
0000
0000
,
0000
0000
0000
0000
,
0000
0000
0000
0000
,
0000
0000
0000
0000
,
3003
0000
0000
0000
;
