#TITLE:2 MINUTES FIGHTERS;
#SUBTITLE:;
#ARTIST:P*Light;
#TITLETRANSLIT:;
#SUBTITLETRANSLIT:;
#ARTISTTRANSLIT:;
#CREDIT:;
#BANNER:2 MINUTES FIGHTERS.png;
#BACKGROUND:2 MINUTES FIGHTERS-BG.png;
#LYRICSPATH:;
#CDTITLE:;
#MUSIC:2 MINUTES FIGHTERS.mp3;
#OFFSET:-5.581;
#SAMPLESTART:21.780;
#SAMPLELENGTH:15.000;
#SELECTABLE:YES;
#DISPLAYBPM:*;
#BPMS:0.000=203.000,16.000=809.000,32.000=203.000,192.000=101.500,212.000=203.000,340.000=405.998;
#STOPS:;
#BGCHANGES:;

//---------------dance-single - ----------------
#NOTES:
     dance-single:
     :
     Hard:
     15:
     0.864,1.000,0.818,0.207,0.293:
1001
0000
0100
1000
0000
0110
0000
0010
,
0001
0000
1000
0100
0000
1001
0000
1000
,
0001
0100
0010
1000
0100
0010
0001
1000
,
0001
0000
0001
0000
0001
0000
0001
0000
1000
0100
0010
0001
1000
0100
0010
0001
,
0200
0000
0000
0000
,
0000
0000
0000
0000
,
0000
0000
0000
0000
,
0000
0000
0000
0300
,
0010
0000
1000
0001
1000
0000
0001
1000
0001
0000
0100
0000
0110
0000
0000
0000
,
1100
0000
0001
0100
0001
0000
1000
0100
0010
0000
0001
0000
1001
0000
0000
0000
,
0110
0000
0001
0010
0100
0000
1000
0100
0010
0000
0001
0000
0110
0000
0000
0000
,
1000
0100
1000
0100
1000
0100
0001
0100
0001
0100
0001
0100
1000
0000
0000
0000
,
1100
0000
0001
1000
0001
1000
0100
0010
0100
0000
0010
0000
0101
0000
0000
0000
,
0011
0000
1000
0001
1000
0001
0100
0010
0100
0000
0010
0000
1100
0000
0000
0000
,
1001
0000
0100
1000
0001
0010
0100
1000
0001
0000
0100
0000
1001
0000
0000
0000
,
1000
0100
0001
2002
0000
0000
3003
0000
,
1100
0000
0100
0010
0100
0010
0000
0001
,
1001
0000
0010
0100
0001
1000
0100
0010
,
1001
0000
0001
0100
0010
0100
1000
0001
,
0101
0000
1000
0010
0100
0010
0001
1000
,
0001
0000
0001
0001
0010
0010
0000
0100
,
0100
0000
1000
1000
1100
0100
0100
0000
,
0101
0000
0001
0001
0000
0100
1000
0100
,
0101
1010
0011
1100
,
1001
0000
0100
1000
0000
0100
0000
0001
,
1000
0000
0010
1000
0100
1000
0001
0010
,
0100
0000
0001
0100
1000
0100
0010
0001
,
0010
0100
0100
0010
0001
0100
1000
0000
,
1001
0000
1000
0100
1000
0100
1000
0100
1000
0000
0000
0000
0001
0100
0001
0100
,
0001
0100
0001
0100
0001
0000
0000
0000
1100
0000
0000
0000
0101
0000
0000
0000
,
1000
1100
0100
0110
0010
0011
0001
1001
,
2002
0000
0000
3003
,
1000
1000
0100
0100
1000
1000
0001
0001
,
0010
0010
0001
0001
0010
0010
0100
0100
,
1000
1000
0100
0100
0010
0010
0001
0001
,
1001
0000
1100
0000
1001
0101
0011
0000
,
0100
1000
0100
1000
0100
1000
0100
0000
,
0001
0100
0001
0100
0001
0100
0001
0000
,
1100
0000
0100
0010
0001
1000
0000
0010
,
0010
0000
1000
0100
0010
0001
1000
0000
,
1001
0100
1000
0100
0010
0001
1000
0100
,
0010
1000
0100
1000
0001
0100
0001
0100
,
0010
1000
0100
0010
0001
1000
0100
1000
,
0001
0100
0001
0100
0001
0010
0001
0010
,
1000
0100
0010
0001
1000
0010
0100
1000
,
0001
0100
0010
1000
0001
0010
0100
1000
,
0010
1000
0010
0001
0100
1000
0100
0001
,
1000
0000
0000
0011
0000
0000
0001
0000
0000
1100
0000
0000
1000
0000
0100
0000
,
2002
0000
0000
0000
0000
0000
0000
0000
0000
0000
0000
0000
3003
0000
0100
1000
,
1001
0000
0000
0000
1100
0000
0000
0000
0101
0000
0010
0001
0000
1000
0000
1001
,
0000
0010
1000
0100
0010
0001
1000
0220
0000
0000
0330
0000
0000
0000
0001
0100
,
1000
0000
0000
0000
1001
0000
0000
0000
0010
0000
0100
1000
0000
0000
0001
0100
,
0000
0010
1000
0001
0010
0100
1000
2002
0000
0000
0000
0000
3003
0000
1000
0010
,
1010
0101
0011
1100
,
1001
0000
0100
0010
0000
0110
0000
1001
,
0000
0100
1000
0100
0010
0001
1000
0000
,
1001
0000
0000
0000
0110
0000
0000
0000
1100
0000
0000
0110
0000
0000
0011
0000
,
0220
0330
0202
0303
,
0011
0000
0010
1010
0000
0101
0000
2002
,
0000
0000
0000
0000
,
3003
0000
0000
0000
0000
0000
0100
1000
,
0001
0010
0001
1000
0100
0100
1000
0001
,
0100
0010
0100
1000
0001
0100
0010
1000
,
0010
0010
0001
1000
0010
0100
1000
0001
,
0001
1000
0100
0010
0001
1000
0100
0100
,
1000
0001
0100
0010
0100
1000
0001
1000
,
0001
0100
0010
1000
0100
1000
0001
0100
,
0001
0010
0100
0010
0001
1000
0110
0000
,
1001
0000
1100
0101
0000
0011
0000
1000
,
0010
0100
1000
0001
1000
0001
0100
0010
,
0100
1000
0001
0010
0001
1000
0100
0010
,
0001
1000
0100
1000
0001
0100
0010
0100
,
0001
0010
0100
0010
0001
1000
0100
1000
,
0001
0100
0001
0100
0001
0100
0001
0100
0010
1000
0010
1000
0010
1000
0010
1000
,
0010
0100
0010
0100
0001
1000
0001
1000
0100
0010
0100
0010
1000
0001
1000
0001
,
1001
0000
0000
0110
0000
0000
1100
0101
,
0000
0011
0000
1100
1100
0000
0101
0000
,
0010
0100
1000
0001
1000
0100
0010
0001
,
0001
1000
0100
1000
0001
0100
0010
0001
,
0001
0000
0000
0010
0000
0000
0010
0000
1000
0000
0000
0100
0000
0000
0100
0000
,
1001
0000
0000
1100
0000
0000
1001
0000
0101
0000
0000
1001
0000
0000
0110
0000
,
2002
0000
0000
3003
2020
0000
3030
0000
,
0110
0000
0101
1001
0000
1100
0000
0202
,
0000
0000
0000
0000
,
0000
0000
0000
0303
,
0100
1000
0100
0010
,
0001
1000
0010
0100
,
1000
0001
0100
0001
,
1000
0100
0010
0001
,
0001
1000
0010
1000
,
0100
0100
0001
1000
,
0010
0100
0001
1000
,
0010
0010
1000
0100
,
0010
0010
0001
0001
,
1000
1000
0100
0100
,
0010
0010
0001
0001
,
1000
1000
0100
0010
,
1001
0000
0000
0110
,
0000
0000
1001
2002
,
0000
0000
0000
0000
,
0000
0000
0000
0000
,
0000
0000
0000
0000
,
0000
0000
0000
3003
;

//---------------dance-single - ----------------
#NOTES:
     dance-single:
     :
     Medium:
     11:
     0.551,0.766,0.273,0.140,0.050:
1001
0000
0100
1000
0000
0001
0000
0100
,
0001
0000
0010
0100
0000
0100
0000
1000
,
0001
0001
1000
1000
,
0010
0010
0010
0000
0100
0100
0100
0000
,
2002
0000
0000
0000
,
0000
0000
0000
0000
,
0000
0000
0000
0000
,
0000
0000
3003
0000
,
1000
0000
1000
0000
0001
0001
0001
0000
,
0010
0000
0100
0000
1000
1000
1000
0000
,
0100
0000
0010
0000
0100
0100
0100
0000
,
0001
0000
1000
0000
0010
0010
0010
0000
,
1000
1100
0001
0101
,
0001
0011
1000
1010
,
1000
1000
0000
0001
0001
0000
0010
0010
,
0000
0100
0100
0000
1000
0100
0010
0000
,
0001
0000
0001
1000
0100
0000
0001
1000
,
0100
0000
0010
0001
1000
0000
0100
1000
,
0001
0000
0100
0010
0010
0000
1000
0100
,
0010
0000
0001
1000
0100
0000
0001
0000
,
1000
0000
0100
0010
0001
1000
0000
0010
,
0100
0000
0001
1000
0100
0000
1001
0000
,
0100
0000
0100
1000
0100
0000
0010
0001
,
0000
1000
0001
0100
0010
0000
1001
0000
,
1000
1000
1000
1000
,
0001
0000
0001
1000
0000
0001
0000
0001
,
0010
0010
0010
0010
,
0100
0000
0001
0100
0000
0010
0000
1000
,
0001
0001
0001
0001
,
1000
0000
0100
0010
0000
0100
0000
1000
,
0001
0000
0100
0000
0010
1000
0100
0010
,
0002
0000
0000
0003
,
1000
0000
1000
0000
0100
0100
0100
0000
,
0001
0000
1000
0000
0010
0010
0010
0000
,
1000
0000
0100
0000
1000
0001
0001
0000
,
1000
0000
0001
0000
0001
1000
1000
0000
,
0010
0000
0100
0000
1000
0001
1000
0000
,
0100
0100
1000
0001
0010
0000
0001
0000
,
1000
0000
0100
0010
0001
1000
0000
0001
,
1000
0000
0010
0100
0001
0000
1000
0000
,
0100
0100
1000
1000
,
0001
0001
0010
0010
,
0100
0100
0100
0000
1000
1000
1000
0000
,
0001
0001
0001
0000
0010
0010
0010
0000
,
0100
0100
0100
0100
1000
1000
1000
0000
,
0001
0001
0001
0001
0010
0010
0010
0000
,
0100
1000
0001
0010
0100
1000
0001
0000
,
1000
1000
0001
0001
,
1001
0000
0000
0000
0000
0000
0000
0000
0000
0000
0000
0000
0000
0000
0010
0010
,
0010
0000
0000
0000
0001
0000
0000
0000
1000
0000
0100
0010
0000
0001
0000
1000
,
0000
0000
0100
0000
0001
0000
1000
0000
1001
0000
0000
0000
0000
0000
0001
0001
,
0001
0000
0000
0000
1000
0000
0000
0000
0100
0000
1000
0001
0000
0100
0000
0000
,
0010
0000
1000
0000
0100
0000
0001
0000
1001
0000
0000
0000
0000
0000
1000
1000
,
1000
1000
1000
1000
,
0001
0001
0010
0100
,
1000
0000
0001
0000
0100
0010
1000
0100
,
1000
0000
0001
0000
0100
0000
0100
1000
,
0002
0000
2003
0000
,
3001
0000
0100
0010
0000
1000
0000
0220
,
0000
0000
0000
0000
,
0000
0000
0000
0000
0330
0000
0100
1000
,
0001
0100
0010
0100
,
1000
0001
0010
0000
0100
0000
1000
0000
,
0001
0100
0010
1000
0100
0000
1000
0000
,
0100
0010
0001
0010
0100
0000
1000
0000
,
0001
0100
0001
0000
1000
0000
0010
0000
,
0010
0100
0010
0000
0001
0000
1000
0000
,
0100
1000
0001
0000
0100
0000
0001
0000
,
0100
0000
1000
0000
0001
1000
0010
1000
,
0001
0000
1000
0000
0100
1000
0001
1000
,
0001
0000
0100
0000
0010
1000
0100
0000
,
1100
0101
0011
0000
,
0011
1010
1100
0000
,
0001
1000
0100
0000
0010
0100
0010
0000
,
0001
1000
0100
0000
1000
0001
0100
0000
,
2200
3300
0000
0202
0303
0000
0011
2002
,
0000
3003
0000
0000
1010
0000
0101
0000
,
1000
1000
0001
0001
,
0010
0100
1000
0001
0010
0000
0011
0000
,
0001
0000
0000
0001
0000
0000
0001
0000
1000
0000
0000
1000
0000
0000
1000
0000
,
0010
0000
0000
0010
0000
0000
0010
0000
0100
0000
0000
0100
0000
0000
0100
0000
,
1100
0000
0101
0000
,
0011
0000
1000
0001
0000
1000
0000
2002
,
0000
0000
0000
0000
,
0000
0000
0000
3003
,
0100
0000
0100
0000
,
0010
0000
0010
0000
,
0100
0000
0100
0000
,
0010
0000
0010
0000
,
1000
0000
1000
0000
,
0001
0000
0001
0000
,
1000
0000
1000
0000
,
0001
0000
0001
0000
,
1000
0000
0100
0000
,
0010
0000
0001
0000
,
0001
0000
0010
0000
,
0100
0000
1000
0000
,
1100
0000
0000
0101
,
0000
0000
1001
0000
,
2002
0000
0000
0000
,
0000
0000
0000
0000
,
0000
0000
0000
0000
,
0000
0000
0000
0000
,
3003
0000
0000
0000
;

//---------------dance-single - ----------------
#NOTES:
     dance-single:
     :
     Easy:
     8:
     0.343,0.614,0.273,0.041,0.000: // measure 1
1000
1000
1000
0000
,  // measure 2
0001
0001
0001
0000
,  // measure 3
0010
0000
0010
0000
,  // measure 4
0100
0100
0100
0100
,  // measure 5
2002
0000
0000
0000
,  // measure 6
0000
0000
0000
0000
,  // measure 7
0000
0000
0000
3003
,  // measure 8
0000
0000
0000
0000
,  // measure 9
0100
0100
1000
1000
,  // measure 10
0001
0001
0010
0010
,  // measure 11
0100
0100
0001
0001
,  // measure 12
0010
0010
1000
1000
,  // measure 13
1100
0000
0000
0000
,  // measure 14
0101
0000
0000
0000
,  // measure 15
0011
0000
1010
0000
,  // measure 16
1001
0000
0000
0000
,  // measure 17
1000
1000
0001
0001
,  // measure 18
0010
0010
0100
0100
,  // measure 19
1000
0100
0001
0100
,  // measure 20
1000
0010
0001
0010
,  // measure 21
1000
0000
0001
0000
,  // measure 22
1000
0100
0001
0000
,  // measure 23
0001
0100
1000
0000
,  // measure 24
0010
0010
0100
0100
,  // measure 25
1001
0000
0000
0000
,  // measure 26
1001
0000
0000
0000
,  // measure 27
0110
0000
0000
0000
,  // measure 28
0110
0000
0000
0000
,  // measure 29
1100
0000
0000
0000
,  // measure 30
0101
0000
0000
0000
,  // measure 31
0011
0000
0000
0000
,  // measure 32
1010
0000
0000
0000
,  // measure 33
1000
1000
0001
0001
,  // measure 34
0010
0010
0100
0100
,  // measure 35
1000
0001
1000
0001
,  // measure 36
0010
0010
0100
0100
,  // measure 37
0001
1000
0001
1000
,  // measure 38
0010
0010
0100
0100
,  // measure 39
1000
0000
0100
0000
,  // measure 40
0001
0000
0010
0000
,  // measure 41
1000
1000
0001
0001
,  // measure 42
0100
0100
0010
0010
,  // measure 43
0001
0001
0100
0100
,  // measure 44
1000
1000
0010
0010
,  // measure 45
1000
1000
0100
0100
,  // measure 46
0001
0001
0010
0010
,  // measure 47
1000
0000
0001
0000
,  // measure 48
1100
0000
0101
0000
,  // measure 49
1001
0000
0000
0000
,  // measure 50
1100
0101
0011
1010
,  // measure 51
0110
0010
0010
0010
,  // measure 52
1100
0101
0011
1010
,  // measure 53
1001
1000
1000
1000
,  // measure 54
0100
0100
0010
0010
,  // measure 55
0100
0100
0010
0010
,  // measure 56
0001
0001
1000
1000
,  // measure 57
0001
0001
1000
0100
,  // measure 58
0001
0000
1000
0000
,  // measure 59
0100
0001
1000
0100
,  // measure 60
2002
0000
0000
0000
,  // measure 61
0000
0000
0000
3003
,  // measure 62
0100
0100
1000
1000
,  // measure 63
0001
0001
0010
0000
,  // measure 64
0001
0001
0010
0100
,  // measure 65
0001
1000
0100
0000
,  // measure 66
1000
1000
0100
0001
,  // measure 67
0100
0010
0001
0000
,  // measure 68
0100
0100
1000
0001
,  // measure 69
0010
1000
0010
0000
,  // measure 70
0010
0010
0001
1000
,  // measure 71
0100
0001
1000
0000
,  // measure 72
0100
0100
0001
1000
,  // measure 73
0100
0001
1000
0000
,  // measure 74
1000
1000
0001
0001
,  // measure 75
0010
0010
0100
0100
,  // measure 76
1100
0000
0101
0000
,  // measure 77
1010
0000
0011
0000
,  // measure 78
1000
1000
0100
0100
,  // measure 79
0001
0001
0010
0010
,  // measure 80
1000
0000
1000
0000
,  // measure 81
0001
0000
0001
0000
,  // measure 82
0100
0000
0001
0000
,  // measure 83
1000
0000
0010
0010
,  // measure 84
0020
0000
0000
0000
,  // measure 85
0000
0000
0000
0030
,  // measure 86
1000
0000
0000
0000
,  // measure 87
1000
0000
0000
0000
,  // measure 88
0001
0000
0000
0000
,  // measure 89
0001
0000
0000
0000
,  // measure 90
0100
0000
0000
0000
,  // measure 91
0100
0000
0000
0000
,  // measure 92
0010
0000
0000
0000
,  // measure 93
0010
0000
0000
0000
,  // measure 94
1000
0000
0000
0000
,  // measure 95
0100
0000
0000
0000
,  // measure 96
0001
0000
0000
0000
,  // measure 97
0010
0000
0000
0000
,  // measure 98
1000
0000
0000
0000
,  // measure 99
0001
0000
0000
0000
,  // measure 100
1001
0000
0000
0000
;

//---------------dance-single - ----------------
#NOTES:
     dance-single:
     :
     Beginner:
     5:
     0.201,0.286,0.124,0.165,0.000: // measure 1
1001
0000
0000
0000
,  // measure 2
1001
0000
0000
0000
,  // measure 3
0100
0000
0100
0000
,  // measure 4
0010
0010
0010
0000
,  // measure 5
0200
0000
0000
0000
,  // measure 6
0000
0000
0000
0000
,  // measure 7
0000
0000
0000
0000
,  // measure 8
0000
0000
0000
0300
,  // measure 9
1000
0000
0000
0000
,  // measure 10
0001
0000
0000
0000
,  // measure 11
0010
0000
0000
0000
,  // measure 12
0100
0000
0000
0000
,  // measure 13
0001
0000
0001
0000
,  // measure 14
1000
0000
1000
0000
,  // measure 15
0010
0000
0010
0000
,  // measure 16
0100
0000
0000
0000
,  // measure 17
0001
0000
0000
0000
,  // measure 18
1000
0000
0000
0000
,  // measure 19
0001
0000
0000
0000
,  // measure 20
0010
0000
0000
0000
,  // measure 21
0100
0000
0000
0000
,  // measure 22
1000
0000
0000
0000
,  // measure 23
0100
0000
0001
0000
,  // measure 24
0100
0000
1000
0000
,  // measure 25
0010
0000
0000
0000
,  // measure 26
0100
0000
0000
0000
,  // measure 27
1000
0000
0000
0000
,  // measure 28
0001
0000
0000
0000
,  // measure 29
0100
0000
0100
0000
,  // measure 30
0010
0000
0010
0000
,  // measure 31
1000
1000
0000
0001
,  // measure 32
0001
0000
0000
0000
,  // measure 33
0100
0000
0100
0000
,  // measure 34
0001
0000
1000
0000
,  // measure 35
0001
0000
0100
0000
,  // measure 36
1000
0000
0010
0010
,  // measure 37
0010
0000
0001
0000
,  // measure 38
0100
0000
0001
0000
,  // measure 39
0100
0000
0100
0000
,  // measure 40
0001
0001
0001
0000
,  // measure 41
1001
0000
0000
0000
,  // measure 42
0110
0000
0000
0000
,  // measure 43
1001
0000
0000
0000
,  // measure 44
0110
0000
0000
0000
,  // measure 45
0101
0000
0000
0000
,  // measure 46
1100
0000
0000
0000
,  // measure 47
0011
0000
0000
0000
,  // measure 48
1010
0000
0000
0000
,  // measure 49
1001
0000
0000
0000
,  // measure 50
0002
0000
0000
0003
,  // measure 51
2000
0000
0000
3000
,  // measure 52
0020
0000
0000
0030
,  // measure 53
0200
0000
0000
0300
,  // measure 54
1000
0000
0001
0000
,  // measure 55
1000
0000
0001
0000
,  // measure 56
1000
0000
0100
0000
,  // measure 57
0010
0000
0001
0000
,  // measure 58
0010
0000
0100
0000
,  // measure 59
0010
0000
0100
0000
,  // measure 60
0220
0000
0000
0000
,  // measure 61
0000
0000
0000
0330
,  // measure 62
1000
0000
1000
0000
,  // measure 63
0001
0001
0001
0000
,  // measure 64
0001
0000
0001
0000
,  // measure 65
1000
1000
1000
0000
,  // measure 66
0100
0000
0100
0000
,  // measure 67
0010
0010
0010
0000
,  // measure 68
0010
0000
0010
0000
,  // measure 69
0100
0100
0100
0000
,  // measure 70
1000
0000
1000
0000
,  // measure 71
0100
0000
0001
0000
,  // measure 72
0001
0000
0001
0000
,  // measure 73
0010
0000
1000
0000
,  // measure 74
0010
0000
0010
0000
,  // measure 75
0100
0000
0100
0000
,  // measure 76
0220
0000
0000
0000
,  // measure 77
0000
0000
0000
0330
,  // measure 78
1000
0000
1000
0000
,  // measure 79
0001
0000
0001
0000
,  // measure 80
0020
0000
0000
0030
,  // measure 81
0200
0000
0000
0300
,  // measure 82
2000
0000
0000
3000
,  // measure 83
0002
0000
0000
0003
,  // measure 84
2002
0000
0000
0000
,  // measure 85
0000
0000
0000
3003
,  // measure 86
0100
0000
0000
0000
,  // measure 87
0000
0000
0000
0000
,  // measure 88
0010
0000
0000
0000
,  // measure 89
0000
0000
0000
0000
,  // measure 90
0001
0000
0000
0000
,  // measure 91
0000
0000
0000
0000
,  // measure 92
1000
0000
0000
0000
,  // measure 93
0000
0000
0000
0000
,  // measure 94
2000
0000
0000
0000
,  // measure 95
0000
0000
3000
0000
,  // measure 96
0002
0000
0000
0000
,  // measure 97
0000
0000
0003
0000
,  // measure 98
0020
0000
0000
0000
,  // measure 99
0000
0030
0000
0000
,  // measure 100
0220
0330
0000
0000
0000
0000
0000
0000
0000
0000
0000
0000
0000
0000
0000
0000
0000
0000
0000
0000
0000
0000
0000
0000
0000
0000
0000
0000
0000
0000
0000
0000
0000
0000
0000
0000
0000
0000
0000
0000
0000
0000
0000
0000
0000
0000
0000
0000
0000
0000
0000
0000
0000
0000
0000
0000
0000
0000
0000
0000
0000
0000
0000
0000
0000
0000
0000
0000
0000
0000
0000
0000
0000
0000
0000
0000
0000
0000
0000
0000
0000
0000
0000
0000
0000
0000
0000
0000
0000
0000
0000
0000
0000
0000
0000
0000
0000
0000
0000
0000
0000
0000
0000
0000
0000
0000
0000
0000
0000
0000
0000
0000
0000
0000
0000
0000
0000
0000
0000
0000
0000
0000
0000
0000
0000
0000
0000
0000
0000
0000
0000
0000
0000
0000
0000
0000
0000
0000
0000
0000
0000
0000
0000
0000
0000
0000
0000
0000
0000
0000
0000
0000
0000
0000
0000
0000
0000
0000
0000
0000
0000
0000
0000
0000
0000
0000
0000
0000
0000
0000
0000
0000
0000
0000
0000
0000
0000
0000
0000
0000
0000
0000
0000
0000
0000
0000
0000
0000
0000
0000
0000
0000
;
