#TITLE:u9;
#SUBTITLE:;
#ARTIST:paraoka/futher;
#TITLETRANSLIT:;
#SUBTITLETRANSLIT:;
#ARTISTTRANSLIT:;
#GENRE:;
#CREDIT:;
#BANNER:;
#BACKGROUND:;
#LYRICSPATH:;
#CDTITLE:;
#MUSIC:u9.ogg;
#OFFSET:-0.125;
#SAMPLESTART:60.586;
#SAMPLELENGTH:12.000;
#SELECTABLE:YES;
#BPMS:0.000=123.000
,176.250=90.000
,188.125=123.000
;
#STOPS:
;
#BGCHANGES:;
#KEYSOUNDS:;
#ATTACKS:;

//---------------dance-single - Raymond Tracer (Original)----------------
#NOTES:
     dance-single:
     Raymond Tracer (Original):
     Challenge:
     15:
     1.000,1.000,0.546,0.021,1.000,661.000,53.000,2.000,0.000,0.000,0.000,1.000,1.000,0.546,0.021,1.000,661.000,53.000,2.000,0.000,0.000,0.000: // measure 0
0000
0000
0000
0000
0000
0000
0000
0000
0000
0000
0000
0000
1000
0100
0010
0001
0010
0100
1000
0010
0100
0001
0100
0010
,  // measure 1
1000
0100
0010
0001
0100
0010
1000
0001
1000
0100
1000
0001
0100
0010
1000
0010
0100
0001
1000
0100
0010
0001
1000
0100
,  // measure 2
1000
0000
0000
0000
0000
0000
0000
0000
0001
0000
0000
0000
0000
0000
0000
0000
0010
0000
0000
0000
0000
0000
0000
0000
0100
0000
0000
0000
0000
0000
0000
0000
1000
0000
0000
0000
0000
0000
0000
0000
0010
0000
0000
0000
0000
0000
0000
0000
0100
0000
0000
0000
0000
0000
0000
0000
0001
0000
0000
0000
0000
0000
0000
0000
1000
0000
0000
0000
0000
0000
0000
0000
0010
0000
0000
0000
0000
0000
0000
0000
0100
0000
0000
0000
0000
0000
0000
0000
0001
0000
0000
0000
0000
0000
0000
0000
0100
0000
0000
0000
0000
0000
0000
0000
0010
0000
0000
0000
0000
0000
0000
0000
1000
0000
0000
0000
0000
0000
0000
0000
0100
0000
0000
0000
0000
0000
0000
0000
0010
0000
0000
0000
0000
0000
0000
0000
0001
0000
0000
0000
0000
0000
0000
0000
0010
0000
0000
0000
0000
0000
0100
0000
0000
0000
0000
0000
1000
0000
0000
0000
0000
0000
0001
0000
0000
0000
0000
0000
0100
0000
0000
0000
0000
0000
0010
0000
0000
0000
0000
0000
1000
0000
0000
0000
0000
0000
0001
0000
0000
0000
0000
0000
,  // measure 3
0100
0010
1000
0100
0010
0001
0010
0100
1000
0010
0100
0001
1000
0000
0000
0000
0000
0000
0001
0000
0100
0000
0010
0000
1000
0000
0001
0000
1000
0000
0100
0000
,  // measure 4
0010
0000
0000
1001
0000
0110
0000
0000
0000
1000
0010
0100
0001
0010
0100
1000
,  // measure 5
0001
0000
0000
0101
0000
1010
0000
0000
0000
1000
0001
0100
0001
1000
0100
0010
,  // measure 6
0001
0000
0000
1100
0000
0011
0000
0000
0000
0001
0100
0001
0100
0010
1000
0001
,  // measure 7
0100
0000
0100
0010
1000
0001
1000
0000
0000
1000
0001
0100
0010
1000
0001
0100
,  // measure 8
0010
0000
0000
1010
0000
1001
0000
0000
0000
0001
0010
0100
1000
0001
0010
0100
,  // measure 9
1000
0000
0000
0011
0000
0110
0000
0000
0000
0001
1000
0100
1000
0010
0100
0001
,  // measure 10
1000
0000
0000
0101
0000
1100
0000
0000
0000
1000
0100
0010
0001
0100
0010
1000
,  // measure 11
0001
0000
0000
0000
0001
0000
0100
0000
0010
0000
1000
0000
0010
0000
0000
0000
1000
0001
0100
0010
1000
0100
0010
0001
0010
0100
1000
0001
1000
0100
0010
0001
,  // measure 12
0010
0100
1000
0010
0100
0001
1000
0001
0100
0010
1000
0001
0100
0010
0100
0001
1000
0100
0010
0001
0010
0100
1000
0010
0100
0001
1000
0100
0010
0001
1000
0000
,  // measure 13
1001
0000
1001
0000
1001
0000
0000
0000
0100
0000
0010
0000
0100
0000
0000
0000
0010
1000
0100
1000
0001
1000
0100
0010
0001
0100
0001
1000
0001
0100
0010
1000
,  // measure 14
0010
0100
0001
1000
0100
0010
0001
0010
0100
1000
0001
0100
0010
1000
0001
0000
0000
0000
0101
0000
0000
0000
0000
0000
0110
0000
0000
0000
0000
0000
1010
0000
,  // measure 15
0000
0000
0000
0000
1100
0000
0000
0000
0000
0000
1000
0000
0001
0000
0000
0000
0001
0010
0100
1000
0100
0010
0001
0100
0010
1000
0001
0100
0010
1000
0100
0010
,  // measure 16
0001
1000
0100
1000
0001
0010
0100
1000
0100
0010
0100
1000
0001
0000
0000
0000
0100
0000
0010
0000
0000
0000
0010
0000
1000
0000
0000
0000
1000
0000
0100
0000
,  // measure 17
0000
0100
0010
0000
0010
0001
1000
0001
0100
0010
1000
0001
0100
0010
1000
0001
,  // measure 18
1000
0100
0010
0001
0010
0100
1000
0000
0001
0100
0010
1000
0010
0100
0001
0000
,  // measure 19
1000
0100
0010
0100
1000
0001
0100
0000
0100
0010
0000
0010
1000
0000
1000
0100
,  // measure 20
0010
0001
0100
0010
1000
0100
0010
0100
1000
0001
0100
0010
0100
0001
0000
1100
,  // measure 21
0000
0000
0101
0000
0000
0011
0000
0000
1010
0000
0000
1001
0100
0010
1000
0000
,  // measure 22
0001
0010
0100
0010
0001
1000
0101
0000
1001
0000
0110
0000
0010
1000
0010
0100
,  // measure 23
0001
0000
0000
0101
0000
1000
0100
0010
0001
0100
0010
0000
1010
0000
1000
0001
,  // measure 24
0100
0001
1000
0100
0000
0000
0000
0000
0000
0000
1100
0000
0011
1000
0001
1000
,  // measure 25
0100
0010
0001
0100
0010
1000
0001
1000
0100
0010
0001
1000
0100
1000
0001
0100
,  // measure 26
0010
1000
0001
0010
0100
0010
0001
0000
0001
0100
0000
0100
0010
1000
0100
0000
,  // measure 27
0100
0010
0001
1000
0001
0100
0110
0000
0010
1010
0000
1000
0001
0100
0010
0000
,  // measure 28
0000
0010
0000
0000
0000
0000
0010
0000
0000
0000
0000
0000
0000
0000
0000
0000
0000
0000
0000
0000
0000
0000
0000
0000
0000
0000
1000
0000
0001
0000
0100
0000
,  // measure 29
0001
0010
0001
1000
0100
1000
0000
0000
0000
0000
0000
0000
0000
0000
0000
1001
,  // measure 30
0000
1001
0000
1000
0100
0001
0100
0000
0000
0000
0000
1000
0000
0000
0000
0000
,  // measure 31
1000
0001
0000
1000
0100
1000
0000
1000
0010
1000
0000
1000
0001
1000
0000
1000
,  // measure 32
0010
1000
0000
1000
0100
1000
0000
1000
0001
0100
0000
0000
0000
0000
0100
0010
,  // measure 33
0100
0001
0100
0010
0100
1000
0100
0001
0100
1000
0100
0010
0100
0001
0100
0010
,  // measure 34
0100
1000
0100
0010
0100
0001
0100
0010
0100
1000
0100
0001
0100
0001
0100
0010
,  // measure 35
0100
0001
0000
0001
0100
0001
0000
0001
0010
0001
0000
0001
1000
0001
0000
0001
,  // measure 36
0010
0001
0000
0001
0100
0001
0000
0001
1000
0010
0000
0110
0000
0000
0010
1000
,  // measure 37
0010
0100
0010
1000
0010
0001
0010
1000
0010
0001
0010
1000
0010
0100
0010
0001
,  // measure 38
0010
0100
0010
0001
0010
1000
0010
0100
0010
0001
0010
0100
0010
1000
0010
0001
,  // measure 39
0010
1000
0000
1000
0001
0010
0100
1000
0010
0100
0000
0100
0010
1000
0100
0010
,  // measure 40
0001
0100
0000
0100
0010
1000
0001
0100
0010
1000
0000
1000
0001
0100
0001
0100
,  // measure 41
0010
1000
0000
1000
0100
0010
0001
1100
0000
0110
0000
0011
0000
0001
0100
0001
,  // measure 42
1000
0000
0100
0000
1000
0000
0001
0100
0010
0100
0001
0100
0010
0100
0001
0100
0010
0100
0001
0000
0000
0000
1000
0000
0001
0000
0100
0000
0010
0000
1010
0000
,  // measure 43
0000
1000
0001
0100
0001
0010
0001
1000
0100
0010
0100
1000
0010
1000
0100
1000
,  // measure 44
0001
0110
0000
0010
0000
0101
0000
0010
0000
1100
0000
0001
0000
1010
0000
0100
,  // measure 45
0000
0011
0000
0100
0000
1001
0000
0010
0000
0101
0000
1000
0000
0110
0000
0001
,  // measure 46
0000
1000
0000
0100
0000
0011
0000
0110
0000
1010
0000
0011
0000
1100
0000
0000
,  // measure 47
0000
1000
0000
0001
0000
0100
0000
0000
0000
0010
0000
0000
0000
0010
0000
1000
0000
0100
0000
0000
0000
0100
0000
0000
0000
0000
0000
0002
0000
0000
0000
2000
,  // measure 48
0000
0000
0000
0000
0000
0000
0000
0000
0000
3003
0000
0000
0000
0000
0000
0000
0000
0000
0000
0000
0000
0000
0000
0000
0000
0000
0000
0000
0000
0000
0000
0000
;

//---------------dance-single - Raymond Tracer (Easy)----------------
#NOTES:
     dance-single:
     Raymond Tracer:
     Easy:
     11:
     0.909,0.771,0.525,0.031,1.000,564.000,51.000,3.000,0.000,0.000,0.000,0.909,0.771,0.525,0.031,1.000,564.000,51.000,3.000,0.000,0.000,0.000: // measure 0
0000
0000
0000
0000
0000
0000
0000
0000
1000
0100
0010
0001
0100
0010
1000
0001
,  // measure 1
0100
0010
1000
0100
0010
0001
0010
0100
1000
0010
0100
0001
1000
0010
0100
0010
,  // measure 2
1000
0100
0010
0001
1000
0100
0010
0001
0100
0010
1000
0001
0010
0100
1000
0010
,  // measure 3
0100
0001
1000
0010
1000
0100
1000
0000
0000
0001
0100
0010
1000
0001
0000
0100
,  // measure 4
0010
0000
0000
1001
0000
0110
0000
0000
0000
1000
0010
0100
0001
0010
0000
0100
,  // measure 5
1000
0000
0000
0101
0000
1010
0000
0000
0000
1000
0001
0100
0001
1000
0000
0100
,  // measure 6
0010
0000
0000
1100
0000
0011
0000
0000
0000
0001
0100
0001
0100
0010
0000
0010
,  // measure 7
0100
0000
0100
0010
1000
0001
1000
0000
0000
1000
0001
0100
0010
1000
0000
0001
,  // measure 8
0100
0000
0000
1010
0000
1001
0000
0000
0000
0001
0010
0100
1000
0001
0000
1000
,  // measure 9
0001
0000
0000
0011
0000
0110
0000
0000
0000
0001
1000
0100
1000
0010
0000
1000
,  // measure 10
0001
0000
0000
0101
0000
1100
0000
0000
0000
1000
0100
0010
0001
0100
0000
0001
,  // measure 11
1000
0000
0001
0100
0010
1000
0010
0000
1000
0100
0010
0001
1000
0010
0100
0001
,  // measure 12
1000
0100
0010
0100
1000
0001
0100
0010
1000
0001
1000
0100
0010
0001
1000
0001
,  // measure 13
1000
1000
1000
0000
0001
0001
0001
0000
0010
0100
1000
0001
1000
0100
1000
0010
,  // measure 14
0100
0001
1000
0010
1000
0100
1000
0001
0000
0101
0000
0000
0110
0000
0000
1010
,  // measure 15
0000
0000
1100
0000
0000
1000
0001
0000
0001
0100
0010
1000
0100
0010
0001
1000
,  // measure 16
0001
0100
0010
0100
0001
1000
0001
0000
0100
0010
0000
0010
1000
0000
1000
0100
,  // measure 17
0000
0100
0010
0000
0010
0001
1000
0001
0100
0010
1000
0001
0100
0010
1000
0001
,  // measure 18
1000
0100
0010
0001
0010
0100
1000
0000
0001
0100
0010
1000
0010
0100
0001
0000
,  // measure 19
1000
0100
0010
0100
1000
0001
0100
0000
0100
0010
0000
0010
1000
0000
1000
0100
,  // measure 20
0010
0001
0100
0010
1000
0100
0010
0100
1000
0001
0100
0010
0100
0001
0000
1100
,  // measure 21
0000
0000
0101
0000
0000
0011
0000
0000
1010
0000
0000
1001
0100
0010
1000
0000
,  // measure 22
0001
0010
0100
0010
0001
1000
0101
0000
1001
0000
0110
0000
0010
1000
0010
0100
,  // measure 23
0001
0000
0000
0101
0000
1000
0100
0010
0001
0100
0010
0000
1010
0000
1000
0001
,  // measure 24
0100
0001
1000
0000
0000
0000
0000
0000
0000
0000
1100
0000
0011
1000
0001
1000
,  // measure 25
0100
0010
0001
0100
0010
1000
0001
1000
0100
0010
0001
1000
0100
1000
0001
0100
,  // measure 26
0010
1000
0001
0010
0100
0010
0001
0000
0001
0100
0000
0100
0010
1000
0100
0000
,  // measure 27
0100
0010
0001
1000
0001
0100
0110
0000
0010
1010
0000
1000
0001
0100
0010
0000
,  // measure 28
0000
0010
0000
0000
0000
0000
0020
0000
0030
0000
0000
0000
0000
0000
0000
0000
0000
0000
0000
0000
0000
0000
0000
0000
0000
0000
1000
0000
0001
0000
0100
0000
,  // measure 29
0001
0010
0001
1000
0100
0000
0000
0000
0000
0000
0000
0000
0000
0000
0000
1001
,  // measure 30
0000
1001
0000
1000
0100
0001
0100
0000
0000
0000
0000
1000
0000
0000
0000
0000
,  // measure 31
0001
1000
0000
1000
0100
1000
0000
1000
0010
1000
0000
1000
0001
1000
0000
1000
,  // measure 32
0010
1000
0000
1000
0100
1000
0000
1000
0001
0100
0000
0000
0000
0000
0100
0010
,  // measure 33
0100
0001
0100
0010
0100
1000
0100
0001
0100
1000
0100
0010
0100
1000
0100
0001
,  // measure 34
0100
1000
0100
0010
0100
0001
0100
0010
0100
1000
0100
0001
0100
0010
0100
1000
,  // measure 35
0100
0001
0000
0001
0100
0001
0000
0001
0010
0001
0000
0001
1000
0001
0000
0001
,  // measure 36
0010
0001
0000
0001
0100
0001
0000
0001
1000
0010
0000
0110
0000
0000
0010
1000
,  // measure 37
0010
0100
0010
1000
0010
0001
0010
1000
0010
0100
0010
1000
0010
0100
0010
0001
,  // measure 38
0010
0100
0010
0001
0010
1000
0010
0100
0010
0001
0010
0100
0010
1000
0010
0001
,  // measure 39
0010
1000
0000
1000
0001
0010
0100
1000
0010
0100
0000
0100
0010
1000
0100
0010
,  // measure 40
0001
0100
0000
0100
0010
1000
0001
0100
0010
1000
0000
1000
0001
0100
0001
0100
,  // measure 41
0010
1000
0000
1000
0100
0010
0001
1100
0000
0110
0000
0011
0000
0001
0100
0001
,  // measure 42
1000
0100
1000
0001
0100
0010
0100
0001
0100
0010
0000
1000
0001
0100
0010
1010
,  // measure 43
0000
1000
0001
0100
0001
0011
0000
1000
0100
0010
0100
1000
0001
1010
0000
1000
,  // measure 44
0001
0110
0000
0010
0000
0101
0000
0010
0000
1100
0000
0001
0000
1010
0000
0100
,  // measure 45
0000
0011
0000
0100
0000
1001
0000
0010
0000
0101
0000
1000
0000
0001
0000
1000
,  // measure 46
0000
0001
0000
1000
0000
0011
0000
0110
0000
1010
0000
0011
0000
1100
0000
0000
,  // measure 47
0000
1000
0000
0001
0000
0100
0000
0000
0000
0010
0000
0000
0000
0010
0000
1000
0000
0100
0000
0000
0000
0100
0000
0000
0000
0010
0000
0002
0000
0000
0000
2000
,  // measure 48
0000
0000
0000
0000
0000
0000
0000
0000
0000
3003
0000
0000
0000
0000
0000
0000
0000
0000
0000
0000
0000
0000
0000
0000
0000
0000
0000
0000
0000
0000
0000
0000
;

//---------------dance-single - Raymond Tracer----------------
#NOTES:
     dance-single:
     Raymond Tracer (Medium):
     Medium:
     12:
     0.987,1.000,0.525,0.041,1.000,616.000,51.000,4.000,0.000,0.000,0.000,0.987,1.000,0.525,0.041,1.000,616.000,51.000,4.000,0.000,0.000,0.000: // measure 0
0000
0000
0000
0000
0000
0000
0000
0000
0000
0000
0000
0000
1000
0100
0010
0001
0010
0100
1000
0010
0100
0001
0100
0010
,  // measure 1
1000
0100
0010
0001
0100
0010
1000
0001
1000
0100
1000
0001
0100
0010
1000
0010
0100
0001
1000
0100
0010
0001
1000
0100
,  // measure 2
1000
0001
0010
0100
1000
0010
0100
0001
1000
0010
0100
0001
0100
0010
1000
0100
0010
0001
0010
0100
1000
0010
0100
0001
,  // measure 3
1000
0000
0100
0000
0010
0000
0001
0000
0100
0000
0010
0000
1000
0000
0001
0000
0100
0000
0001
0000
0000
0000
0000
0000
0000
0000
0000
0001
0000
0000
0100
0000
0000
0010
0000
0000
1000
0000
0000
0001
0000
0000
0000
0000
0000
0100
0000
0000
,  // measure 4
0010
0000
0000
1001
0000
0110
0000
0000
0000
1000
0010
0100
0001
0010
0000
0100
,  // measure 5
1000
0000
0000
0101
0000
1010
0000
0000
0000
1000
0001
0100
0001
1000
0000
0100
,  // measure 6
0010
0000
0000
1100
0000
0011
0000
0000
0000
0001
0100
0001
0100
0010
0000
0010
,  // measure 7
0100
0000
0100
0010
1000
0001
1000
0000
0000
1000
0001
0100
0010
1000
0000
0001
,  // measure 8
0100
0000
0000
1010
0000
1001
0000
0000
0000
0001
0010
0100
1000
0001
0000
1000
,  // measure 9
0001
0000
0000
0011
0000
0110
0000
0000
0000
0001
1000
0100
1000
0010
0000
1000
,  // measure 10
0001
0000
0000
0101
0000
1100
0000
0000
0000
1000
0100
0010
0001
0100
0000
0001
,  // measure 11
1000
0000
0000
0000
0000
0000
0001
0000
0000
0100
0000
0000
0010
0000
0000
1000
0000
0000
0010
0000
0000
0000
0000
0000
1000
0000
0100
0000
0010
0000
0001
0000
0010
0000
0100
0000
1000
0000
0001
0000
0010
0000
0001
0000
1000
0000
0010
0000
,  // measure 12
0100
0001
1000
0100
0010
0001
0010
0100
1000
0001
0100
0010
1000
0001
0100
0010
1000
0100
0010
0100
1000
0001
0100
0010
,  // measure 13
0100
0000
0000
0100
0000
0000
0100
0000
0000
0000
0000
0000
0001
0000
0000
0001
0000
0000
0001
0000
0000
0000
0000
0000
0010
0000
0100
0000
1000
0000
0001
0000
0010
0000
0100
0000
0010
0000
0001
0000
1000
0000
0010
0000
0100
0000
0010
0000
,  // measure 14
1000
0000
0001
0000
0100
0000
0010
0000
0100
0000
0001
0000
1000
0000
0100
0000
0010
0000
0001
0000
2000
3000
0000
0000
0000
0000
0000
0101
0000
0000
0000
0000
0000
0000
0000
0000
0110
0000
0000
0000
0000
0000
0000
0000
0000
1010
0000
0000
,  // measure 15
0000
0000
0000
0000
0000
0000
1100
0000
0000
0000
0000
0000
0000
0000
0000
1000
0000
0000
0001
0000
0000
0000
0000
0000
0001
0000
1000
0000
0010
0000
0100
0000
0001
0000
1000
0000
0100
0000
0010
0000
0001
0000
0100
0000
0010
0000
1000
0000
,  // measure 16
0100
0000
0010
0000
0100
0000
1000
0000
0001
0000
0010
0000
0100
0000
0010
0000
0001
0000
1000
0000
0000
0000
0000
0000
0100
0000
0000
0010
0000
0000
0000
0000
0000
0010
0000
0000
0001
0000
0000
0000
0000
0000
1000
0000
0000
0100
0000
0000
,  // measure 17
0000
0100
0010
0000
0010
0001
1000
0001
0100
0010
1000
0001
0100
0010
1000
0001
,  // measure 18
1000
0100
0010
0001
0010
0100
1000
0000
0001
0100
0010
1000
0010
0100
0001
0000
,  // measure 19
1000
0100
0010
0100
1000
0001
0100
0000
0100
0010
0000
0010
1000
0000
1000
0100
,  // measure 20
0010
0001
0100
0010
1000
0100
0010
0100
1000
0001
0100
0010
0100
0001
0000
1100
,  // measure 21
0000
0000
0101
0000
0000
0011
0000
0000
1010
0000
0000
1001
0100
0010
1000
0000
,  // measure 22
0001
0010
0100
0010
0001
1000
0101
0000
1001
0000
0110
0000
0010
1000
0010
0100
,  // measure 23
0001
0000
0000
0101
0000
1000
0100
0010
0001
0100
0010
0000
1010
0000
1000
0001
,  // measure 24
0100
0001
1000
0000
0000
0000
0000
0000
0000
0000
1100
0000
0011
1000
0001
1000
,  // measure 25
0100
0010
0001
0100
0010
1000
0001
1000
0100
0010
0001
1000
0100
1000
0001
0100
,  // measure 26
0010
1000
0001
0010
0100
0010
0001
0000
0001
0100
0000
0100
0010
1000
0100
0000
,  // measure 27
0100
0010
0001
1000
0001
0100
0110
0000
0010
1010
0000
1000
0001
0100
0010
0000
,  // measure 28
0000
0010
0000
0000
0000
0000
0020
0000
0030
0000
0000
0000
0000
0000
0000
0000
0000
0000
0000
0000
0000
0000
0000
0000
0000
0000
1000
0000
0001
0000
0100
0000
,  // measure 29
0001
0010
0001
1000
0100
0000
0000
0000
0000
0000
0000
0000
0000
0000
0000
1001
,  // measure 30
0000
1001
0000
1000
0100
0001
0100
0000
0000
0000
0000
1000
0000
0000
0000
0000
,  // measure 31
0001
1000
0000
1000
0100
1000
0000
1000
0010
1000
0000
1000
0001
1000
0000
1000
,  // measure 32
0010
1000
0000
1000
0100
1000
0000
1000
0001
0100
0000
0000
0000
0000
0100
0010
,  // measure 33
0100
0001
0100
0010
0100
1000
0100
0001
0100
1000
0100
0010
0100
1000
0100
0001
,  // measure 34
0100
1000
0100
0010
0100
0001
0100
0010
0100
1000
0100
0001
0100
0010
0100
1000
,  // measure 35
0100
0001
0000
0001
0100
0001
0000
0001
0010
0001
0000
0001
1000
0001
0000
0001
,  // measure 36
0010
0001
0000
0001
0100
0001
0000
0001
1000
0010
0000
0110
0000
0000
0010
1000
,  // measure 37
0010
0100
0010
1000
0010
0001
0010
1000
0010
0100
0010
1000
0010
0100
0010
0001
,  // measure 38
0010
0100
0010
0001
0010
1000
0010
0100
0010
0001
0010
0100
0010
1000
0010
0001
,  // measure 39
0010
1000
0000
1000
0001
0010
0100
1000
0010
0100
0000
0100
0010
1000
0100
0010
,  // measure 40
0001
0100
0000
0100
0010
1000
0001
0100
0010
1000
0000
1000
0001
0100
0001
0100
,  // measure 41
0010
1000
0000
1000
0100
0010
0001
1100
0000
0110
0000
0011
0000
0001
0100
0001
,  // measure 42
1000
0000
0000
0100
0000
0000
1000
0000
0000
0001
0000
0100
0000
0010
0000
0100
0000
0001
0000
0100
0000
0010
0000
0100
0000
0001
0000
0100
0000
0000
0000
0000
0000
0010
0000
0000
1000
0000
0000
0001
0000
0000
0100
0000
0000
0101
0000
0000
,  // measure 43
0000
1000
0001
0100
0001
0011
0000
1000
0100
0010
0100
1000
0001
1010
0000
1000
,  // measure 44
0001
0110
0000
0010
0000
0101
0000
0010
0000
1100
0000
0001
0000
1010
0000
0100
,  // measure 45
0000
0011
0000
0100
0000
1001
0000
0010
0000
0101
0000
1000
0000
0001
0000
0010
,  // measure 46
0000
0001
0000
1000
0000
0011
0000
0110
0000
1010
0000
0011
0000
1100
0000
0000
,  // measure 47
0000
1000
0000
0001
0000
0100
0000
0000
0000
0010
0000
0000
0000
0010
0000
1000
0000
0100
0000
0000
0000
0100
0000
0000
0000
0010
0000
0002
0000
0000
0000
2000
,  // measure 48
0000
0000
0000
0000
0000
0000
0000
0000
0000
3003
0000
0000
0000
0000
0000
0000
0000
0000
0000
0000
0000
0000
0000
0000
0000
0000
0000
0000
0000
0000
0000
0000
;

//---------------dance-single - Raymond Tracer----------------
#NOTES:
     dance-single:
     Raymond Tracer (Hard):
     Hard:
     15:
     1.000,1.000,0.525,0.031,1.000,650.000,51.000,3.000,0.000,0.000,0.000,1.000,1.000,0.525,0.031,1.000,650.000,51.000,3.000,0.000,0.000,0.000: // measure 0
0000
0000
0000
0000
0000
0000
0000
0000
0000
0000
0000
0000
1000
0100
0010
0001
0010
0100
1000
0010
0100
0001
0100
0010
,  // measure 1
1000
0100
0010
0001
0100
0010
1000
0001
1000
0100
1000
0001
0100
0010
1000
0010
0100
0001
1000
0100
0010
0001
1000
0100
,  // measure 2
1000
0000
0000
0000
0000
0000
0000
0000
0001
0000
0000
0000
0000
0000
0000
0000
0010
0000
0000
0000
0000
0000
0000
0000
0100
0000
0000
0000
0000
0000
0000
0000
1000
0000
0000
0000
0000
0000
0000
0000
0010
0000
0000
0000
0000
0000
0000
0000
0100
0000
0000
0000
0000
0000
0000
0000
0001
0000
0000
0000
0000
0000
0000
0000
1000
0000
0000
0000
0000
0000
0000
0000
0010
0000
0000
0000
0000
0000
0000
0000
0100
0000
0000
0000
0000
0000
0000
0000
0001
0000
0000
0000
0000
0000
0000
0000
0100
0000
0000
0000
0000
0000
0000
0000
0010
0000
0000
0000
0000
0000
0000
0000
1000
0000
0000
0000
0000
0000
0000
0000
0100
0000
0000
0000
0000
0000
0000
0000
0010
0000
0000
0000
0000
0000
0000
0000
0001
0000
0000
0000
0000
0000
0000
0000
0010
0000
0000
0000
0000
0000
0100
0000
0000
0000
0000
0000
1000
0000
0000
0000
0000
0000
0001
0000
0000
0000
0000
0000
0100
0000
0000
0000
0000
0000
0010
0000
0000
0000
0000
0000
1000
0000
0000
0000
0000
0000
0001
0000
0000
0000
0000
0000
,  // measure 3
0100
0010
1000
0100
0010
0001
0010
0100
1000
0010
0100
0001
1000
0000
0000
0000
0000
0000
0001
0000
0100
0000
0010
0000
1000
0000
0001
0000
0000
0000
0100
0000
,  // measure 4
0010
0000
0000
1001
0000
0110
0000
0000
0000
1000
0010
0100
0001
0010
0000
0100
,  // measure 5
1000
0000
0000
0101
0000
1010
0000
0000
0000
1000
0001
0100
0001
1000
0000
0100
,  // measure 6
0010
0000
0000
1100
0000
0011
0000
0000
0000
0001
0100
0001
0100
0010
0000
0010
,  // measure 7
0100
0000
0100
0010
1000
0001
1000
0000
0000
1000
0001
0100
0010
1000
0000
0001
,  // measure 8
0100
0000
0000
1010
0000
1001
0000
0000
0000
0001
0010
0100
1000
0001
0000
1000
,  // measure 9
0001
0000
0000
0011
0000
0110
0000
0000
0000
0001
1000
0100
1000
0010
0000
1000
,  // measure 10
0001
0000
0000
0101
0000
1100
0000
0000
0000
1000
0100
0010
0001
0100
0000
0001
,  // measure 11
1000
0000
0000
0000
0001
0000
0100
0000
0010
0000
1000
0000
0010
0000
0000
0000
1000
0001
0100
0010
1000
0100
0010
0001
0010
0100
1000
0001
1000
0100
0010
0001
,  // measure 12
0010
0100
1000
0010
0100
0001
1000
0001
0100
0010
1000
0001
0100
0010
0100
0001
1000
0100
0010
0001
0010
0100
1000
0010
0100
0001
1000
0100
0010
0001
1000
0000
,  // measure 13
0001
0000
0001
0000
0001
0000
0000
0000
1000
0000
1000
0000
1000
0000
0000
0000
0010
1000
0100
1000
0001
1000
0100
0010
0001
0100
0001
1000
0001
0100
0010
1000
,  // measure 14
0010
0100
0001
1000
0100
0010
0001
0010
0100
1000
0001
0100
0010
1000
0001
0000
0000
0000
0101
0000
0000
0000
0000
0000
0110
0000
0000
0000
0000
0000
1010
0000
,  // measure 15
0000
0000
0000
0000
1100
0000
0000
0000
0000
0000
1000
0000
0001
0000
0000
0000
0001
0010
0100
1000
0100
0010
0001
0100
0010
1000
0001
0100
0010
1000
0100
0010
,  // measure 16
0001
1000
0100
1000
0001
0010
0100
1000
0100
0010
0100
1000
0001
0000
0000
0000
0100
0000
0010
0000
0000
0000
0010
0000
1000
0000
0000
0000
1000
0000
0100
0000
,  // measure 17
0000
0100
0010
0000
0010
0001
1000
0001
0100
0010
1000
0001
0100
0010
1000
0001
,  // measure 18
1000
0100
0010
0001
0010
0100
1000
0000
0001
0100
0010
1000
0010
0100
0001
0000
,  // measure 19
1000
0100
0010
0100
1000
0001
0100
0000
0100
0010
0000
0010
1000
0000
1000
0100
,  // measure 20
0010
0001
0100
0010
1000
0100
0010
0100
1000
0001
0100
0010
0100
0001
0000
1100
,  // measure 21
0000
0000
0101
0000
0000
0011
0000
0000
1010
0000
0000
1001
0100
0010
1000
0000
,  // measure 22
0001
0010
0100
0010
0001
1000
0101
0000
1001
0000
0110
0000
0010
1000
0010
0100
,  // measure 23
0001
0000
0000
0101
0000
1000
0100
0010
0001
0100
0010
0000
1010
0000
1000
0001
,  // measure 24
0100
0001
1000
0000
0000
0000
0000
0000
0000
0000
1100
0000
0011
1000
0001
1000
,  // measure 25
0100
0010
0001
0100
0010
1000
0001
1000
0100
0010
0001
1000
0100
1000
0001
0100
,  // measure 26
0010
1000
0001
0010
0100
0010
0001
0000
0001
0100
0000
0100
0010
1000
0100
0000
,  // measure 27
0100
0010
0001
1000
0001
0100
0110
0000
0010
1010
0000
1000
0001
0100
0010
0000
,  // measure 28
0000
0010
0000
0000
0000
0000
0020
0000
0030
0000
0000
0000
0000
0000
0000
0000
0000
0000
0000
0000
0000
0000
0000
0000
0000
0000
1000
0000
0001
0000
0100
0000
,  // measure 29
0001
0010
0001
1000
0100
0000
0000
0000
0000
0000
0000
0000
0000
0000
0000
1001
,  // measure 30
0000
1001
0000
1000
0100
0001
0100
0000
0000
0000
0000
1000
0000
0000
0000
0000
,  // measure 31
0001
1000
0000
1000
0100
1000
0000
1000
0010
1000
0000
1000
0001
1000
0000
1000
,  // measure 32
0010
1000
0000
1000
0100
1000
0000
1000
0001
0100
0000
0000
0000
0000
0100
0010
,  // measure 33
0100
0001
0100
0010
0100
1000
0100
0001
0100
1000
0100
0010
0100
1000
0100
0001
,  // measure 34
0100
1000
0100
0010
0100
0001
0100
0010
0100
1000
0100
0001
0100
0010
0100
1000
,  // measure 35
0100
0001
0000
0001
0100
0001
0000
0001
0010
0001
0000
0001
1000
0001
0000
0001
,  // measure 36
0010
0001
0000
0001
0100
0001
0000
0001
1000
0010
0000
0110
0000
0000
0010
1000
,  // measure 37
0010
0100
0010
1000
0010
0001
0010
1000
0010
0100
0010
1000
0010
0100
0010
0001
,  // measure 38
0010
0100
0010
0001
0010
1000
0010
0100
0010
0001
0010
0100
0010
1000
0010
0001
,  // measure 39
0010
1000
0000
1000
0001
0010
0100
1000
0010
0100
0000
0100
0010
1000
0100
0010
,  // measure 40
0001
0100
0000
0100
0010
1000
0001
0100
0010
1000
0000
1000
0001
0100
0001
0100
,  // measure 41
0010
1000
0000
1000
0100
0010
0001
1100
0000
0110
0000
0011
0000
0001
0100
0001
,  // measure 42
1000
0000
0100
0000
1000
0000
0001
0100
0010
0100
0001
0100
0010
0100
0001
0100
0010
0100
0001
0000
0000
0000
1000
0000
0001
0000
0100
0000
0010
0000
1010
0000
,  // measure 43
0000
1000
0001
0100
0001
0011
0000
1000
0100
0010
0100
1000
0001
1010
0000
1000
,  // measure 44
0001
0110
0000
0010
0000
0101
0000
0010
0000
1100
0000
0001
0000
1010
0000
0100
,  // measure 45
0000
0011
0000
0100
0000
1001
0000
0010
0000
0101
0000
0001
0000
0010
0000
1000
,  // measure 46
0000
0010
0000
0001
0000
0011
0000
0110
0000
1010
0000
0011
0000
1100
0000
0000
,  // measure 47
0000
1000
0000
0001
0000
0100
0000
0000
0000
0010
0000
0000
0000
0010
0000
1000
0000
0100
0000
0000
0000
0100
0000
0000
0000
0010
0000
0002
0000
0000
0000
2000
,  // measure 48
0000
0000
0000
0000
0000
0000
0000
0000
0000
3003
0000
0000
0000
0000
0000
0000
0000
0000
0000
0000
0000
0000
0000
0000
0000
0000
0000
0000
0000
0000
0000
0000
;
