#TITLE:Time to Octagon;
#SUBTITLE:;
#ARTIST:Nprp;
#TITLETRANSLIT:;
#SUBTITLETRANSLIT:;
#ARTISTTRANSLIT:;
#GENRE:;
#CREDIT:;
#BANNER:;
#BACKGROUND:;
#LYRICSPATH:;
#CDTITLE:;
#MUSIC:Time to Octagon.mp3;
#OFFSET:0.000;
#SAMPLESTART:5.160;
#SAMPLELENGTH:12.000;
#SELECTABLE:YES;
#BPMS:0.000=191.080
,192.500=95.540
,200.500=191.080
;
#STOPS:248.500=0.471
,249.000=0.471
,249.500=0.157
;
#BGCHANGES:;
#KEYSOUNDS:;
#ATTACKS:;

//---------------dance-single - Raymond Tracer----------------
#NOTES:
     dance-single:
     Raymond Tracer:
     Challenge:
     12:
     0.967,1.000,0.145,0.100,0.865,720.000,16.000,11.000,0.000,0.000,0.000,0.967,1.000,0.145,0.100,0.865,720.000,16.000,11.000,0.000,0.000,0.000: // measure 0
0000
0000
0000
0000
,  // measure 1
0000
0000
0000
0000
,  // measure 2
0000
0000
0000
0000
,  // measure 3
0000
0000
0000
0000
,  // measure 4
0000
0000
1000
0010
0100
0001
1000
0100
0010
0001
1000
0000
1000
0100
0000
0010
,  // measure 5
0000
0001
0100
0010
1000
0001
0100
0010
1000
0001
0010
0000
0010
0100
1000
0100
,  // measure 6
0010
0000
0001
0000
0100
0000
0010
0000
0010
0000
0010
0000
0010
0000
1000
0001
,  // measure 7
1000
0000
0000
0001
0000
0000
0000
0000
0000
0000
0000
0000
0000
0000
0100
0000
0000
0000
0000
0000
0000
0000
0000
0010
0000
0000
0000
0000
0000
0000
0000
1000
0000
0000
0000
0000
0000
0000
0000
0000
0001
0000
0000
0000
0000
0000
0000
0010
,  // measure 8
0000
0001
0010
0100
1000
0100
0010
0001
,  // measure 9
0100
0000
0010
1000
0010
0000
0100
0000
0001
0000
0010
0000
0100
0000
1000
0001
,  // measure 10
1000
0010
0100
0001
0010
0001
1000
0100
,  // measure 11
0010
0000
0001
0100
0001
0100
0010
0100
0001
0000
1000
0000
0100
1000
0100
1000
,  // measure 12
0100
0010
0001
0010
0100
0010
0001
1000
,  // measure 13
0010
0000
0100
0001
0100
0010
1000
0100
0010
0000
0001
0000
0001
0100
0000
0000
,  // measure 14
0010
1000
0010
0100
0001
0100
0001
1000
0100
0000
0100
0010
0001
0010
0001
0010
,  // measure 15
0001
0000
0011
0000
0011
0000
0000
0000
0001
0000
0100
0000
0001
0000
0100
0001
,  // measure 16
0100
0010
1000
0100
0010
0100
1000
0001
,  // measure 17
0100
0010
0100
0001
1000
0010
0100
0001
,  // measure 18
1000
0100
0010
0001
1000
0010
0100
0001
,  // measure 19
1000
0001
0010
0100
0010
0001
1000
0010
,  // measure 20
0100
0010
1000
0001
0010
0100
0010
0001
,  // measure 21
1000
0010
0100
0001
1000
0100
0010
0001
,  // measure 22
0100
0010
1000
0100
0010
0100
1000
0001
,  // measure 23
0010
0100
1000
0001
0100
0001
1000
0100
,  // measure 24
1000
0000
0010
0100
0001
0100
0000
0000
0110
0000
0000
0000
1010
0000
1000
0100
,  // measure 25
1000
0100
0010
0001
0010
0100
0010
0000
0010
0001
0000
0001
1000
0100
0000
0100
,  // measure 26
0010
0001
0000
0000
0101
0000
0000
0000
0001
0000
0100
0010
0000
0010
0000
0010
,  // measure 27
1000
0010
0000
0010
1000
0001
0000
0001
1000
0100
0010
0001
0100
0001
1000
0010
,  // measure 28
0100
0001
0000
0001
1000
0001
0000
0001
0100
0001
0000
0001
0010
0100
0000
0100
,  // measure 29
0010
0100
0000
0100
1000
0001
0000
0001
0100
0010
0000
0010
1000
0010
0000
0010
,  // measure 30
1000
0100
0000
0100
0010
0001
0000
0010
0100
1000
0000
0001
0010
0001
0000
1000
,  // measure 31
0010
0100
0000
0001
0100
0010
0000
1000
0100
1000
0000
0010
1000
0010
0000
1000
,  // measure 32
0001
0010
0100
0000
1000
0000
0010
0000
0100
0000
0001
0000
1000
0000
0100
0000
,  // measure 33
0010
0000
0001
1000
0010
0100
0001
0000
0001
0100
0010
0000
0010
1000
0000
1000
,  // measure 34
0100
0000
0010
0000
0001
0000
1000
0000
0010
0000
0100
0001
0000
0000
0001
0000
,  // measure 35
0001
0010
0100
0000
0100
1000
0010
0000
0010
0100
0001
0100
0001
0100
0001
0100
,  // measure 36
0001
0000
0100
0000
0010
1000
0100
0000
0010
0000
0100
0000
1000
0000
0010
0000
,  // measure 37
0100
0000
0001
0100
0010
1000
0100
0000
0100
0010
0001
0000
0001
0100
0010
0000
,  // measure 38
0010
1000
0010
0000
0100
0000
0001
0000
1000
0000
0001
0010
0000
0000
0010
0000
,  // measure 39
0100
1000
0100
0000
0100
0010
0100
0000
0010
0001
0010
0100
1000
0001
0010
0100
,  // measure 40
1000
0010
1000
0000
0001
0000
0010
0000
0100
0000
1000
0000
0010
0000
0100
0000
,  // measure 41
0001
1000
0100
0001
0100
1000
0010
0100
,  // measure 42
0001
1000
0010
0001
0010
1000
0001
0010
,  // measure 43
0100
0010
0001
1000
0100
1000
0001
0100
,  // measure 44
0010
0100
1000
0100
0001
1000
0100
0001
,  // measure 45
0100
1000
0001
0010
0100
1000
0100
0010
,  // measure 46
0100
1000
0001
0010
0100
0010
0001
1000
,  // measure 47
0010
0100
0001
1000
0010
0100
0010
1000
,  // measure 48
0100
0102
0000
0203
0000
2300
0000
3020
,  // measure 49
0000
0230
0000
0302
0000
2003
0000
3020
,  // measure 50
0230
0301
0010
0100
1000
0100
0010
0001
,  // measure 51
0100
0010
1000
0001
0100
0010
0100
0001
,  // measure 52
1000
0100
1000
0001
0010
0100
1000
0010
,  // measure 53
0100
0001
1000
0010
0100
0001
1000
0100
,  // measure 54
0010
0000
0001
0100
0001
0100
0010
1000
0010
0100
0010
0000
0010
1000
0000
0000
,  // measure 55
1000
0000
0100
0010
0001
1000
0100
0010
0001
0100
0010
0000
0010
1000
0100
1000
,  // measure 56
0100
0000
0010
0000
0001
0010
0001
0000
0000
0000
1000
0000
0001
0000
0100
0010
,  // measure 57
1000
0000
0000
0000
0000
0000
0100
0000
0000
0000
0000
0000
0010
0000
0000
0001
0000
0000
0010
0000
0000
0000
0000
0000
0000
0000
0000
0000
0010
0000
0000
0000
0000
0100
0000
0000
0000
0000
0000
0000
1000
0000
0000
0000
0001
0000
0000
0000
,  // measure 58
0000
0000
0100
0010
1000
0100
1000
0100
0010
0001
1000
0000
1000
0010
0000
0000
,  // measure 59
0100
0001
0000
1000
0001
0010
0100
0010
0001
1000
0100
0000
0100
0010
0100
1000
,  // measure 60
0100
1000
0100
0000
0110
0000
0010
0000
0011
0000
0001
0000
0010
0000
0100
0000
,  // measure 61
1000
0001
0010
0100
1000
0001
0010
0100
,  // measure 62
1000
0011
0011
0011
0011
0000
0010
0001
,  // measure 63
1000
0100
0010
0100
1000
0000
0001
0000
0100
0000
0010
0000
1000
0000
0100
0000
,  // measure 64
0010
0001
0100
0010
0100
0001
1000
0100
,  // measure 65
0010
0100
0001
0100
1000
0001
1000
0001
,  // measure 66
0010
0100
1000
0001
0100
0010
1000
0001
,  // measure 67
0010
0001
0100
1000
0100
0001
0010
1000
,  // measure 68
0010
0001
1000
0010
0100
0001
1000
0100
,  // measure 69
0010
0001
0100
1000
0100
0010
0100
0001
,  // measure 70
1000
0000
0000
0000
0000
0000
0001
0000
0000
0000
0000
0000
0010
0000
0000
0000
0000
0000
0100
0000
0000
0010
0000
0000
0001
0000
0000
0010
0000
0000
0000
0000
0000
0000
1000
0000
0000
0000
0000
0000
0000
0000
0001
0000
0000
0000
1000
0000
,  // measure 71
0000
0000
0000
0000
0010
0000
0100
0000
0001
0100
0001
0000
0010
0000
0101
0000
,  // measure 72
0010
0000
0101
0000
0010
0000
0100
0000
1000
0100
1000
0000
0100
0000
1010
0000
,  // measure 73
0100
0001
0100
0001
0010
0000
0100
1000
0001
0000
0100
0000
0010
0000
0010
0000
,  // measure 74
1000
0000
0000
0000
0100
0000
0010
0000
0000
0000
0000
0000
0001
0000
0000
0000
0000
0000
1000
0000
0000
0001
0000
0000
0100
0000
0000
0001
0000
0000
1000
0000
0000
0010
0000
0000
0000
0000
0000
0000
0010
0000
0000
0000
0000
0000
1000
0000
,  // measure 75
0000
0000
0001
0000
0000
0000
0000
0000
0000
0000
0000
0000
0100
0000
0000
0010
0000
0000
1000
0000
0000
0010
0000
0000
0100
0000
0000
0001
0000
0000
0100
0000
0000
0000
0000
0000
0100
0000
0000
0010
0000
0000
0100
0000
0000
0010
0000
0000
,  // measure 76
0100
0010
0100
0010
0100
0001
0100
0010
1000
0100
0010
0000
0001
0010
0001
0010
,  // measure 77
0001
0010
0001
0010
0001
0010
0001
0000
0000
0010
0000
0000
0010
0000
0000
0001
0000
0000
0010
0000
0000
0100
0000
0000
,  // measure 78
1000
0000
0000
0000
0000
0000
0000
0000
0000
0000
0000
0000
0100
0000
0000
0000
0000
0000
0000
0000
0000
0000
0000
0000
0010
0000
0000
0000
0000
0000
0000
0000
0000
0000
0000
0000
0100
0000
0000
0000
0000
0000
0000
0000
0000
0000
0000
0000
1000
0000
0000
0000
0000
0000
0000
0000
0000
0000
0000
0000
0000
0000
0000
0000
0000
0000
0000
0000
0000
0000
0000
0000
0000
0000
0000
0000
0000
0000
0000
0000
0000
0000
0000
0000
0000
0000
0000
0000
0001
0000
0000
0000
0000
0000
0000
0000
0000
0000
0000
0000
0000
0000
0000
0000
0000
0000
0000
0000
0000
0000
0000
0000
0000
0000
0100
0000
0000
0000
0000
0000
0000
0000
0000
0000
0000
0000
0000
0000
0000
0000
0000
0000
0000
0000
0000
0000
0000
0000
0000
0000
0000
0000
0000
0000
0000
0000
0000
0000
0010
0000
0000
0000
0000
0000
0000
0000
0000
0000
0000
0000
0000
0000
0000
0000
0000
0000
0000
0000
0000
0000
0000
0000
0000
0000
0000
0000
0000
0000
0000
0000
0000
0000
0000
0000
1000
0000
0000
0000
0000
0000
0000
0000
,  // measure 79
0000
2002
0000
0000
,  // measure 80
0000
0000
0000
0000
,  // measure 81
0000
0000
0000
0000
,  // measure 82
0000
0000
0000
0000
,  // measure 83
3003
0000
0000
0000
;
