#TITLE:Thrift Shop;
#SUBTITLE:;
#ARTIST:Macklemore & Ryan Lewis Feat. Wanz;
#TITLETRANSLIT:;
#SUBTITLETRANSLIT:;
#ARTISTTRANSLIT:;
#GENRE:;
#CREDIT:;
#BANNER:;
#BACKGROUND:;
#LYRICSPATH:;
#CDTITLE:;
#MUSIC:Thrift_Shop-shortened3.mp3;
#OFFSET:0.000000;
#SAMPLESTART:88.299828;
#SAMPLELENGTH:12.000000;
#SELECTABLE:YES;
#DISPLAYBPM:94.000000;
#BPMS:0.000000=94.099998
,27.000000=94.900002
;
#STOPS:
;
#BGCHANGES:;
#KEYSOUNDS:;
#ATTACKS:;

//---------------dance-single - ----------------
#NOTES:
     dance-single:
     :
     Challenge:
     11:
     0.487813,0.470860,0.206719,0.130156,0.382813,402.000000,27.000000,17.000000,0.000000,1.000000,5.000000,0.487813,0.470860,0.206719,0.130156,0.382813,402.000000,27.000000,17.000000,0.000000,1.000000,5.000000:
// measure 0
0000
0000
0000
0000
,  // measure 1
0000
0000
0000
0000
,  // measure 2
0000
0000
0000
0000
,  // measure 3
0000
0000
0000
0000
,  // measure 4
0000
0000
0000
0000
0000
0000
0000
1000
,  // measure 5
0100
0000
0000
0000
0000
0000
0010
0000
0000
0000
0001
0000
1000
0000
0000
0000
0000
0000
0010
0000
0000
0000
0000
0000
0200
0000
0000
0000
0000
0000
0000
0000
0000
0001
0300
0000
0010
0000
0000
0000
0000
0000
0100
0000
0000
0000
0000
0000
,  // measure 6
1000
0000
0000
0000
0000
0000
0010
0000
0000
0000
0100
0000
0001
0000
0000
0000
0000
0000
0010
0000
0000
0000
0000
0000
0200
0000
0000
0000
0000
0000
0000
0000
0000
1000
0300
0000
0001
0000
0000
0000
0000
0000
0100
0000
0000
0000
0000
0000
,  // measure 7
0010
0000
0000
0000
0000
0000
1000
0000
0000
0000
0100
0000
0010
0000
0000
0000
0000
0000
0001
0000
0000
0000
0000
0000
0200
0000
0000
0000
0000
0000
0000
0000
0000
0010
0300
0000
0100
0000
0000
0000
0000
0000
0001
0000
0000
0000
0000
0000
,  // measure 8
1000
0000
0000
0000
0000
0000
0100
0000
0000
0000
0010
0000
0100
0000
0000
0000
0000
0000
1000
0000
0000
0000
0000
0000
0002
0000
0000
0000
0000
0000
0000
0000
0000
0100
0003
0000
0010
0000
0000
0000
0000
0000
1000
0000
0000
0000
0000
0000
,  // measure 9
0100
0000
1000
0010
0100
0000
0001
0000
0010
0000
0000
0000
0100
1000
0001
0000
,  // measure 10
0100
0010
1000
0001
0010
0000
0100
0000
1000
0000
0001
0000
0000
0000
0004
0010
,  // measure 11
0003
0010
0000
0001
0100
0010
0000
0000
1000
0100
1000
0001
0010
0001
0000
0000
,  // measure 12
0100
0101
0010
0110
1000
1010
0000
0000
,  // measure 13
0010
0000
0100
0001
1000
0100
0010
0000
0000
0001
0000
0100
0010
0000
0000
1000
0100
0010
0100
0000
0000
1100
0000
0000
,  // measure 14
1001
0000
0000
0001
0000
0000
0100
0000
0010
0000
1000
0000
0001
0000
0000
0010
0000
0100
1000
0000
0000
0001
0000
0000
,  // measure 15
0000
0000
0000
0000
0000
0000
0100
0000
0000
0010
0000
0000
1000
0000
0000
0100
0000
0000
0000
0000
0000
1000
0000
0000
0001
0000
0000
0000
0000
0000
0010
0000
0000
0000
0000
0000
0100
0000
0000
0000
0000
0000
1000
0000
0000
0000
0001
0000
,  // measure 16
0100
0000
0000
0000
0001
0000
0100
0000
0000
0000
0000
0000
0010
0000
0000
0000
0000
0000
1000
0000
0000
0100
0000
0000
1000
0000
0000
0000
0000
0000
0001
0000
0000
0000
0000
0000
0100
0000
0000
0000
0000
0000
0010
0000
0000
0000
0000
0000
,  // measure 17
1000
0000
0000
0000
0001
0000
0010
0000
0000
0000
0000
0000
0001
0000
0000
1000
0000
0000
0100
0000
0000
0000
0000
0000
1000
0000
0000
0010
0000
0000
1000
0000
0000
0100
0000
0000
0010
0000
0000
0001
0000
0000
0100
0000
0000
0000
0000
0000
,  // measure 18
0010
0100
0001
0000
0010
0000
0001
0100
0001
1000
0010
0000
0100
0001
0010
0000
,  // measure 19
0100
0000
0000
0000
0000
0000
1000
0000
0100
0000
0000
0000
0010
0000
0000
0001
0000
0000
1000
0000
0000
0000
0000
0000
0010
0000
0000
0000
0000
0000
0100
0000
0000
0001
0000
0000
0010
0000
0000
0100
0000
0000
1000
0000
0000
0000
0000
0000
,  // measure 20
0001
0100
0010
1000
0100
0000
0010
0000
0001
1000
0010
0000
0100
0001
0000
1000
,  // measure 21
0000
0002
2000
3010
,  // measure 22
0000
0000
0000
0000
0000
0000
0000
0000
0000
0000
0000
0000
0000
0000
0000
0010
0000
0000
0000
0000
0000
0000
0000
0000
0003
0000
0000
0000
0000
0000
0000
0000
0000
0000
0000
0000
0000
0000
0000
0000
0000
0000
0000
0000
0000
0000
0000
0000
0000
0000
0000
0000
0000
0000
0000
0000
1000
0000
0000
0000
0000
0000
0000
0000
,  // measure 23
0001
0100
0010
0000
0100
0000
0001
0000
0000
0000
0010
0100
1000
0000
0001
0100
,  // measure 24
0001
1000
0100
0000
1000
0000
0001
0000
0010
0000
0000
0000
0100
1000
0000
1000
,  // measure 25
0000
0010
1000
0100
0000
0000
1000
0010
0100
0001
0010
0001
0000
0000
0101
0000
,  // measure 26
0010
1100
1100
0001
0110
0000
1000
0001
,  // measure 27
0100
0001
0100
0000
0010
0000
1000
0000
0000
0000
0001
1000
0010
0000
1000
0100
,  // measure 28
1000
0001
0010
0000
0100
0000
1000
0000
0001
0000
0000
0000
0100
0010
0000
1000
,  // measure 29
0000
0100
1000
0100
0000
0000
0010
0001
0100
0001
0010
0001
0000
0000
1010
0000
,  // measure 30
1010
0100
0100
0011
0011
0000
0000
0001
,  // measure 31
1000
0010
1000
0001
0100
0010
1000
0001
,  // measure 32
0010
0001
1000
0100
0010
0001
1000
0100
,  // measure 33
1000
0001
0010
0001
1000
0010
0100
0001
,  // measure 34
0010
0100
1000
0001
0100
0010
1000
0001
,  // measure 35
0100
0001
0010
0000
0100
0000
0010
0000
0000
0000
0001
0100
0010
0000
1000
0100
,  // measure 36
1000
0001
0100
0000
0010
0000
1000
0000
0001
0000
0000
0000
0010
0001
0000
0001
,  // measure 37
0000
0100
0010
1000
0000
0000
0100
1000
0010
0100
0001
0010
0000
0000
1100
0000
,  // measure 38
0100
0010
0001
0100
0101
0000
0000
2000
,  // measure 39
0100
0000
0000
0000
0010
0000
0000
0000
0001
0000
0000
0000
0100
0000
0000
0000
0010
0000
0000
0000
0002
0000
0000
0000
3000
0000
0000
0003
0002
0000
0000
0000
,  // measure 40
0010
0000
0000
0000
0100
0000
0000
0000
1000
0000
0000
0000
0010
0000
0000
0000
0100
0000
0000
0000
2003
0000
0000
0000
0000
0000
0000
3000
2000
0000
0000
0000
,  // measure 41
0001
0000
0000
0000
0010
0000
0000
0000
0100
0000
0000
0000
0001
0000
0000
0000
0010
0000
0000
0000
3200
0000
0000
0000
0000
0000
0000
0300
0200
0000
0000
0000
,  // measure 42
1000
0000
0000
0000
0010
0000
0000
0000
1000
0000
0000
0000
0320
0000
0000
0000
0001
0000
0000
0000
0200
0000
0000
0000
0030
0000
0000
0300
0100
0000
0000
0000
,  // measure 43
1000
0001
0100
0010
1000
1040
0000
0030
,  // measure 44
1000
0100
0010
0001
0100
0401
0000
0300
,  // measure 45
0001
0100
0010
1000
0100
4100
0000
3001
,  // measure 46
1000
0010
0100
0001
0010
0014
0000
0013
,  // measure 47
0001
0100
0010
0000
1000
0000
1010
0000
0000
0000
0001
0100
0010
0000
0100
0001
,  // measure 48
0010
0100
1000
0000
0001
0000
0100
0000
0101
0000
0000
0000
1000
0100
0000
0010
,  // measure 49
0000
0100
1000
0001
0000
0000
0100
0010
1000
0001
0100
0010
0000
0000
1010
0000
,  // measure 50
0101
0000
0011
0000
1100
0000
1001
0000
1000
0100
0010
0001
0100
0010
2002
0000
,  // measure 51
0000
3003
0000
0000
;
