#TITLE:The Ultimate Showdown of Ultimate Destiny;
#SUBTITLE:;
#ARTIST:Lemon Demon;
#TITLETRANSLIT:;
#SUBTITLETRANSLIT:;
#ARTISTTRANSLIT:;
#GENRE:;
#CREDIT:;
#BANNER:;
#BACKGROUND:;
#LYRICSPATH:;
#CDTITLE:;
#MUSIC:The_Ultimate_Showdown_of_Ultimate_Destiny.mp3;
#OFFSET:-1.052;
#SAMPLESTART:102.140;
#SAMPLELENGTH:12.000;
#SELECTABLE:YES;
#BPMS:0.000=114.100
,80.000=228.200
,144.000=114.100
,224.250=228.200
,284.250=114.100
,286.250=57.050
,302.250=85.575
,326.250=114.100
,390.250=228.200
,447.250=114.100
,451.250=228.200
,459.250=114.100
,463.250=228.200
,474.250=114.100
;
#STOPS:;
#BGCHANGES:;
#KEYSOUNDS:;
#ATTACKS:;

//---------------dance-single - Blank----------------
#NOTES:
     dance-single:
     Blank:
     Challenge:
     13:
     0.679,0.781,0.746,0.155,1.000,822.000,159.000,33.000,0.000,0.000,0.000,0.679,0.781,0.746,0.155,1.000,822.000,159.000,33.000,0.000,0.000,0.000: // measure 0
0000
0000
0000
0000
,  // measure 1
0000
0000
0000
0000
,  // measure 2
0000
0000
0000
0000
,  // measure 3
0000
0000
0000
0000
,  // measure 4
1000
0000
0010
0000
0100
0001
0010
0000
0100
1000
0001
0010
0000
0000
0000
0000
,  // measure 5
1000
0100
0010
0000
0001
0100
0010
1000
0100
0000
1100
0000
1001
0000
0100
0000
,  // measure 6
0010
1000
0001
0000
0010
0000
0100
0000
1000
0000
0001
0100
1000
0000
0000
0100
,  // measure 7
0010
0000
0100
0000
0001
0010
0001
0100
0010
0000
0010
1000
0000
0000
1000
0000
,  // measure 8
0100
0010
0001
0000
0100
0000
0010
1000
0100
1000
0010
0100
0000
0000
0000
0001
,  // measure 9
0100
0010
1000
0001
0000
0001
0010
0100
0000
1000
0000
0010
0000
0000
0100
0000
,  // measure 10
0010
1000
0001
0100
0000
0010
1000
0100
0010
0001
1000
0000
0001
0000
0000
0001
,  // measure 11
0100
0010
0000
1000
0000
1000
0100
0010
0000
0010
0001
0100
0000
0000
0010
0000
,  // measure 12
0001
0010
1000
0100
1000
0000
0010
0000
0100
0001
0000
0010
0000
0000
0100
0010
,  // measure 13
0001
0000
1000
0000
0100
0010
0100
1000
0001
0000
1000
0000
0010
0100
0001
0000
,  // measure 14
1000
0000
0100
0010
0001
0100
0010
0000
1000
0001
0100
0000
0010
0000
0000
0000
,  // measure 15
1000
0100
1000
0000
0010
0100
0001
0000
0010
0100
1000
0000
0001
0000
0100
0001
,  // measure 16
0100
0010
0100
0001
1000
0100
1000
0010
1000
0100
0010
0001
0000
0000
1100
0000
,  // measure 17
1010
0000
0010
0100
1000
0000
0100
1000
0010
0100
0001
0000
1001
0000
1000
0010
,  // measure 18
0100
0000
0001
0010
0100
1000
0001
0100
0010
0000
1000
0100
0000
0010
0001
0000
,  // measure 19
0010
0100
1000
0000
0001
0000
1000
0100
0001
0000
0100
1000
0000
0000
0110
0000
,  // measure 20
1001
1100
0110
0101
,  // measure 21
1100
1001
0110
2002
,  // measure 22
0000
3003
0110
0000
0000
0000
0000
1000
,  // measure 23
0100
0010
0001
0000
1000
0000
0010
0100
,  // measure 24
0000
1100
1010
0101
,  // measure 25
1100
1001
0110
0022
,  // measure 26
0000
0000
0033
0000
1100
0000
0000
0000
0000
0000
0000
0000
0000
0000
0000
1000
,  // measure 27
0000
0010
0000
0000
0000
0010
0000
0100
0000
0000
0000
0000
0001
0000
0000
0000
,  // measure 28
1000
0100
1100
0101
,  // measure 29
0110
1010
1001
0110
,  // measure 30
0000
0011
0110
1100
,  // measure 31
1001
0110
1100
0011
,  // measure 32
0000
1100
0110
1001
,  // measure 33
1100
0011
1001
0202
,  // measure 34
0000
0303
2020
0000
0000
3030
0000
1000
,  // measure 35
0100
0010
0100
0000
1000
0000
0001
1000
,  // measure 36
0000
0000
0000
0000
,  // measure 37
0000
0000
0000
0000
,  // measure 38
0000
0000
0000
0000
,  // measure 39
0000
0000
0000
0000
0000
0000
0000
1000
,  // measure 40
0001
0010
0100
1000
0010
0000
0100
0001
0010
0100
1000
0010
0000
0000
0100
0000
,  // measure 41
0010
0000
1000
0100
0000
0010
0000
0001
0100
0010
1000
0001
0000
0000
1000
0000
,  // measure 42
0100
0000
0010
0000
0001
0000
0100
0001
1000
0100
0001
0100
1000
0000
0100
0000
,  // measure 43
0010
0100
0001
0000
1100
0000
1001
0000
0100
0010
1000
0001
0100
0000
0000
0010
,  // measure 44
1000
0100
0000
0010
0001
1000
0000
1000
0010
0100
0001
1000
0100
0010
0000
0001
,  // measure 45
0100
0010
1000
0000
0010
0100
0001
1000
0000
1000
0001
0010
0100
1000
0001
0000
,  // measure 46
1000
0010
0100
0001
0000
1000
0100
0010
0001
0000
0001
0010
0001
0000
0001
0000
,  // measure 47
0000
0000
1000
0001
0010
0100
1000
0100
1000
0010
0100
0001
1000
0000
0000
0100
,  // measure 48
1000
0010
0000
0100
0000
0001
0010
0100
1000
0010
0100
0001
0000
0000
1000
0010
,  // measure 49
0100
0000
0001
0010
0100
0000
1000
0001
1000
0000
0100
0010
0001
0000
1000
0000
,  // measure 50
0101
0000
1001
0000
0100
1000
0001
0000
0100
0001
1000
0010
0100
0001
0000
0000
,  // measure 51
0100
1000
0010
1000
0100
0010
0001
0000
1000
0000
0011
0000
1001
0000
0001
0100
,  // measure 52
0110
0000
0010
1000
1100
0000
1000
0001
0010
1000
0100
0001
1000
0000
0001
0100
,  // measure 53
0010
1000
0100
0000
1000
0010
0000
0000
0100
0000
0001
0010
0000
0010
0000
0100
,  // measure 54
1000
0001
0010
0100
1000
0000
0001
0100
0010
1000
0001
0100
0010
1000
0100
1000
,  // measure 55
0001
0001
1000
0001
0011
0110
1100
1001
,  // measure 56
0110
0000
0000
0000
0000
1001
0000
0000
0000
1010
0000
0000
0000
0110
0000
0000
,  // measure 57
0000
0101
0000
0000
0000
0110
0000
0000
0000
1100
0000
0000
0000
0101
0000
0000
,  // measure 58
0000
0000
0000
0000
0000
1001
0000
0000
0000
0000
0000
0000
0000
0000
0000
1000
,  // measure 59
0000
0100
0000
0010
0000
0001
0000
0000
0100
0000
0000
0000
0010
0000
1000
0000
,  // measure 60
0000
0000
0000
0000
0000
1100
0000
0000
0000
1001
0000
0000
0000
0110
0000
0000
,  // measure 61
0000
1001
0000
0000
0000
0101
0000
0000
0000
0110
0000
0000
0000
2002
0000
0000
,  // measure 62
0000
0000
3003
0000
0000
1100
0000
0000
0000
0000
0000
0000
0000
0000
1000
0000
,  // measure 63
0010
0000
0000
0000
0010
0000
0100
0000
0000
0000
0000
0001
0000
0000
0000
1000
,  // measure 64
0000
1100
0101
1010
,  // measure 65
0011
1001
0110
1001
,  // measure 66
0000
1100
0110
0011
,  // measure 67
0101
0110
1100
1001
,  // measure 68
0000
1100
0101
0011
,  // measure 69
1010
1001
0110
2002
,  // measure 70
0000
0000
3003
0000
0220
0000
0000
0000
0000
0000
0000
0330
0000
0000
0000
0000
,  // measure 71
0000
0000
0000
2002
0000
0000
0000
0000
0000
3003
0000
0000
0000
0000
0000
0000
0000
0000
0000
0000
0000
0000
0000
0000
0000
0000
0000
0001
0000
0000
0010
0000
0000
0100
0000
0000
1000
0000
0000
0000
0000
0000
0000
0000
0000
1000
0000
0010
,  // measure 72
0000
0000
0000
0000
0100
0000
0000
0000
0000
0000
0000
0000
0001
0000
0000
0000
0000
0000
0000
0000
1000
0000
0000
0000
0000
0000
0000
0000
0010
0000
0000
0000
0000
0000
0000
0000
0100
0000
0000
0000
0000
0000
0000
0000
0001
0000
0000
0000
0000
0000
0000
0000
0000
0000
0000
0000
0000
0000
0000
0000
0000
0000
0000
0000
0000
0000
0000
0000
0000
0000
0000
0000
0000
0000
0000
0000
0000
0000
0000
0000
0000
0000
0000
0000
0000
0000
0000
0000
0000
0000
0000
0000
0000
0000
0000
0000
0000
0000
0000
0000
0000
0000
0101
0000
0000
0000
0000
0000
0000
0000
0000
0000
0000
0000
0000
0000
0000
0000
0000
0000
0010
0000
0000
0000
0000
0000
0000
0000
1000
0000
0000
0000
0000
0000
0000
0000
0001
0000
0000
0000
0000
0000
0000
0000
0100
0000
0000
0000
0000
0000
0000
0000
0010
0000
0000
0000
0000
0000
0000
0000
0000
0000
0000
0000
0000
0000
0000
0000
0000
0000
0000
0000
0000
0000
0000
0000
0000
0000
0000
0000
0000
0000
0000
0000
0000
0000
0000
0000
1000
0000
0000
0000
,  // measure 73
0000
0100
0000
0010
0000
0000
0001
0000
0000
0000
0100
0000
0010
0000
0000
0000
0000
0000
0000
0000
0000
0000
1000
0000
0100
0000
1000
0000
0010
0000
0100
0000
0001
0000
0000
0000
0000
0000
0000
0000
0000
0000
1000
0000
0000
0100
0000
0000
,  // measure 74
0010
0000
0001
0000
0000
0000
0000
0100
0000
0000
0000
0000
0000
0000
0000
0000
0000
0000
0000
0000
0000
0000
0000
0000
0000
0000
0000
1000
0000
0010
0000
0100
0000
0001
0000
0000
0000
0000
0000
0000
0000
0000
0000
0000
0000
0000
0001
0000
,  // measure 75
0010
0000
0100
0000
1000
0000
0010
0000
0100
0000
0000
0000
0000
0000
0000
0000
0000
0000
0000
0000
0000
0100
0000
1000
0000
0010
0000
0100
0000
0000
0001
0000
0000
0010
0000
0000
0100
0000
0000
1000
0000
0000
0000
0000
0000
0000
0000
0000
,  // measure 76
0000
0000
0000
0000
0000
0000
0000
0000
0000
0000
0000
0000
0000
0000
0001
0000
0000
0000
0000
0000
0000
0000
0000
0100
0000
0000
0010
0000
0000
0000
0000
0000
0000
1000
0000
0000
0000
0000
0000
0000
0000
0000
0000
0000
0000
0000
0000
0000
0000
0000
0000
0000
0000
0000
0000
0000
0000
0000
0000
0100
0000
0000
0000
0000
,  // measure 77
0000
0000
0000
1000
0000
0000
0000
0000
0000
0000
0000
0010
0000
0000
0000
0000
0000
0000
0000
0100
0000
0000
0000
0000
0000
0000
0000
0001
0000
0000
0000
0000
0000
0000
0000
0000
0000
0000
0000
0000
0000
0000
0000
0000
0000
0001
0000
0000
0000
1000
0000
0000
0000
0000
0000
0000
0000
0010
0000
0000
0000
0000
0000
0000
,  // measure 78
0000
0100
0000
0000
0000
0000
0000
0000
0000
0000
0000
0000
0000
0000
0000
0000
0000
0000
0000
0000
0000
0000
0000
0000
0000
0000
0000
0001
0000
0000
0000
0000
0000
0000
0000
0010
0000
0000
0000
0000
0000
0000
0000
0100
0000
0000
0000
0000
0000
0000
0000
1000
0000
0000
0000
0000
0000
0000
0000
0000
0000
0000
0000
0000
,  // measure 79
0000
0000
0000
0000
0000
0000
0000
0000
0000
0001
0000
0000
0000
0000
0000
0000
0000
1000
0000
0000
0000
0010
0000
0000
0000
0100
0000
0000
0000
0001
0000
0000
0000
0000
0000
0000
0000
0000
0000
0000
0000
0000
0000
0000
0000
0000
0000
0000
0000
0000
0000
0000
0000
0001
0000
0000
0000
0010
0000
0000
0000
0000
0000
0000
,  // measure 80
0000
0100
0000
0000
0000
0000
0000
0000
0000
1000
0000
0000
0000
0000
0000
0000
0000
0010
0000
0000
0000
0000
0000
0000
0000
0100
0000
0000
0000
0000
0000
0000
0000
0000
0000
0000
0000
0000
0000
0000
0000
0000
0000
0000
0000
0001
0000
0000
0000
0000
0000
0100
0000
0000
0000
0000
0000
1000
0000
0000
0000
0000
0000
0100
,  // measure 81
0000
0000
0000
0000
0000
0001
0000
0000
0000
0000
0000
0000
0000
0000
0000
0000
0000
0000
0000
0000
0000
0000
0000
0000
0000
0000
0000
0000
0000
0000
1000
0000
0000
0000
0000
0000
0100
0000
0000
0000
0010
0000
0000
0000
0000
0000
0000
0000
0010
0000
0000
0000
0001
0000
0000
0000
0000
0000
0000
0000
0100
0000
0000
0000
,  // measure 82
0000
0010
1000
0000
1000
0100
0000
0010
0000
0001
0100
0001
0010
0100
1000
0010
,  // measure 83
1000
0100
1000
0010
0000
0100
0000
0001
0010
0100
1000
0001
0010
0100
0000
0000
,  // measure 84
1000
0000
0001
0100
0000
0010
1000
0100
0000
1000
0000
0010
0000
0100
0001
1000
,  // measure 85
0000
0100
0000
0010
0001
0100
0010
0000
0000
1000
0100
0010
0100
1000
0001
0010
,  // measure 86
0100
0010
0001
0100
0010
0100
0001
1000
0100
0010
0000
0001
0000
1000
0001
0100
,  // measure 87
0000
0010
1000
0100
1000
0010
0100
0001
0000
1100
0000
0110
0000
0011
0000
0010
,  // measure 88
0100
0010
0000
1010
0000
0110
0000
0101
0000
1000
0000
0100
0010
0000
0110
0000
,  // measure 89
0001
0000
0100
0010
0000
1000
0100
0010
0000
0001
0000
0100
0010
1000
0000
0001
,  // measure 90
0000
1000
0001
0000
0010
0000
0100
0010
0000
0001
0000
1000
0000
0100
0010
0100
,  // measure 91
1000
0010
0100
0000
0010
0000
1000
0100
0010
0001
0100
0010
0100
0001
0000
1000
,  // measure 92
0100
0010
0000
0100
0010
0001
0000
0010
0001
1000
0000
0010
0000
0100
0001
1000
,  // measure 93
0010
0100
0001
0000
1000
0000
0000
0000
0001
0010
0000
0100
0000
1000
0000
0010
,  // measure 94
0100
0001
0000
1000
0001
0000
0000
0010
0100
1000
0000
0001
0100
0000
0000
0100
,  // measure 95
0010
1000
0000
1000
0200
0000
0000
0301
0100
0000
1000
0001
0000
0010
0000
0000
,  // measure 96
0001
0100
0000
0010
1000
0001
0100
0000
0000
0001
0000
0010
0100
0000
0100
1000
,  // measure 97
0001
0000
0010
0000
0000
0000
0001
0000
0000
0000
0000
0100
0000
0000
0001
0000
0000
0000
0110
0000
0000
0000
0000
0000
0000
0000
1010
0000
0000
0000
0000
0000
,  // measure 98
0000
1001
0000
0000
0000
0101
0000
0000
0000
0110
0000
0000
0000
1001
0000
0000
,  // measure 99
0000
1100
0000
0000
0000
0022
0000
0000
0000
0000
0000
0033
0000
1100
0000
0000
,  // measure 100
0000
0000
0000
0000
0000
0000
0000
0001
0000
0010
0000
0100
0000
1000
0000
0000
,  // measure 101
0000
0001
0000
0000
0000
0100
0000
0010
0000
0000
0000
0000
0000
1100
0000
0000
,  // measure 102
0000
0011
0000
0000
0000
0110
0000
0000
0000
1010
0000
0000
0000
0110
0000
0000
,  // measure 103
0000
1001
0000
0000
0000
0220
0000
0000
0000
0000
0000
0330
0000
0101
0000
0000
,  // measure 104
0000
0000
0000
0000
0000
0000
0000
1000
0000
0100
0000
0000
0000
0010
0000
0001
,  // measure 105
0000
0000
0000
0000
1000
0000
0000
0000
0010
0000
0000
0000
0000
0110
0000
0000
,  // measure 106
0000
0101
0000
0000
0000
1010
0000
0000
0000
0110
0000
0000
0000
1001
0000
0000
,  // measure 107
0000
1100
0000
0000
0000
0011
0000
0000
0000
0000
0000
0000
0000
0011
0000
0000
,  // measure 108
0000
0110
0000
0000
0000
1100
0000
0000
0000
0101
0000
0000
0000
0110
0000
0000
,  // measure 109
0000
1100
0000
0000
0000
1001
0000
0000
0000
0000
0000
0000
0000
1100
0000
0000
,  // measure 110
0000
0110
0000
0000
0000
0011
0000
0000
0000
0110
0000
0000
0000
1100
0000
0000
,  // measure 111
0000
1001
0000
0000
0000
0220
0000
0000
0000
0000
0000
0330
0000
2002
3003
0100
,  // measure 112
0000
0010
0000
1000
0000
0001
0000
0100
0000
0020
0000
0000
0030
1001
0000
0000
,  // measure 113
0000
0011
0000
0000
0000
0110
0000
0000
0000
1100
0000
0000
0000
1001
0000
0000
,  // measure 114
0000
0110
0000
0000
0000
0022
0000
0000
0000
0000
0000
0033
0000
2200
3300
0001
,  // measure 115
0000
0010
0000
0100
0000
1000
0000
0001
0000
0020
0000
0000
0030
1100
0000
0000
,  // measure 116
0000
1010
0000
0000
0000
0011
0000
0000
0000
0110
0000
0000
0000
1100
0000
0000
,  // measure 117
0000
0101
0000
0000
0000
1100
0000
0000
0000
0000
0000
0000
0000
2002
0000
0000
,  // measure 118
0000
0000
0000
0000
0000
3003
0000
0000
0000
1000
0100
0010
0000
0001
0000
0100
,  // measure 119
0010
0000
0000
0000
;
