#TITLE:The Next Episode;
#SUBTITLE:Hedegaard Remix;
#ARTIST:Dr. Dre ft Snoop Dogg, Kurupt and Nate Dogg;
#TITLETRANSLIT:;
#SUBTITLETRANSLIT:;
#ARTISTTRANSLIT:;
#GENRE:;
#CREDIT:;
#BANNER:;
#BACKGROUND:;
#LYRICSPATH:;
#CDTITLE:;
#MUSIC:smoke weed everyday snoop dogg remix.mp3;
#OFFSET:0.000;
#SAMPLESTART:39.000;
#SAMPLELENGTH:12.000;
#SELECTABLE:YES;
#DISPLAYBPM:100.070;
#BPMS:0.000=100.070
,67.500=200.140
,68.500=100.070
,69.250=200.140
,69.500=150.105
,71.000=100.070
,71.500=200.140
,72.500=100.070
,76.000=200.140
,77.000=100.070
,77.750=200.140
,78.000=150.105
,79.500=100.070
,80.000=200.140
,81.000=100.070
,84.750=200.140
,85.500=100.070
,86.250=200.140
,86.500=150.105
,88.000=100.070
,88.500=200.140
,89.500=100.070
,93.250=200.140
,94.000=100.070
,95.000=200.140
,95.500=100.070
,194.000=50.035
,194.500=100.070
,196.750=200.140
,197.500=100.070
,198.250=200.140
,198.500=150.105
,200.000=100.070
,200.500=200.140
,201.500=100.070
,205.250=200.140
,206.000=100.070
,206.750=200.140
,207.000=150.105
,208.500=100.070
,209.000=200.140
,210.000=100.070
,213.750=200.140
,214.500=100.070
,215.250=200.140
,215.500=150.105
,217.000=100.070
,217.500=200.140
,218.500=100.070
,222.250=200.140
,223.000=100.070
,224.000=200.140
,224.500=100.070
,347.500=200.140
,351.500=400.280
,367.500=800.560
,399.500=400.280
,403.250=200.140
,405.250=100.070
;
#STOPS:67.500=0.075,
67.750=0.075,
68.000=0.150,
69.250=0.075,
71.500=0.075,
71.750=0.075,
72.000=0.075,
72.250=0.075,
76.000=0.075,
76.250=0.075,
76.500=0.150,
77.750=0.075,
80.000=0.075,
80.250=0.075,
80.500=0.075,
80.750=0.075,
84.750=0.075,
85.000=0.150,
86.250=0.075,
88.500=0.075,
88.750=0.075,
89.000=0.075,
89.250=0.075,
93.250=0.075,
93.500=0.150,
95.000=0.050,
95.167=0.050,
95.333=0.050,
196.750=0.075,
197.000=0.150,
198.250=0.075,
200.500=0.075,
200.750=0.075,
201.000=0.075,
201.250=0.075,
205.250=0.075,
205.500=0.150,
206.750=0.075,
209.000=0.075,
209.250=0.075,
209.500=0.075,
209.750=0.075,
213.750=0.075,
214.000=0.150,
215.250=0.075,
217.500=0.075,
217.750=0.075,
218.000=0.075,
218.250=0.075,
222.250=0.075,
222.500=0.150,
224.000=0.050,
224.167=0.050,
224.333=0.050,
399.500=0.037
;
#BGCHANGES:;
#KEYSOUNDS:;
#ATTACKS:;

//---------------dance-single - Blank----------------
#NOTES:
     dance-single:
     :
     Challenge:
     11:
     0.548,0.638,0.163,0.100,0.651,897.000,41.000,25.000,4.000,1.000,8.000,0.548,0.638,0.163,0.100,0.651,897.000,41.000,25.000,4.000,1.000,8.000: // measure 0
0000
0000
0000
0000
0000
0000
0000
0000
0000
0000
0000
0000
0001
1000
0001
0100
,  // measure 1
0010
0000
0000
0000
0000
0000
1000
0000
0100
0010
0001
0010
0100
1000
0010
0100
,  // measure 2
0001
0000
1000
0000
0001
0000
1000
0000
0010
0000
0100
0000
0001
0010
0100
0010
,  // measure 3
0001
0000
0000
0000
0000
0000
1000
0010
0100
0001
0010
0100
1000
0000
0001
0000
,  // measure 4
0100
0000
0000
0000
0000
0000
0000
0000
0000
0000
0000
0000
0010
1000
0100
1000
,  // measure 5
0010
0000
0000
0000
0000
0000
0100
0000
0100
0001
0010
0100
1000
0010
0100
0001
,  // measure 6
0100
0000
0010
0000
1000
0000
0001
0000
0100
0000
0001
0000
1000
0100
0010
0100
,  // measure 7
1000
0000
0000
0000
0000
0001
1000
0100
1000
0001
0100
0010
0100
0000
0001
0000
,  // measure 8
0100
0000
0000
0000
0000
0000
0000
0000
0000
0000
0000
0000
0010
0100
0001
1000
,  // measure 9
0010
0000
0000
0000
0000
0000
0100
0000
0001
0010
0100
0010
0001
1000
0010
1000
,  // measure 10
0001
0000
0100
0000
0010
0000
1000
0000
0001
0000
0010
0000
0100
1000
0100
0010
,  // measure 11
0100
0000
0000
0000
0000
0010
0001
0100
0010
1000
0010
0100
0001
0000
1000
0000
,  // measure 12
0010
0000
0000
0000
0000
0000
0000
0000
0000
0000
0000
0000
0100
0001
0100
0001
,  // measure 13
1000
0000
0000
0000
0000
0000
1000
0000
0001
0100
0010
1000
0100
0010
0001
0100
,  // measure 14
0010
0000
1000
0000
0001
0000
1000
0000
0001
0000
1000
0000
0100
0010
0001
0010
,  // measure 15
0100
0000
0000
0000
0000
1000
0010
0100
0001
1000
0100
0010
0100
0000
1000
0000
,  // measure 16
0001
0000
0000
0000
0000
0000
1000
0000
0110
0000
0010
0001
0100
0000
0000
0010
,  // measure 17
1000
0000
0100
0000
0000
0100
0020
0000
0000
0000
0000
0000
0031
0000
0100
0010
,  // measure 18
1000
0010
0100
0000
0001
0000
0000
0000
0100
0000
0110
0000
0010
1000
0100
0000
,  // measure 19
0010
0001
0100
0000
0010
0000
0000
0010
2000
0000
0000
0000
0000
0000
3001
0000
,  // measure 20
1000
0100
1000
0100
1000
0000
0001
0000
0000
0000
1000
0000
0110
0000
0010
0100
,  // measure 21
1000
0000
0000
1000
0010
0000
0100
0000
0000
0100
0002
0000
0000
0000
0000
0000
,  // measure 22
0013
0000
0100
1000
0010
0100
0001
0000
1000
0000
0000
0000
0010
0000
0110
0000
,  // measure 23
0001
0000
0000
0010
0000
0000
0100
0000
0000
0000
0000
0000
0000
0000
0000
1000
0000
0000
0001
0000
0000
0000
0000
0000
0100
0000
0000
0000
0000
0000
0000
0000
0000
0010
0000
0000
1000
0000
0010
0000
1000
0000
0010
0000
0000
0000
0100
0000
,  // measure 24
0001
0000
0000
0000
0001
0000
0010
0000
0000
0000
0010
0000
0100
0000
0000
1000
0000
0000
0010
0000
0000
0100
0000
0000
0000
0000
0000
0000
0000
0000
0002
0000
0000
0000
0000
0000
4000
0000
0000
0000
0000
0000
0000
0000
0000
0000
0000
0000
,  // measure 25
3000
0000
1003
0100
0010
0100
1000
0000
0001
0000
0100
0000
0001
0000
1000
0000
,  // measure 26
0100
0000
0010
0001
0100
0010
0100
0000
0000
0000
0000
0000
0010
1000
0100
1000
,  // measure 27
0001
0100
0010
0000
1000
0000
0001
0000
0000
0000
0000
0000
0010
0000
0010
0000
,  // measure 28
1000
0000
0000
0000
0000
0000
0001
0010
0100
1000
0000
0010
0000
0100
0000
0001
,  // measure 29
0000
0000
1000
0000
0100
0000
0000
0000
0010
0000
0000
0000
0000
0000
0001
0000
0000
1000
0000
0000
0000
0000
0020
0000
2000
0000
0000
0000
0000
0000
0000
0000
,  // measure 30
0000
0000
0000
0030
3001
0000
0001
0100
0100
0010
0000
0000
1000
0000
1010
0000
,  // measure 31
0010
0101
0001
1001
1000
1100
0100
0110
,  // measure 32
0001
0000
0011
0000
0001
1000
1100
0000
0010
0000
0001
0010
1000
0100
0000
0000
,  // measure 33
1010
0000
0100
0000
1010
0000
0001
0000
0100
0010
1000
0100
0010
0001
0000
0000
,  // measure 34
0001
0000
0000
0000
1000
0000
0000
0000
0100
0000
0000
0000
0010
0000
0000
0000
0001
0000
0000
0000
0100
0000
0000
0000
0010
0000
0000
1000
0000
0000
0100
0000
0000
0010
0000
0000
0100
0000
0000
1000
0000
0000
0000
0000
0000
0001
0000
0000
,  // measure 35
0100
0010
1000
0100
0010
0100
1000
0001
1000
0100
0010
0001
1000
0010
0000
0000
,  // measure 36
0100
0000
0000
0000
0000
0000
0001
0000
0000
0100
0000
0000
0000
0000
0010
0000
0000
0000
1000
0000
0000
0100
0000
0000
0010
0000
0000
0001
0000
0000
0100
0000
0000
0010
0000
0000
0100
0000
0000
0001
0000
0000
0000
0000
0000
0000
0000
0000
,  // measure 37
1000
0000
0110
0000
0001
0000
0110
0000
1000
0001
1000
0010
0100
0001
0000
0000
,  // measure 38
1000
0100
0010
0001
0100
0010
1000
0001
0100
0001
1000
0010
0100
0001
0000
0000
,  // measure 39
1000
0000
0100
0000
0010
0000
0100
0000
1000
0000
0001
0000
0100
0000
0001
0000
1000
0000
0100
0000
0010
0000
0001
0000
0100
0000
0000
0010
0000
0000
0000
0000
,  // measure 40
1000
0001
0100
0010
1000
0010
0100
0020
0000
1030
0001
1000
0100
0010
0001
0000
,  // measure 41
1000
0001
1000
0100
1000
0001
0100
0000
0010
0000
1000
0000
0010
0000
0001
0000
,  // measure 42
0010
0000
1000
0100
1000
0001
0100
0000
0000
0000
0000
0000
0010
1000
0010
0100
,  // measure 43
0001
0100
0010
1000
0100
1000
0010
0000
1000
0000
0100
0000
0010
0000
0100
0000
,  // measure 44
1000
0000
0001
0100
0010
0100
0001
0000
0000
0000
0000
1000
0100
0010
0001
1000
,  // measure 45
0100
1000
0001
0000
0010
0000
0100
0000
0000
0000
0000
0000
1000
0000
1000
0000
,  // measure 46
1000
0000
0000
0000
0000
0000
0001
0010
0100
1000
0000
0001
0000
0100
0010
1000
,  // measure 47
0000
1000
0010
0000
1000
0000
0001
1000
0000
0000
0002
2000
0000
0000
0000
0000
,  // measure 48
0000
0000
0000
0000
0000
0000
0000
0000
0000
0000
0000
0000
0000
0000
0000
0000
0000
0000
0000
0000
0000
0000
0000
0000
3000
0000
0000
0000
0000
0000
0000
0000
0000
0000
0000
0000
1003
0000
0000
0000
0000
0000
0000
0000
0000
0000
0000
0000
0000
0000
0000
0000
0000
0000
0000
0000
0100
0000
0000
0000
0000
0000
0000
0000
0000
0000
0000
0000
0000
0000
0000
0000
0000
0000
0000
0000
0000
0000
0000
0000
0000
0000
0000
0000
0010
0000
0000
0000
0000
0000
0002
0000
0000
0000
0000
0000
0000
0000
0000
0000
0000
0000
0000
0000
0000
0000
0000
0000
0000
0000
0000
0000
0000
0000
0000
0000
0000
0000
0000
0000
1003
0000
0000
0000
0000
0000
0000
0000
0000
0000
0000
0000
0000
0000
0000
0000
0000
0000
0000
0000
0000
0000
0000
0000
1100
0000
0000
0000
0000
0000
0000
0000
0000
0000
0000
0000
0000
0000
0000
0000
0000
0000
0000
0000
0000
0000
0000
0000
0001
0000
0000
0000
0000
0000
0000
0000
0000
0000
0000
0000
0100
0000
0000
0000
0000
0000
0000
0000
0000
0000
0000
0000
,  // measure 49
1000
0000
0000
1000
0010
0000
0010
0000
0000
0100
0002
0000
0000
0000
0000
0000
,  // measure 50
1003
0000
0001
0100
0010
1000
0001
0000
0100
0000
0000
0000
0010
0000
1100
0000
,  // measure 51
0100
1000
0010
0000
0000
0100
0001
0000
0100
0000
0000
0010
2000
0000
0000
0000
,  // measure 52
0000
0000
3001
0000
0010
0100
1000
0100
0010
0000
1000
0000
0000
0000
0010
0000
,  // measure 53
1100
0000
0001
0010
0100
0000
0000
0100
1000
0000
0001
0000
0000
0100
0020
0000
,  // measure 54
0000
0000
0000
0000
1030
0000
0001
1000
0100
0010
0001
0000
0100
0000
0000
0000
,  // measure 55
0001
0000
1100
0000
0010
0100
1000
0000
0000
0001
0100
0000
0010
0000
0000
0010
,  // measure 56
1000
0000
0001
0000
1000
0000
0001
0000
0000
0000
0001
0000
0010
0000
0000
0000
0010
0000
0100
0000
0000
0000
0100
0000
1000
0000
0000
0001
0000
0000
0100
0000
0000
0010
0000
0000
0000
0000
0000
0000
0000
0000
2000
0000
0000
0000
0000
0000
,  // measure 57
0004
0000
0000
0000
0003
0000
3001
0010
0100
0010
0001
0000
0000
0000
0000
0000
,  // measure 58
1000
0000
0010
0100
0001
0010
0100
0000
1000
0000
0001
0000
1000
0000
0010
0000
,  // measure 59
0100
0000
0002
0000
0000
0000
1003
0100
0010
0001
0100
0000
0000
0000
0000
0100
,  // measure 60
0010
1000
0010
0100
0001
1000
0100
0010
0100
1000
0010
0000
0000
0000
0000
0100
,  // measure 61
0001
0010
0100
1000
0010
0100
0001
0010
0000
0100
0000
1000
0000
0000
0000
0001
,  // measure 62
1000
0000
0000
0100
0000
0000
0010
0000
0000
0000
0000
0000
0001
0000
0000
1000
0000
0000
0000
0000
0000
0010
0000
0000
0100
0000
0000
0001
0000
0000
1000
0000
0000
0000
0001
0000
0000
0000
0000
0000
0000
0000
0000
0000
0000
0000
0000
0000
,  // measure 63
0010
0100
1000
0100
0010
0000
0001
0100
0010
0000
2000
0000
0000
0000
3000
0000
,  // measure 64
0100
0010
0001
0000
0000
1000
0001
0000
0000
0000
0200
0000
0000
0000
0300
0000
,  // measure 65
0010
0000
1000
0000
0100
0000
0010
0001
0010
0100
1000
0000
0000
1000
0001
0000
,  // measure 66
0100
0010
0000
0010
1000
0100
0000
0100
0010
0001
0000
2000
3000
0000
0000
0010
,  // measure 67
0100
0000
0000
0001
0000
0000
0000
0000
0000
0000
1000
0000
0000
0000
0000
0010
0000
0000
0000
0000
0000
0100
0000
0000
0001
0000
0000
1000
0000
0000
0000
0000
0000
0000
0000
0000
0000
0000
0000
0100
0000
0000
0010
0000
0000
0000
0000
0000
,  // measure 68
0011
0000
1001
0000
1010
0000
1001
0000
1000
0100
0110
0000
0000
0000
0000
0000
,  // measure 69
0010
0000
0001
0100
0010
0000
1000
0001
0100
0000
0110
0000
0000
0000
0110
0000
,  // measure 70
1000
0001
1000
0100
0010
0000
0000
0000
0001
1000
0001
0100
0010
0000
1000
0001
,  // measure 71
0010
0100
1000
0001
0100
0000
0000
0010
2000
0000
0000
0000
3100
0010
0001
1000
,  // measure 72
0010
0100
0010
1000
0001
0000
0000
0000
0010
0100
1000
0000
1100
0000
0000
0000
,  // measure 73
0001
0100
0010
0000
1010
0000
0000
0000
1000
0001
0010
0000
0110
0000
0000
0000
,  // measure 74
0100
0000
0000
0010
0000
0000
0001
0000
0000
0000
0000
0000
0101
0000
0000
0000
0000
0000
0000
0000
0000
0000
0000
0000
0100
0000
0000
0010
0000
0000
0000
0000
1000
0000
0000
0000
0000
0000
1100
0000
0000
0000
0000
0000
0000
0000
1000
0000
,  // measure 75
0001
0000
1000
0000
0001
0000
0000
0000
0000
0000
0000
0000
0101
0000
0000
0000
0000
0000
0000
0000
0000
0000
0000
0000
0100
0000
0000
0010
0000
0000
1000
0000
0000
0000
0000
0000
0100
0000
0000
0010
0000
0000
0001
0000
0000
0000
0000
0000
,  // measure 76
0001
0000
1000
0000
0100
0000
0000
0000
0000
0000
0000
0000
0010
0000
0000
0001
0000
0000
0100
0000
0000
0010
0000
0000
1000
0000
0000
0100
0000
0000
1000
0000
0000
0010
0000
0000
0100
0000
0000
0001
0000
0000
0000
0000
0000
0000
0000
0000
,  // measure 77
0000
0000
0000
0000
0000
0000
1000
0000
0000
1000
0000
0000
1000
0000
0000
0001
,  // measure 78
0010
0100
0010
0000
0001
0000
0100
0000
0000
0100
0000
0000
0100
0000
0000
0001
,  // measure 79
1000
0100
1000
0000
0100
0000
0010
0000
0000
0010
0000
0000
0010
0000
0000
1000
,  // measure 80
0010
0100
0010
0000
1000
0000
0001
0000
0000
0001
0000
0000
0001
0000
0000
1000
,  // measure 81
0100
0001
0100
0000
1000
0000
0010
0000
0000
0010
0000
0000
0010
0000
0000
1000
,  // measure 82
0010
0001
0010
0000
1000
0000
0100
0000
0000
0100
0000
0000
0100
0000
0000
0010
,  // measure 83
0001
0100
0001
0000
0000
0000
0100
0000
0100
0000
0100
0000
0100
0000
0100
0000
,  // measure 84
0100
0100
0000
0010
0010
0010
0010
0010
,  // measure 85
0010
0010
0000
0001
0001
0001
0001
0001
,  // measure 86
0001
0000
0001
0000
1000
0000
1000
0001
1000
0001
1000
0001
1000
0001
1000
0000
,  // measure 87
0001
1000
0001
1000
0001
1000
0001
1MM0
,  // measure 88
0000
0001
0000
1000
0000
0001
0000
1000
,  // measure 89
0000
0001
0000
1000
0000
0001
0000
1000
,  // measure 90
0000
0001
0000
1000
0000
0001
0000
1000
,  // measure 91
0000
0001
0000
1000
0000
0001
0000
1MM0
,  // measure 92
0000
0000
0000
0001
0000
0000
0000
1000
,  // measure 93
0000
0000
0000
0001
0000
0000
0000
1000
,  // measure 94
0000
0000
0000
0001
0000
0000
0000
1000
,  // measure 95
0000
0000
0000
0001
0000
0000
0000
1000
,  // measure 96
0000
0000
0000
0001
0000
0000
0000
1000
,  // measure 97
0000
0000
0000
0001
0000
0000
0000
1000
,  // measure 98
0000
0000
0000
0001
0000
0000
0000
1000
,  // measure 99
0000
0000
0000
0004
0000
0000
0000
4000
,  // measure 100
0000
0000
0000
0000
,  // measure 101
0000
0000
0000
0000
3003
1001
0200
0300
,  // measure 102
1100
0000
0000
0000
0000
0000
0002
0000
0000
0000
0000
0000
0000
0000
0000
0003
0000
0000
0000
0000
0000
0000
1010
0000
0000
0000
0000
0000
0011
0000
0000
0000
0000
0000
1010
0000
0000
0000
0000
0100
0000
0000
0000
0000
0000
0000
0000
0000
,  // measure 103
0000
0000
0000
1000
0000
0000
0000
0000
0000
0000
0100
0000
0000
0000
0000
0000
,  // measure 104
0010
0000
0000
0001
0010
0001
0010
0000
0000
0000
0100
0000
0000
1000
0000
0000
,  // measure 105
0000
0000
0000
0010
0000
1000
0000
0000
0000
0000
0001
0000
0000
0000
0000
0000
,  // measure 106
0010
0100
1000
0100
1000
0000
0010
0000
0000
0000
0000
0000
0000
0100
0000
0001
,  // measure 107
0000
1000
0000
0000
0100
0000
0000
0000
0010
0000
0001
0000
0000
1000
0000
0000
,  // measure 108
0010
0000
0000
0000
0000
0000
0100
0000
0001
0000
4000
0400
0000
3320
0000
0000
,  // measure 109
0000
0000
0000
0030
0101
0000
0000
0000
0100
0000
0110
0000
0000
0000
0000
0000
,  // measure 110
1010
0000
0000
0000
0000
0000
0000
0200
0000
0000
1300
0100
0010
0001
0000
0000
,  // measure 111
0100
0000
0000
0000
0000
0000
0000
0000
0000
0010
0000
0000
0000
0000
0000
0000
0000
0000
0000
0000
0000
0000
0000
0000
0000
0000
0000
0000
0000
0000
1000
0000
0000
0000
0001
0000
0000
0000
0000
0000
0000
0000
0000
0000
0000
0000
0000
0000
,  // measure 112
0100
0000
0000
0000
0000
0000
0000
0040
4000
0000
0000
3000
0030
1000
0000
0000
,  // measure 113
0000
0000
0000
0000
0000
0000
0000
0000
0000
0001
0000
0000
0000
0000
0000
0000
0000
0000
0010
0000
0000
0000
0010
0000
0000
0000
0000
0000
0000
0100
0000
0000
0000
0000
0000
0000
0000
0000
0000
0000
0000
0000
0000
0000
1000
0000
0000
0000
,  // measure 114
0001
0000
0000
0000
0000
0100
0000
0000
0000
0000
2002
0000
3003
0000
0000
0000
0000
0000
0000
0000
0000
0000
0000
0000
;
