#TITLE:Shut Down Everything;
#SUBTITLE:;
#ARTIST:The Quick Brown Fox;
#TITLETRANSLIT:;
#SUBTITLETRANSLIT:;
#ARTISTTRANSLIT:;
#GENRE:;
#CREDIT:;
#BANNER:;
#BACKGROUND:;
#LYRICSPATH:;
#CDTITLE:;
#MUSIC:07. The Quick Brown Fox - Shut Down Everything.mp3;
#OFFSET:0.000;
#SAMPLESTART:22.100;
#SAMPLELENGTH:12.000;
#SELECTABLE:YES;
#BPMS:0.000=220.000
;
#STOPS:
;
#BGCHANGES:;
#KEYSOUNDS:;
#ATTACKS:;

//---------------dance-single - Blank----------------
#NOTES:
     dance-single:
     :
     Challenge:
     15:
     1.000,1.000,0.261,0.224,1.000,1113.000,35.000,30.000,0.000,4.000,4.000,1.000,1.000,0.261,0.224,1.000,1113.000,35.000,30.000,0.000,4.000,4.000: // measure 0
0000
0000
0000
0000
,  // measure 1
0000
0000
0000
0000
,  // measure 2
0000
0000
1001
0000
0001
0010
0100
1000
,  // measure 3
0000
1010
0110
0101
,  // measure 4
0000
0001
0100
0010
,  // measure 5
1000
0100
0010
0000
0001
0000
1000
0000
,  // measure 6
0010
0100
0101
0000
0101
0000
0100
0000
,  // measure 7
0010
0000
1000
0100
1000
0000
0001
0000
,  // measure 8
0100
0000
0010
0000
1000
0100
0000
1000
,  // measure 9
0000
0001
0100
0000
0010
0000
1000
0000
,  // measure 10
0200
0000
0000
0300
0120
0000
0000
0030
0210
0000
0000
0300
0120
0000
0000
0030
,  // measure 11
0210
0000
0310
0000
0001
0000
0100
0010
,  // measure 12
0000
0000
1000
0100
1000
0010
0100
0000
,  // measure 13
0001
0000
0010
0000
0100
1000
0000
0000
,  // measure 14
0000
0001
0100
0000
0010
1000
0100
0000
,  // measure 15
0010
0001
0100
0001
0010
0000
0100
0000
,  // measure 16
1000
0010
0100
0000
0100
0001
0000
0001
,  // measure 17
0010
0000
0100
0000
1000
0001
1000
0000
,  // measure 18
0000
0002
0000
0200
,  // measure 19
0000
1020
1030
2010
,  // measure 20
3313
0000
0000
0000
1000
0001
0100
0010
1000
0001
0100
0010
1000
0100
0010
0001
,  // measure 21
1000
0100
0010
0001
0010
0100
1000
0100
1000
0001
0010
0001
1000
0100
0010
0001
,  // measure 22
1000
0100
0010
0001
1000
0010
1000
0001
0010
0001
1000
0100
0010
0100
1000
0100
,  // measure 23
0010
0001
1000
0100
0010
0001
1000
0010
0100
0001
1000
0010
0400
0000
0000
0000
,  // measure 24
0304
0000
0000
1000
0103
0010
0001
1000
0010
0100
0001
0100
0010
0100
0001
1000
,  // measure 25
0010
0100
0001
0100
0010
1000
0100
0010
0001
1000
0001
0100
0001
1000
0001
0100
,  // measure 26
0010
0100
0001
1000
0100
0010
0001
1000
0100
0010
0001
0010
0001
1000
0100
0010
,  // measure 27
0100
0000
0000
1000
0000
0000
0100
0000
0000
0010
0000
0000
0001
0000
0000
1000
0000
0000
0010
0000
0000
0100
0000
0000
0001
0000
0000
1000
0000
0000
0010
0000
0000
0100
0000
0000
0001
0000
1000
0000
0001
0000
1000
0000
0001
0000
1000
0000
,  // measure 28
0001
0000
1000
0000
0001
0000
1000
0000
0001
0000
1000
0000
0001
0000
0000
0100
0000
0000
0010
0000
0000
1000
0000
0000
0001
0000
0000
0010
0000
0000
0100
0000
0000
1000
0000
0000
0100
0000
0000
0010
0000
0000
0001
0000
0000
1000
0000
0000
,  // measure 29
0010
1000
0001
1000
0010
0100
0001
1000
0001
0100
0001
1000
0100
0010
0100
1000
,  // measure 30
0001
0010
0100
1000
0001
0010
0100
1000
0010
0100
0001
1000
0010
0100
0001
0100
,  // measure 31
0010
1000
0100
0010
0100
1000
0001
0010
0100
1000
0001
1000
0004
0000
0000
0000
,  // measure 32
0403
0000
0000
0001
0310
0100
1000
0010
0100
0001
1000
0010
0100
0010
1000
0010
,  // measure 33
0100
0010
1000
0100
0010
0001
0010
0100
1000
0001
1000
0100
0010
0001
1000
0100
,  // measure 34
1000
0001
0010
0001
1000
0010
0100
0001
1000
0010
0100
0001
1000
0100
0010
0100
,  // measure 35
1000
0001
0010
0001
1000
0010
0100
0001
1000
0100
1000
0100
2000
0000
0000
0000
,  // measure 36
0000
0000
0000
0000
3001
0100
0010
1000
0001
0000
1000
0000
0001
0010
0100
1000
,  // measure 37
0001
0000
0100
0000
0010
1000
0000
1000
0100
0000
0010
0000
0001
0010
0100
1000
,  // measure 38
0001
0010
0100
1000
0001
0100
0001
0100
0001
0000
0100
0000
0010
1000
0010
0100
,  // measure 39
0010
0000
1000
0000
0100
0010
0000
0010
0001
0000
1000
0000
0010
0100
0010
0000
,  // measure 40
0100
0001
0100
0000
0010
1000
0001
0100
0010
0000
1000
0000
0100
0010
0001
1000
,  // measure 41
0100
0000
0010
0000
0001
1000
0000
1000
0010
0000
0100
0000
0001
1000
0010
0100
,  // measure 42
0001
1000
0100
0010
0001
0100
0010
0100
0010
0000
1000
0000
0001
0100
0001
0100
,  // measure 43
0010
0000
0000
1000
0000
0000
0001
0100
0001
0100
0000
0000
0010
0000
0000
1000
0010
1000
0010
0000
0000
0100
0000
0000
,  // measure 44
0001
0000
0010
0000
0100
1000
0001
1000
0001
0000
0100
0000
0010
1000
0010
1000
,  // measure 45
0100
0000
0010
0000
0001
0100
0000
0100
0010
0000
1000
0000
0001
0100
0010
0100
,  // measure 46
0001
0100
0010
0100
0001
1000
0001
1000
0001
0000
0010
0000
0100
1000
0100
0010
,  // measure 47
0001
0000
0100
0000
0010
1000
0000
1000
0001
0000
0010
0000
0100
1000
0100
0000
,  // measure 48
0010
0001
0010
0000
0100
1000
0001
1000
0010
0000
0100
0000
0001
0100
0001
1000
,  // measure 49
0001
0000
0010
0000
0100
1000
0000
1000
0010
0000
0100
0000
0001
0010
0100
1000
,  // measure 50
0001
0010
0100
1000
0100
1000
0001
0010
0100
0000
1000
0000
0001
0100
0010
1000
,  // measure 51
0001
0000
0000
0100
0000
0000
0010
0100
0010
0100
0000
0000
0001
0000
0000
0100
0001
0100
0002
0000
0000
0000
0000
0000
,  // measure 52
0000
0000
0000
0003
0011
0000
0000
0000
1001
0000
0000
0000
0110
0000
0000
0000
,  // measure 53
1010
0100
1010
0000
0110
0000
0101
0010
,  // measure 54
0100
1000
0101
0000
0110
0000
1010
0000
,  // measure 55
1001
0000
1000
0000
0001
0100
0000
0100
0010
0000
0010
1000
0000
1000
0001
0000
,  // measure 56
0001
0100
0000
0010
1000
0010
1000
0010
0000
0010
0100
0001
0100
0000
0001
0000
,  // measure 57
0100
0000
0010
0000
1000
0001
0100
0000
0010
0000
1000
0000
0100
0000
0010
0000
,  // measure 58
0100
0000
0100
0000
0001
1000
0100
0000
0010
0000
0001
1000
0001
0000
0001
0100
,  // measure 59
0010
0000
1000
0000
0001
0100
0000
0100
0001
0000
0001
1000
0000
1000
0100
0000
,  // measure 60
1000
0001
1000
0001
1000
0001
2000
0000
0000
0000
0000
0000
0000
0000
0000
0000
0000
0000
0200
0000
0000
0000
0000
0000
,  // measure 61
0000
0000
0000
3000
0320
0030
0002
0003
0200
0300
0020
0030
2000
3000
0200
0300
,  // measure 62
0020
0030
0002
0003
1000
0000
0010
0000
1000
0000
0000
0000
0001
0000
0100
0000
,  // measure 63
0001
0000
0000
0000
0100
0000
0010
0000
1000
0000
0100
0000
0010
0001
0010
0001
,  // measure 64
0010
0001
0010
0000
0000
0000
0001
0000
0100
0000
0010
0000
1000
0000
0100
0000
,  // measure 65
0010
0000
0100
0000
1000
0000
0001
0000
0100
0000
0010
0000
1000
0010
1000
0000
,  // measure 66
0010
1000
0010
0000
1000
0000
0010
0000
0010
0000
0001
0000
0000
0000
0000
1000
,  // measure 67
0001
0000
0000
0000
0010
0100
1000
0010
0100
0001
1000
0100
0010
0001
0010
0001
,  // measure 68
0010
0000
0000
0000
0001
0010
0000
0010
0100
0000
0100
1000
0001
0010
0100
1000
,  // measure 69
0001
0100
0010
1000
0001
0100
0010
1000
0001
0100
0010
0100
0001
1000
0100
0010
,  // measure 70
0001
0000
0000
0000
1000
0100
0010
0000
0001
0100
0010
0000
1000
0001
0010
0000
,  // measure 71
0100
1000
0001
0000
0010
0100
1000
0000
0001
0100
0010
0000
0100
0001
1000
0010
,  // measure 72
0100
0001
1000
0010
0100
0000
0001
0000
1000
0000
0100
0000
0010
0000
0001
0000
,  // measure 73
0100
0000
0010
0000
1000
0000
0001
0000
0010
0000
0100
0000
1000
0100
1000
0000
,  // measure 74
0001
0010
0001
0000
0100
0000
0100
0000
0010
0000
0010
0000
0000
0000
1000
0000
,  // measure 75
0001
0010
0000
0000
0000
0100
1000
0001
0100
0010
1000
0001
0010
0100
1000
0001
,  // measure 76
1000
0001
0100
0000
0010
1000
0000
1000
0001
0100
0010
1000
0100
0010
0001
0010
,  // measure 77
0100
1000
0001
0100
0010
1000
0001
0100
0010
1000
0100
1000
0100
0010
0001
1000
,  // measure 78
0001
0000
0000
0000
0000
0001
0000
0100
0000
0010
0000
1000
0000
0100
0010
0000
,  // measure 79
0010
0001
0000
0100
0000
0010
0000
1000
0000
0010
0000
0100
0000
0001
0000
0010
,  // measure 80
0000
0100
0000
1000
0000
0001
0100
0001
0000
1000
0000
0001
0100
0001
0000
0100
,  // measure 81
0000
0010
0000
0100
0000
0001
0010
0001
0000
0100
0000
0010
1000
0010
0000
0100
,  // measure 82
0000
0001
0000
0010
0000
0100
0000
1000
0001
0000
0001
1000
0000
0001
0000
0100
,  // measure 83
0010
0000
0010
0100
0000
1001
0000
0000
0000
0110
0000
0000
0000
0010
0000
1000
,  // measure 84
0000
0001
0000
0010
0000
0100
1000
0001
0000
0100
0000
0010
1000
0001
0000
0100
,  // measure 85
0000
0001
0000
0100
0000
0010
1000
0010
0000
0100
0000
0001
0010
0001
0000
0010
,  // measure 86
0000
0100
0000
1000
0000
0001
0100
0000
0100
0010
0000
1000
0000
0100
0010
0000
,  // measure 87
0010
0001
0000
0100
0010
1000
0000
0000
0000
1010
0000
0000
0000
1000
0000
0001
,  // measure 88
0000
0100
0000
0001
0000
1000
0000
0000
0000
1001
0000
0000
0000
1000
0000
0100
,  // measure 89
0000
0010
0000
0001
0000
1100
0000
0000
0000
1100
0000
0000
0000
0001
0000
0100
,  // measure 90
0000
0010
0000
0100
0000
0001
0000
0100
0001
0000
0100
0001
0000
0100
0000
0010
,  // measure 91
1000
0000
0010
1000
0000
0100
0010
0001
0000
0100
0000
0010
1000
0100
0000
0010
,  // measure 92
0000
0001
0000
0100
0000
0001
0000
0010
0100
1000
0000
0001
0000
0100
0010
1000
,  // measure 93
0000
0010
0000
0100
0000
0001
1000
0100
0000
1000
0000
0001
0100
0001
0000
0100
,  // measure 94
0000
0010
0000
1000
0010
0000
0100
0010
0000
0100
0000
0001
0100
0000
0001
0010
,  // measure 95
0000
0100
1000
0000
2100
0000
0000
0000
0000
0000
0000
3000
1002
0000
0000
0000
,  // measure 96
0000
0000
0000
0003
0201
0000
0000
0300
0120
0000
0000
0030
2010
0000
0000
3000
,  // measure 97
1200
0300
0000
0000
0001
1000
0100
0000
0010
0000
0001
1000
0010
0000
0100
0000
,  // measure 98
0010
0000
0100
0000
0001
0100
0010
0000
1000
0000
0100
0000
0010
0001
1000
0100
,  // measure 99
0010
0001
1000
0010
0100
0000
0001
1000
0100
0000
0010
0000
0001
0000
1000
0010
,  // measure 100
0100
0000
0001
0000
0100
0000
0010
0000
1000
0000
0001
0000
0010
0100
1000
0000
,  // measure 101
0010
0100
0001
0000
0100
0010
1000
0000
0001
0000
0010
0100
1000
0000
0001
0000
,  // measure 102
0010
0000
0001
0000
1000
0001
0000
0001
0010
0000
0100
0000
1000
0001
0010
0100
,  // measure 103
1000
0001
0010
0100
1000
0000
0001
0100
0001
0000
1000
0000
0001
0010
0001
0000
,  // measure 104
0010
0000
0000
0100
0000
0000
1000
0100
1000
0100
0000
0000
0010
0000
0000
0001
1000
0001
1000
0000
0000
0010
0000
0000
,  // measure 105
0100
0000
0001
0000
0000
0000
0010
0001
0010
0000
0100
0000
1000
0100
1000
0000
,  // measure 106
0010
0000
0100
0000
0001
0100
0000
0001
0100
0000
0010
0000
1000
0100
0010
0001
,  // measure 107
1000
0100
0010
0001
1000
0000
0010
1000
0010
0000
0100
0000
0001
0100
0010
0000
,  // measure 108
1000
0000
0100
0000
0010
0001
0000
0001
1000
0000
0010
0000
0100
0000
0001
0010
,  // measure 109
0001
0000
1000
0010
1000
0000
0010
0100
0001
0000
0100
0000
0010
1000
0001
0000
,  // measure 110
0010
0000
0100
0000
1000
0100
0000
1000
0100
0000
0010
0000
0001
0100
0010
1000
,  // measure 111
0001
0100
0010
1000
0001
0000
0100
0010
1000
0000
0100
0000
0010
0001
1000
0000
,  // measure 112
0010
0000
0000
0100
0000
0000
0001
1000
0001
2000
0000
0000
3001
0000
0000
1000
0001
1000
0002
0000
0000
0000
0000
0000
,  // measure 113
0000
0000
0000
1003
0100
0010
0001
0100
0010
1000
0001
0010
,  // measure 114
0100
1000
0002
0000
0000
0000
0000
0000
0000
0003
0000
0000
;
