#TITLE:Scary Monsters and Nice Sprites;
#SUBTITLE:[Dirtyphonics Mix];
#ARTIST:Scrillex;
#TITLETRANSLIT:;
#SUBTITLETRANSLIT:;
#ARTISTTRANSLIT:;
#GENRE:;
#CREDIT:;
#BANNER:;
#BACKGROUND:;
#LYRICSPATH:;
#CDTITLE:;
#MUSIC:07 Scary Monsters And Nice Sprites [.ogg;
#OFFSET:0.085000;
#SAMPLESTART:45.805031;
#SAMPLELENGTH:12.000000;
#SELECTABLE:YES;
#DISPLAYBPM:87.500000:525.000000;
#BPMS:0.000000=87.500000
,35.000000=175.000000
,101.000000=262.500000
,104.000000=350.000000
,107.000000=700.000000
,108.000000=525.000000
,114.000000=175.000000
,116.000000=262.500000
,119.000000=350.000000
,122.000000=700.000000
,123.000000=525.000000
,129.000000=175.000000
,130.000000=350.000000
,130.500000=175.000000
,130.750000=350.000000
,131.250000=175.000000
,131.500000=262.500000
,134.500000=350.000000
,137.500000=700.000000
,138.500000=525.000000
,144.500000=175.000000
,151.000000=350.000000
,152.500000=700.000000
,153.000000=350.000000
,153.250000=262.500000
,154.000000=175.000000
,154.250000=700.000000
,154.750000=350.000000
,155.000000=262.500000
,155.750000=175.000000
,378.000000=43.750000
,386.000000=87.500000
,402.000000=175.000000
;
#STOPS:107.000000=0.043000,
107.500000=0.043000,
122.000000=0.043000,
122.500000=0.043000,
137.500000=0.043000,
138.000000=0.043000,
151.000000=0.043000,
151.250000=0.043000,
151.500000=0.043000,
151.750000=0.043000,
152.000000=0.043000,
152.250000=0.043000
;
#BGCHANGES:;
#KEYSOUNDS:;
#ATTACKS:;

//---------------dance-single - ----------------
#NOTES:
     dance-single:
     :
     Challenge:
     13:
     0.849899,1.000000,0.154572,0.879341,0.714465,1431.000000,45.000000,256.000000,10.000000,0.000000,0.000000,0.849899,1.000000,0.154572,0.879341,0.714465,1431.000000,45.000000,256.000000,10.000000,0.000000,0.000000:
// measure 0
0000
0000
0000
2000
,  // measure 1
0000
0000
3001
0100
0020
0000
1000
0000
1030
0100
0010
0001
0100
0001
0010
0100
,  // measure 2
0010
0001
1000
0010
0100
0001
0010
0100
1000
0001
0010
0100
1000
0010
0100
0001
,  // measure 3
0020
0000
0130
1000
0100
0010
0002
0000
0103
0010
1000
0001
0100
0010
1000
0100
,  // measure 4
1000
0001
0010
0001
0100
0010
0100
0001
1000
0010
0100
0001
1000
0100
0010
0001
,  // measure 5
2000
0000
3010
0100
0001
0100
0020
0000
1030
0100
0010
0001
0100
0010
1000
0001
,  // measure 6
0100
0010
1000
0100
1000
0001
0100
0001
0010
0100
1000
0001
0100
0010
1000
0100
,  // measure 7
0020
0000
0031
0100
0001
0010
0200
0000
1300
0001
0100
0010
0100
0001
0010
0100
,  // measure 8
1000
0001
0100
0001
1000
0100
1000
0010
1000
0001
0010
0001
0100
0000
0001
0000
,  // measure 9
0010
0100
2000
0000
3001
0100
0010
1000
,  // measure 10
0200
0000
0310
0001
0100
0001
0010
0100
,  // measure 11
1000
0010
0200
0000
0301
0010
0100
1000
,  // measure 12
0020
0000
1030
0100
1000
0001
0010
0100
,  // measure 13
1000
0001
0200
0000
0310
1000
0001
0010
,  // measure 14
0002
0000
1003
0100
0010
0100
1000
0001
,  // measure 15
0100
0010
2000
0000
3001
0100
0010
0100
,  // measure 16
0002
0000
1003
0100
0010
0001
0100
0010
,  // measure 17
1000
0100
2000
0000
3001
0100
0010
1000
,  // measure 18
0100
0010
0002
0000
1003
0010
0100
0001
,  // measure 19
1000
0001
0010
0100
1000
0010
1000
0100
,  // measure 20
0010
0001
0100
0001
1000
0001
0010
0100
,  // measure 21
1000
0001
0100
0010
1000
0001
0010
0100
,  // measure 22
1000
0000
0001
0000
0100
0001
0100
0000
0010
1000
0010
0000
2000
0000
0000
0000
,  // measure 23
0000
0000
3002
0000
0000
0000
0023
0000
0130
0010
0100
1000
0100
1000
0001
0010
,  // measure 24
0100
1000
0001
0010
0100
1000
0001
1000
0001
0000
0000
0000
1000
0100
0010
0001
,  // measure 25
1000
0100
0010
0001
2000
0000
0000
0000
0000
0000
0000
0000
0000
0000
0000
0000
,  // measure 26
3020
0000
0000
0000
0000
0000
0130
0001
,  // measure 27
2000
0000
0000
0000
,  // measure 28
0000
0000
0000
0000
0000
0000
0000
0000
3200
0000
0310
0001
1000
0010
0100
0001
,  // measure 29
2000
0000
0000
3002
,  // measure 30
0000
0000
0000
0000
0103
0010
2000
0000
,  // measure 31
0000
0000
0000
0000
,  // measure 32
0000
0000
0000
0000
3200
0000
0000
0000
0000
0000
0320
0000
0030
0002
0000
0003
,  // measure 33
0200
0000
0000
0320
,  // measure 34
0000
0000
0000
0000
1030
0001
0020
0000
,  // measure 35
0000
0000
0000
0000
,  // measure 36
0000
0000
0130
1000
0001
0100
0020
0000
,  // measure 37
1030
0000
0001
0000
0100
0000
0010
0000
0200
0000
0000
0000
0301
0000
1000
0100
,  // measure 38
0010
0001
1000
0100
002M
0000
0000
0000
0000
0000
0000
000M
0000
0000
0000
0000
,  // measure 39
0000
0032
0000
0000
0000
0000
0000
0203
,  // measure 40
0000
0000
0000
0000
0000
0310
1000
0002
,  // measure 41
0000
0000
0000
0000
,  // measure 42
0000
0000
0000
0000
0000
0000
1003
0010
0100
0001
1000
0010
0100
0001
2000
0000
,  // measure 43
0000
0000
0000
0000
0000
3200
0000
0000
,  // measure 44
0000
0000
0000
0310
0001
0200
0000
0000
,  // measure 45
0000
0000
0000
0000
,  // measure 46
0000
0000
0000
0301
0000
0000
0000
0000
0000
1000
0001
1000
0001
1000
0001
2000
0000
0000
0000
0000
0000
0000
0000
0000
,  // measure 47
0000
0000
0000
3200
0000
0000
0000
0000
,  // measure 48
0000
0310
0001
0200
0000
0000
0000
0000
,  // measure 49
0000
0000
0000
0000
0000
0000
0000
0310
,  // measure 50
1000
0001
0010
0200
0000
1300
0001
0100
,  // measure 51
0010
0000
2000
0000
0000
0000
3100
0000
0010
0001
0100
0010
1000
0001
0200
0000
,  // measure 52
0300
0200
0000
0300
0002
0000
0003
0002
0000
0003
0000
0000
1000
0100
1000
0000
,  // measure 53
0001
0000
0000
0100
0000
0000
0001
0000
0000
0000
0000
0000
0010
0000
0000
0000
0000
0000
0100
0000
1000
0000
0100
0000
1000
0000
0000
0000
0000
0000
0002
0000
0000
0000
0000
0000
0003
0000
0000
0002
0000
0000
0000
0000
0000
0003
0000
0000
,  // measure 54
0200
0000
0300
0200
0000
0300
0010
0000
1000
0010
1000
0001
1000
0000
0100
0000
,  // measure 55
0010
0000
0000
0000
0000
0000
0001
0000
0000
0000
0000
0000
0100
0000
0000
0000
0000
0000
0010
0000
1000
0000
0010
0000
1000
0000
0000
0000
0000
0000
0002
0000
0000
0000
0000
0000
0003
0000
0000
0000
0000
0000
0020
0000
0000
0030
0000
0000
,  // measure 56
0200
0000
0000
2300
0000
0000
3001
0000
0100
0001
0100
0000
0010
1000
0010
0000
,  // measure 57
1000
0100
1000
0100
0000
0000
0010
0001
0010
0001
0000
0000
0010
0000
0000
0200
0000
0000
0000
0000
0000
2300
0000
0000
,  // measure 58
0000
0000
3002
0000
0000
0000
0103
0000
0010
0000
1000
0010
1000
0001
1000
0000
,  // measure 59
0100
0000
0010
0000
0001
0000
0200
0000
0300
0200
0000
0300
0001
0000
0000
0000
,  // measure 60
0001
0000
0000
0000
0100
0000
0000
0000
0001
0000
0000
0000
1000
0000
0000
0000
0000
0000
0100
0000
0000
0010
0000
0000
0100
0000
0000
0000
0000
0000
1000
0000
0000
0001
0000
0000
1000
0000
0000
0000
0000
0000
0000
0000
0010
0000
0000
0000
,  // measure 61
0100
0001
0020
0000
0230
0000
0320
0000
,  // measure 62
0031
0000
0000
0000
0010
0000
0000
0000
0100
0000
0000
0000
1000
0000
0000
0000
0000
0000
0001
0000
0000
0000
0000
0000
0100
0000
0000
0010
0000
0000
0100
0000
0000
0000
0000
0000
0001
0000
0000
0000
0000
0000
1000
0000
0000
0000
0000
0000
,  // measure 63
0100
0010
0002
0203
0000
0000
0000
0300
,  // measure 64
0100
0000
0000
0000
0000
0000
0010
0000
0000
0000
0100
0000
0000
0000
0001
0000
0000
0000
1000
0000
0000
0000
0000
0000
0100
0000
0000
1000
0000
0000
0100
0000
0000
0000
0000
0000
0010
0000
0000
0001
0000
0000
0010
0000
0000
0000
0000
0000
,  // measure 65
0000
0100
0000
1000
0000
0000
0001
0000
1000
0000
0000
0000
0100
0000
0000
0010
0000
0000
0100
0000
0000
2000
0000
0000
,  // measure 66
0000
3001
0100
0010
0100
0002
0000
1003
,  // measure 67
0100
0000
0010
0000
0001
0000
0100
0010
1000
0001
0100
0010
1000
0000
0002
0000
,  // measure 68
0000
0000
0000
0000
0000
0023
0000
0000
,  // measure 69
0000
0000
0000
0130
1000
0200
0000
0000
,  // measure 70
0000
0000
2300
0000
0000
0000
0000
0000
0000
0000
0000
0000
0000
0000
3001
0100
,  // measure 71
0010
0100
0001
0100
0010
0100
0002
0000
0000
0000
0000
0000
0000
0000
0000
0000
,  // measure 72
0000
2003
0000
0000
0000
0000
0000
3100
,  // measure 73
0010
0002
0000
0000
0000
0203
0000
0000
,  // measure 74
0000
0000
0000
0000
0000
0000
0320
0000
0000
0000
0000
0000
2030
0000
3000
0002
,  // measure 75
0000
0003
0020
0000
0000
0000
0000
0000
0000
0000
0000
0000
0000
0000
0230
0000
,  // measure 76
0000
0000
0000
0000
0000
1300
0001
0200
,  // measure 77
0000
0000
0000
0000
,  // measure 78
0000
0000
0000
0301
0010
0100
0010
0002
,  // measure 79
0000
1003
0010
0100
0010
2000
0000
3001
,  // measure 80
0010
0100
1000
0001
0010
0001
2000
0000
0000
0000
3000
0000
0020
0000
0000
0000
,  // measure 81
0030
0200
0000
0000
0000
0000
0000
0302
,  // measure 82
0000
0000
0000
0000
0000
0013
0100
2000
,  // measure 83
0000
0000
0000
0000
,  // measure 84
0000
0000
0000
0000
0000
0000
3001
0100
0001
0100
0010
0100
0001
0100
0002
0000
,  // measure 85
0000
0000
0000
0000
0000
0023
0000
0000
,  // measure 86
0000
0000
0000
0130
1000
0020
0000
0000
,  // measure 87
0000
0000
0000
0000
,  // measure 88
0000
0000
0000
2030
0000
0000
3001
0100
0001
0100
0001
0100
0020
0000
0000
0000
0000
0000
0000
0000
0000
0000
0000
0000
,  // measure 89
0000
2030
0000
0000
,  // measure 90
3001
0100
0020
0000
0000
0000
0000
0000
,  // measure 91
0000
0000
0000
0000
0000
0000
1030
0001
,  // measure 92
0100
0010
0200
0000
0301
1000
0100
0010
,  // measure 93
0200
0000
0000
0000
1300
0000
0001
1000
0001
0100
0001
0010
0002
0000
0003
0020
,  // measure 94
0000
0030
0200
0000
0300
2000
0000
3000
0001
0000
0100
0001
0100
0000
0010
1000
,  // measure 95
0010
0000
0000
0000
0000
0000
1000
0000
0000
0000
0000
0000
0100
0000
1000
0000
0100
0000
1000
0000
0000
0000
0000
0000
0002
0000
0000
0000
0000
0000
0003
0000
0000
0200
0000
0000
0000
0000
0000
0300
0000
0000
0020
0000
0000
0000
0000
0000
,  // measure 96
0030
2000
0000
3000
0001
0000
0010
0000
0100
0010
0100
1000
0100
0000
0010
0000
,  // measure 97
0001
0000
0000
0000
0000
0000
0100
0000
0000
0000
0000
0000
0001
0000
0100
0000
0001
0000
0100
0000
0000
0000
0000
0000
0020
0000
0000
0000
0000
0000
0000
0000
0000
0000
0000
0000
2030
0000
0000
3000
0000
0000
0200
0000
0000
0000
0000
0000
,  // measure 98
0000
0320
0000
0000
0030
0000
0001
1000
0001
0000
0010
0100
0010
0000
0100
0000
,  // measure 99
1000
0001
1000
0001
0000
0000
1000
0000
0000
0010
0000
0000
0200
0000
0000
0300
0000
0000
0002
0000
0000
0003
0000
0000
,  // measure 100
0020
0000
0030
0000
0100
0000
1000
0000
0001
0100
0001
0100
0001
0000
0100
0000
,  // measure 101
0010
0000
0000
0000
0000
0000
1000
0000
0000
0000
0000
0000
0200
0000
0000
0000
0000
0000
0300
0000
0000
0020
0000
0000
0000
0000
0000
0030
0000
0000
0001
0000
0000
0000
0000
0000
0000
0000
0000
0000
0000
0000
1000
0000
0000
0000
0010
0000
,  // measure 102
0000
0000
0100
0000
0000
0000
0001
0000
0000
0000
0000
0000
1000
0000
0000
0010
0000
0000
1000
0000
0000
0000
0000
0000
0001
0000
0000
0010
0000
0000
0001
0000
0000
0000
0000
0000
0000
0000
0100
0000
0000
0000
0010
0000
0000
0000
0000
0000
,  // measure 103
1000
0000
0000
0000
0000
0000
0200
0000
0000
0000
0000
0000
0300
0000
0000
0020
0000
0000
0000
0000
0000
0030
0000
0000
0001
0000
0000
0000
0000
0000
0000
0000
0000
0000
0000
0000
0100
0000
0000
0000
0010
0000
0000
0000
1000
0000
0000
0000
,  // measure 104
0100
0000
0010
0001
0010
0100
1000
0100
1000
0000
0001
0000
0100
0000
0020
0000
,  // measure 105
2030
0000
0000
3002
0000
0000
0000
0000
0000
0000
0000
0000
0000
0000
0000
0003
0000
0000
0010
0000
0000
0100
0000
0010
,  // measure 106
0000
0000
0100
0000
0000
0000
1000
0000
0000
0000
0000
0000
0001
0000
0000
0100
0000
0000
0001
0000
0000
0000
0000
0000
1000
0000
0000
0100
0000
0000
1000
0000
0000
0000
0000
0000
0000
0000
0010
0000
0000
0000
0100
0000
0000
0000
0000
0000
,  // measure 107
0001
0010
0100
1000
0100
0020
0000
0031
,  // measure 108
0100
0010
0100
0002
0000
1003
0001
0100
,  // measure 109
0001
0000
0000
0000
0000
0000
0000
0000
0020
0000
0000
0000
0000
0000
0000
0000
0000
0000
0000
0000
0000
0000
0000
0230
0000
0000
0000
0000
0000
0000
0000
0000
0000
0000
0000
0000
0000
0000
0000
2300
0000
0000
0000
0000
0000
0000
0000
0000
0000
0000
0000
0000
0000
0000
0000
3002
0000
0000
0000
0000
0000
0000
0000
0000
,  // measure 110
0000
0000
0000
0000
0000
0000
0000
0203
0000
0000
0000
0000
0000
0000
0000
0000
0000
0000
0000
0000
0000
0000
0000
0320
0000
0000
0000
0000
0000
0000
0000
0000
0000
0000
0000
0000
0000
0000
0000
2030
0000
0000
0000
0000
0000
0000
0000
0000
0000
0000
0000
0000
0000
0000
0000
3200
0000
0000
0000
0000
0000
0000
0000
0000
,  // measure 111
0000
0000
0000
0000
0000
0000
0000
0300
0010
0000
0000
0000
0001
0000
0000
0000
0100
0000
0000
0000
0010
0000
0000
0000
2000
0000
0000
0000
0000
0000
0000
0000
3100
0000
0000
0000
0010
0000
0000
0000
0001
0000
0000
0000
0010
0000
0000
0000
0200
0000
0000
0000
0000
0000
0000
0000
1300
0000
0000
0000
0001
0000
0000
0000
,  // measure 112
0100
0010
1000
0100
1000
0001
0010
0001
1000
0010
0100
0001
0010
0100
1000
0001
,  // measure 113
0100
0010
1000
0100
0010
0001
0020
0000
0031
0100
0010
1000
0200
0000
1300
0010
,  // measure 114
0100
0001
0010
0001
0100
0010
0100
0001
1000
0100
0010
0001
1000
0100
1000
0001
,  // measure 115
0100
0010
1010
0000
1000
0000
0100
0000
0010
0000
0002
0000
0000
0000
1003
0000
,  // measure 116
0100
0110
0010
0002
0000
0103
0010
1000
,  // measure 117
0001
0011
0001
1000
0010
0200
0000
0301
,  // measure 118
0010
0110
0100
2000
0000
3001
0100
0010
,  // measure 119
1000
0000
1100
0000
0100
0000
0010
0000
0001
0000
0200
0000
0000
0300
0100
0000
,  // measure 120
0001
0011
0010
0200
0000
1300
0010
0100
,  // measure 121
0010
1010
0010
1000
0001
0020
0000
0130
,  // measure 122
1000
1100
1000
0002
0000
0103
0010
1000
,  // measure 123
0001
0101
0100
0010
1000
1100
0000
0000
,  // measure 124
0000
1100
0100
0010
0001
0101
0000
0000
,  // measure 125
0000
0110
0010
1000
0001
0101
0001
0010
,  // measure 126
0100
1100
1000
0001
0100
0110
0010
1000
,  // measure 127
0001
1001
0000
1010
0000
0101
0000
0011
,  // measure 128
0000
0000
1100
0000
1000
0000
0001
0000
0100
0000
0010
1000
0010
0000
0100
0001
,  // measure 129
0100
0000
0000
0000
0000
0000
0002
0000
0000
0000
0000
0000
0000
0000
0000
0000
0000
0000
0000
0000
0000
0000
0000
0000
0023
0000
0000
0000
0000
0000
0000
0000
0000
0000
0230
0000
0000
0000
0000
0000
0000
0000
1300
0000
0000
0001
0000
0000
,  // measure 130
0100
0010
1000
0001
0100
0010
1000
0100
0010
0001
1000
0100
0010
0001
1000
0000
,  // measure 131
0000
0102
0200
0003
0320
0000
0000
1000
,  // measure 132
0000
2030
0000
0001
,  // measure 133
0000
0000
0000
3001
0100
0010
1000
0100
0010
0001
0000
0000
,  // measure 134
0000
0012
0000
0000
0100
0000
0000
0000
,  // measure 135
2003
0000
0010
0000
,  // measure 136
0000
3020
0000
0000
,  // measure 137
0130
0000
0000
0000
0001
0000
0000
0000
0010
0000
0000
0000
0100
0000
0000
0000
1000
0000
0000
0000
0100
0000
0000
0000
0020
0000
0000
0000
0000
0000
0030
0000
0000
0002
0000
0000
0000
0000
0000
0003
0000
0000
0200
0000
0000
0000
0000
0000
,  // measure 138
0300
0020
0000
0030
1000
0001
1000
0000
0100
0010
0100
0000
2000
0000
3000
0000
,  // measure 139
0101
0000
0100
0010
1000
0100
0020
0000
,  // measure 140
0130
0000
1000
0000
0001
0000
0100
0000
0020
0000
0000
0000
1030
0000
0001
0100
,  // measure 141
0001
0100
0010
1000
0002
0000
0013
0000
0000
0000
0210
0000
0000
0000
0000
0000
,  // measure 142
0010
0000
0000
2300
0000
0000
0000
0001
,  // measure 143
0000
0000
0000
0000
0000
0000
0000
0000
0000
3010
0000
0100
0000
0001
0000
1000
0000
0100
0000
0010
0000
0002
0000
0000
,  // measure 144
0000
0000
1003
0000
0000
1200
0000
0000
,  // measure 145
0000
0010
0000
0000
0000
2300
0000
0000
,  // measure 146
0000
0000
0000
0010
0000
0000
0000
0000
,  // measure 147
0000
0000
0000
0000
0000
0000
3001
0000
0010
0000
0100
0000
0000
0000
1000
0000
0000
0000
0001
0000
0000
0000
0100
0000
0000
0000
0010
0000
0000
0000
2000
0000
0000
0000
0000
0000
3000
0000
0000
0002
0000
0000
0000
0000
0000
0003
0000
0000
,  // measure 148
0120
0000
0030
2000
0000
3000
0001
0100
0001
0000
1000
0100
1000
0000
0020
0000
,  // measure 149
0030
0101
0000
0001
0010
0100
0010
0002
,  // measure 150
0000
0103
0010
1000
0001
0200
0000
0310
,  // measure 151
1000
0100
0010
0001
1000
0100
2000
0000
3000
0002
0000
0003
0202
0000
0303
2020
,  // measure 152
0000
3030
0000
0000
1000
0100
1000
0000
0001
0010
0001
0000
0100
0000
0010
0000
,  // measure 153
1000
0000
0002
0000
0003
0020
0000
0030
0200
0000
0300
2000
0000
3000
0000
0000
,  // measure 154
0001
0000
0000
0100
0000
0000
0001
0000
0000
0000
0000
0000
1000
0000
0000
0100
0000
0000
1000
0000
0000
0000
0000
0000
0000
0000
0000
0000
0000
0000
0001
0000
0000
0000
0000
0000
0000
0000
0000
0000
0000
0000
1000
0000
0001
0000
1000
0000
,  // measure 155
0001
1000
0001
1000
0000
0000
0000
0000
0000
0020
0000
0000
0000
0000
0000
0130
0000
0000
0001
0000
0000
1000
0000
0000
,  // measure 156
0100
1000
0100
0000
0010
0100
0010
0000
0001
0000
0100
0010
1000
0000
0100
0000
,  // measure 157
0010
0021
0000
0032
0000
0203
0000
0310
,  // measure 158
1000
0000
0100
0010
0001
0010
0001
0000
1000
0000
0100
0000
1000
0000
0020
0000
,  // measure 159
0030
0000
0000
0200
0000
0000
0000
0000
0000
0300
0000
0000
0002
0000
0000
0000
0000
0000
0000
0000
0000
0000
0000
0000
0013
0000
0000
0000
0100
0000
0000
0000
1000
0000
0000
0000
0001
0000
0000
0000
0000
0000
0100
0000
0000
0001
0000
0000
,  // measure 160
0100
0000
0000
0000
0000
0000
0010
0000
0000
1000
0000
0000
0010
0000
0000
0000
0000
0000
0000
0000
1000
0000
0000
0000
0000
0000
0100
0000
0000
0000
0010
0000
0000
0000
0000
0000
0002
0000
0000
0000
0000
0000
0003
0000
0000
0020
0000
0000
,  // measure 161
0000
0000
0000
0030
0000
0000
0021
0000
0000
0000
0000
0000
0000
0000
0000
0000
0000
0000
0031
0000
0000
0000
0100
0000
0000
0000
0010
0000
0000
0000
1000
0000
0000
0000
0000
0000
0100
0000
0000
1000
0000
0000
0100
0000
0000
0000
0000
0000
,  // measure 162
0010
0001
1000
0000
0010
0000
0100
0000
0001
0000
1000
0000
2100
0000
0000
0000
,  // measure 163
0000
0000
0000
0000
0000
0000
0000
0000
0000
0000
0000
0000
3000
0000
0000
0000
0000
0000
0001
0000
0000
0000
0000
0000
0000
0000
1000
0000
0000
0000
0100
0000
0000
0000
0010
0000
0000
0000
0000
0000
0000
0000
0001
0000
0000
0010
0000
0000
,  // measure 164
0100
0000
0000
0000
0000
0000
1000
0000
0000
0001
0000
0000
0100
0000
0000
0000
0000
0000
0000
0000
0000
0000
0010
0000
0000
0000
1000
0000
0000
0000
0100
0000
0000
0000
0000
0000
0010
0000
0000
0000
0000
0000
0001
0000
0000
0000
0000
0000
,  // measure 165
1000
0010
0200
0000
0301
0010
0100
1000
,  // measure 166
0020
0000
0130
0001
0010
0001
0200
0020
,  // measure 167
0330
0120
0000
0000
0000
0000
0000
2030
,  // measure 168
0000
0000
0000
0000
0000
0000
0000
0000
0000
0000
0000
0000
0000
0000
0000
0000
0000
0000
0000
0000
0000
3100
0000
0010
,  // measure 169
0000
0001
0000
1000
0000
0100
0000
0010
0000
0002
0000
0000
0000
0000
0000
0000
0000
0000
0000
0000
0000
0000
0000
0000
,  // measure 170
0000
2003
0000
0000
0000
0000
0000
0000
,  // measure 171
0000
3020
0000
0000
0000
0000
0000
0000
,  // measure 172
0000
0000
0000
0000
0000
0000
0000
0000
0000
0000
0000
0000
0000
0000
0000
0130
0000
0001
0000
0010
0000
0001
0000
1000
,  // measure 173
0000
0000
0100
0000
0000
0000
2000
0000
0000
0000
0000
0000
3000
0000
0000
0002
0000
0000
0000
0000
0000
0003
0000
0000
0202
0000
0000
0000
0000
0000
0303
0000
0000
0200
0000
0000
0000
0000
0000
0300
0000
0000
0000
0000
0000
0000
0000
0000
,  // measure 174
0010
1000
0001
0000
0010
0100
2000
0000
0000
0000
3002
0000
0000
0000
0013
0000
,  // measure 175
0100
1000
0010
0200
0000
0301
0100
0010
,  // measure 176
0100
0000
0002
0000
0000
0000
1003
0000
0100
0010
0100
0010
0100
1000
0200
0000
,  // measure 177
2300
3000
0102
0000
0000
0100
0000
0000
,  // measure 178
2003
0000
0100
0000
,  // measure 179
3001
0000
0100
0000
0010
0000
1000
0000
0100
0000
0010
0000
0002
0000
0000
0000
0000
0000
0000
0000
0000
0100
0000
0000
,  // measure 180
0000
2003
0000
0010
,  // measure 181
0000
3002
0000
0000
,  // measure 182
1000
0000
0000
0000
0000
0000
0000
0000
0000
0013
0100
1000
,  // measure 183
0001
0000
0000
0000
0100
0000
0000
0000
0010
0000
0000
0000
2000
0000
0000
0000
0000
0000
3000
0000
0000
0200
0000
0000
0000
0000
0000
0300
0000
0000
0120
0000
0000
0000
0000
0000
0030
0000
0000
0002
0000
0000
0000
0000
0000
0003
0000
0000
,  // measure 184
0000
0000
0100
0010
1000
0000
0001
0100
0020
0000
0000
0000
2030
0000
0000
0000
,  // measure 185
3100
0010
0100
1000
0002
0000
1003
0010
,  // measure 186
1000
0000
0001
0000
0020
0000
0000
0000
0130
0000
1000
0100
1000
0001
0100
0001
,  // measure 187
0020
0000
0000
0200
0330
0000
1200
0000
0000
2000
0000
3300
0000
0000
0001
0010
,  // measure 188
0001
0000
1000
0001
1000
0000
0010
0000
0100
0000
0001
0000
2000
0000
0000
0200
,  // measure 189
3300
0000
2100
0000
0000
0002
0000
3003
0000
0000
0100
0010
1000
0000
0100
0010
,  // measure 190
0001
0000
0000
0000
0000
0000
0101
0000
0000
0000
0000
0000
0001
1000
0001
1000
0001
1000
0001
0000
0000
0000
0000
0000
,  // measure 191
1100
0000
0000
0000
1000
0000
0100
0000
0000
0000
1000
0001
0100
0000
0010
1000
,  // measure 192
0010
0000
0000
0000
0000
0000
0000
0000
1000
0000
0000
0000
0000
0000
0001
0000
0000
0000
0100
0000
0000
0000
0000
0000
0000
0000
0000
0010
0000
0000
0000
0000
0000
0000
0000
0000
1010
0000
0000
0000
0000
0000
0000
0000
0000
0000
0000
0000
,  // measure 193
1000
0000
0000
0000
0100
0000
0000
0000
0010
0000
0001
0000
0100
0001
0100
0001
,  // measure 194
0100
0000
0010
0000
1000
0000
0001
0000
0020
0000
0030
0200
0000
0300
1100
0000
,  // measure 195
0000
0000
0000
0000
0000
0000
1000
0000
0000
0000
0001
0000
0000
0000
0100
0000
0000
0000
0000
0000
0000
0000
0000
0000
0010
0000
0000
1000
0000
0000
0010
0000
0000
0000
0000
0000
0100
0000
0000
0001
0000
0000
0100
0000
0000
0000
0000
0000
,  // measure 196
0000
0000
0001
0000
0000
0000
0000
0000
0010
0000
0000
0000
0100
0000
0000
0000
0000
0000
2000
0000
0000
0000
0000
0000
3000
0000
0000
0002
0000
0000
0000
0000
0000
0003
0000
0000
0101
0000
0000
0000
0000
0000
0000
0000
0000
0000
0000
0000
,  // measure 197
0010
0000
0000
0000
1000
0000
0000
0000
0001
0000
0000
0000
0000
0000
0000
0000
0000
0000
0100
0000
0000
0001
0000
0000
1000
0000
0000
0000
0000
0000
0100
0000
0000
1000
0000
0000
0100
0000
0000
0000
0000
0000
0010
0000
0000
0000
0000
0000
,  // measure 198
0001
0000
0000
0000
0000
0000
1000
0000
0000
0000
0000
0000
0020
0000
0000
0030
0000
0000
0210
0000
0000
0000
0000
0000
0000
0000
0000
0000
0000
0000
0000
0000
0000
0000
0000
0000
0000
0000
0000
0000
0000
0000
0300
0000
0100
0000
0000
0000
,  // measure 199
0001
0000
0000
0000
0000
0000
0000
0000
0010
0000
0000
0000
0100
0000
0000
0000
1000
0000
0000
0000
0000
0000
0000
0000
0001
0000
0000
0100
0000
0000
0001
0000
0000
0000
0000
0000
1000
0000
0000
0010
0000
0000
0100
0000
0000
0000
0000
0000
,  // measure 200
0000
0001
0000
0000
1000
0000
0100
0000
0000
0010
0000
0000
0001
0000
0000
0100
0000
0000
0010
0000
0000
2000
0000
0000
,  // measure 201
0000
3010
0100
0010
1000
0200
0000
1300
,  // measure 202
0001
0000
0100
0000
0010
0000
1000
0001
0010
0100
2000
0000
3001
0100
0010
1000
,  // measure 203
0200
0000
1300
0010
0100
0001
0010
0100
1000
0010
0100
0001
0010
0001
1000
0010
,  // measure 204
1000
0001
0100
0001
1000
0100
1000
0010
0100
0001
0020
0000
0130
1000
0001
0100
,  // measure 205
0020
0000
1030
0001
0010
0100
1000
0001
0100
0010
1000
0001
0010
0100
1000
0100
,  // measure 206
0010
0001
1000
0010
0100
0001
1000
0100
1000
0010
0200
0000
0301
0010
0001
0100
,  // measure 207
0020
0000
1030
0100
1000
0010
1000
0001
0100
0001
0010
0001
1000
0010
0100
0001
,  // measure 208
0010
0100
1000
0010
0100
0001
1000
0010
0100
0001
0020
0000
0130
1000
0001
1000
,  // measure 209
0200
0000
0310
0100
1000
0100
0010
0001
1000
0010
0100
0002
20M0
0M00
0000
00M0
,  // measure 210
0M00
0000
0000
0000
00M0
0000
0000
0M00
0000
00M0
0000
3M03
0000
0000
0000
0000
0000
0000
0000
0000
0000
0000
0000
0000
0000
0000
0000
0000
0000
0000
0000
0000
;
